Select movie Search movie Close search My Account

Mission: Impossible - Ghost Protocol 4K 2011 Ultra HD 2160p

Mission: Impossible - Ghost Protocol 4K 2011 Ultra HD 2160p
BDRemux / BDRip
Country: USA | United Arab Emirates | Czech Republic
Time: 2h 12min
IMDB: 7.4
Director: Brad Bird
Actors: Tom Cruise, Paula Patton, Simon Pegg, Jeremy Renner, Michael Nyqvist, Vladimir Mashkov, Samuli Edelmann, Ivan Shvedoff, Anil Kapoor, L?a Seydoux, Josh Holloway, Pavel Kr?z, Miraj Grbic, Ilia Volok, Goran Navojec

Story Movie

Mission: Impossible - Ghost Protocol 4K 2011 Ultra HD 2160p
In the film Mission: Impossible - Ghost Protocol Ethan Hunt 4k movie for download has new problems, but the special agent of the CIA does not even doubt it. that he can solve them. He is accused along with his partner in the explosion of the Kremlin. and this time the guy has to solve all the soybean issues much faster. The president liquidates his unit, but even without the support of the state face to face with challenges, Eaton does not drop his hand and finds a denouement.

Review 4K Movie

... When you are obsessed with a dream, let it be the tiniest, then no one and nothing can stop you or stop you. At such a moment, you become a roaring locomotive and start to speedily pick up speed to get to your destination faster. And when you get to the desired object, then your mind understands that it has achieved its ...

Approximately so, it is possible to describe my state, the day I finally found myself in the viewer's chair and began viewing the expected picture. This work of a well-known American director for a long time, almost throughout its entire creation, has been driving me nerves and quite often pulled my patience. And how could it be otherwise? After all, the film was a continuation of the most cult series about spies. If you do not notice that I grew up on these masterpieces, then we can say that I, because of all my strength, just wanted to look at the most spectacular picture, entitled "Mission Impossible: Ghost Protocol" Ultra HD.

... Secret agent Ethan Hunt agrees on the assignment, which says that he and his team have to steal important documents from the Kremlin. Once inside the Russian shrine, Ethan realizes that it was preceded by a second unknown side. To hide their evil deed, opponents blow up the Kremlin and disappear with a very large prey. Ethan, having got into the hands of Russian intelligence officers, understands that it is necessary to escape. After the escape, he and his associates learn that their own government refuses them. And, based on this, Hunt decides to figure out a small number of difficult situations, and grab terrorists who want to make a nuclear war ...

Brad Bird created a truly classy and world cinema. One of the most insignificant glances is enough to understand and believe that the "Protocol" was tried by masters and professionals. Everything is so realistic to remove, everything is so smartly thought out .... This is because you still have to try hard! Some types of European and Asian countries are breathtaking, and breathing in this spectacle generally disappears. The spectator from the very beginning leaves in the world of all gadgets and espionage lotions. Watching such a movie is a pleasure.

Yes, it was something! Especially if you view this creation on the big screen of the cinema. The amazing result of filming pleases the eye, stunning and explosive special effects destroy all the blunders and misunderstandings, and stunts, then, tricks! There are so many of them in the fourth part that you do not even know the real number. One ascent of Ethan Hunt on the tower of the Caliph is worth it. The only thing that jarred my perception, so it's an explosion of the Kremlin. Although, Americans always want us something nasty and intrusive, so I was not very surprised by this fact.

By the way, in addition to an excellent visual part and, well, a well-thought-out storyline strikes a bewitching actor's game. That's where, where, and here the ensemble of artists gathered to glory. The main character, already at what time, played Tom Cruise. His ability to effectively appear in front of the audience is terribly exciting. I really liked his talents. Oh yes! Finally, the United States realized that the Russians have vigorous personalities. I lead to the fact that staying in the actor's cage of Vladimir Mashkov significantly raises the bar of the rating. Perhaps someone went to the film just for him. Mashkov played a Russian agent a hundred percent. Well done!

In the end, I will note. "Mission Impossible: The Ghost Protocol" UHD is a perfect continuation in the series about brave scouts. I advise you to watch and 4k movie for download/

Mediainfo

movie BDRemux Video #1
ID : 1
Format : HEVC
Format/Info : High Efficiency Video Coding
Commercial name : HDR10
Format profile : Main 10@L5.1@High
Codec ID : V_MPEGH/ISO/HEVC
Duration : 2 h 12 min
Bit rate : 43.1 Mb/s
Width : 3 840 pixels
Height : 2 160 pixels
Display aspect ratio : 16:9
Frame rate mode : Constant
Frame rate : 23.976 (24000/1001) FPS
Color space : YUV
Chroma subsampling : 4:2:0 (Type 2)
Bit depth : 10 bits
Bits/(Pixel*Frame) : 0.217
Stream size : 40.0 GiB (73%)
Title : Mission.Impossible.Ghost.Protocol.2011.2160p.BluRay.REMUX.HEVC.TrueHD.7.1
Default : Yes
Forced : No
Color range : Limited
Color primaries : BT.2020
Transfer characteristics : PQ
Matrix coefficients : BT.2020 non-constant
Mastering display color primaries : Display P3
Mastering display luminance : min: 0.0001 cd/m2, max: 1000 cd/m2

Video #2
ID : 2
Format : HEVC
Format/Info : High Efficiency Video Coding
Commercial name : HDR10
Format profile : Main 10@L5.1@High
Codec ID : V_MPEGH/ISO/HEVC
Duration : 2 h 12 min
Bit rate : 4 862 kb/s
Width : 1 920 pixels
Height : 1 080 pixels
Display aspect ratio : 16:9
Frame rate mode : Constant
Frame rate : 23.976 (24000/1001) FPS
Color space : YUV
Chroma subsampling : 4:2:0 (Type 2)
Bit depth : 10 bits
Bits/(Pixel*Frame) : 0.098
Stream size : 4.51 GiB (8%)
Title : Mission.Impossible.Ghost.Protocol.2011.2160p.BluRay.REMUX.HEVC.TrueHD.7.1
Default : No
Forced : No
Color range : Limited
Color primaries : BT.2020
Transfer characteristics : PQ
Matrix coefficients : BT.2020 non-constant
Mastering display color primaries : Display P3
Mastering display luminance : min: 0.0001 cd/m2, max: 1000 cd/m2

Audio #1
ID : 3
Format : TrueHD
Codec ID : A_TRUEHD
Duration : 2 h 12 min
Bit rate mode : Variable
Bit rate : 4 492 kb/s
Maximum bit rate : 6 759 kb/s
Channel(s) : 8 channels
Channel positions : Front: L C R, Side: L R, Back: L R, LFE
Sampling rate : 48.0 kHz
Frame rate : 1 200.000 FPS (40 SPF)
Compression mode : Lossless
Stream size : 4.17 GiB (8%)
Title : Mission.Impossible.Ghost.Protocol.2011.2160p.BluRay.REMUX.HEVC.TrueHD.7.1
Language : English
Default : Yes
Forced : No

Audio #2
ID : 4
Format : AC-3
Format/Info : Audio Coding 3
Codec ID : A_AC3
Duration : 2 h 12 min
Bit rate mode : Constant
Bit rate : 640 kb/s
Channel(s) : 6 channels
Channel positions : Front: L C R, Side: L R, LFE
Sampling rate : 48.0 kHz
Frame rate : 31.250 FPS (1536 SPF)
Bit depth : 16 bits
Compression mode : Lossy
Stream size : 609 MiB (1%)
Title : Mission.Impossible.Ghost.Protocol.2011.2160p.BluRay.REMUX.HEVC.TrueHD.7.1
Language : English
Service kind : Complete Main
Default : No
Forced : No

Audio #3
ID : 5
Format : AC-3
Format/Info : Audio Coding 3
Codec ID : A_AC3
Duration : 2 h 12 min
Bit rate mode : Constant
Bit rate : 640 kb/s
Channel(s) : 6 channels
Channel positions : Front: L C R, Side: L R, LFE
Sampling rate : 48.0 kHz
Frame rate : 31.250 FPS (1536 SPF)
Bit depth : 16 bits
Compression mode : Lossy
Stream size : 609 MiB (1%)
Title : Mission.Impossible.Ghost.Protocol.2011.2160p.BluRay.REMUX.HEVC.TrueHD.7.1
Language : English
Service kind : Complete Main
Default : No
Forced : No

Audio #4
ID : 6
Format : AC-3
Format/Info : Audio Coding 3
Codec ID : A_AC3
Duration : 2 h 12 min
Bit rate mode : Constant
Bit rate : 640 kb/s
Channel(s) : 6 channels
Channel positions : Front: L C R, Side: L R, LFE
Sampling rate : 48.0 kHz
Frame rate : 31.250 FPS (1536 SPF)
Bit depth : 16 bits
Compression mode : Lossy
Stream size : 609 MiB (1%)
Title : Mission.Impossible.Ghost.Protocol.2011.2160p.BluRay.REMUX.HEVC.TrueHD.7.1
Language : German
Service kind : Complete Main
Default : No
Forced : No

Audio #5
ID : 7
Format : AC-3
Format/Info : Audio Coding 3
Codec ID : A_AC3
Duration : 2 h 12 min
Bit rate mode : Constant
Bit rate : 640 kb/s
Channel(s) : 6 channels
Channel positions : Front: L C R, Side: L R, LFE
Sampling rate : 48.0 kHz
Frame rate : 31.250 FPS (1536 SPF)
Bit depth : 16 bits
Compression mode : Lossy
Stream size : 609 MiB (1%)
Title : Mission.Impossible.Ghost.Protocol.2011.2160p.BluRay.REMUX.HEVC.TrueHD.7.1
Language : Spanish
Service kind : Complete Main
Default : No
Forced : No

Audio #6
ID : 8
Format : AC-3
Format/Info : Audio Coding 3
Codec ID : A_AC3
Duration : 2 h 12 min
Bit rate mode : Constant
Bit rate : 640 kb/s
Channel(s) : 6 channels
Channel positions : Front: L C R, Side: L R, LFE
Sampling rate : 48.0 kHz
Frame rate : 31.250 FPS (1536 SPF)
Bit depth : 16 bits
Compression mode : Lossy
Stream size : 609 MiB (1%)
Title : Mission.Impossible.Ghost.Protocol.2011.2160p.BluRay.REMUX.HEVC.TrueHD.7.1
Language : Spanish
Service kind : Complete Main
Default : No
Forced : No

Audio #7
ID : 9
Format : AC-3
Format/Info : Audio Coding 3
Codec ID : A_AC3
Duration : 2 h 12 min
Bit rate mode : Constant
Bit rate : 640 kb/s
Channel(s) : 6 channels
Channel positions : Front: L C R, Side: L R, LFE
Sampling rate : 48.0 kHz
Frame rate : 31.250 FPS (1536 SPF)
Bit depth : 16 bits
Compression mode : Lossy
Stream size : 609 MiB (1%)
Title : Mission.Impossible.Ghost.Protocol.2011.2160p.BluRay.REMUX.HEVC.TrueHD.7.1
Language : French
Service kind : Complete Main
Default : No
Forced : No

Audio #8
ID : 10
Format : AC-3
Format/Info : Audio Coding 3
Codec ID : A_AC3
Duration : 2 h 12 min
Bit rate mode : Constant
Bit rate : 640 kb/s
Channel(s) : 6 channels
Channel positions : Front: L C R, Side: L R, LFE
Sampling rate : 48.0 kHz
Frame rate : 31.250 FPS (1536 SPF)
Bit depth : 16 bits
Compression mode : Lossy
Stream size : 609 MiB (1%)
Title : Mission.Impossible.Ghost.Protocol.2011.2160p.BluRay.REMUX.HEVC.TrueHD.7.1
Language : French
Service kind : Complete Main
Default : No
Forced : No

Audio #9
ID : 11
Format : AC-3
Format/Info : Audio Coding 3
Codec ID : A_AC3
Duration : 2 h 12 min
Bit rate mode : Constant
Bit rate : 640 kb/s
Channel(s) : 6 channels
Channel positions : Front: L C R, Side: L R, LFE
Sampling rate : 48.0 kHz
Frame rate : 31.250 FPS (1536 SPF)
Bit depth : 16 bits
Compression mode : Lossy
Stream size : 609 MiB (1%)
Title : Mission.Impossible.Ghost.Protocol.2011.2160p.BluRay.REMUX.HEVC.TrueHD.7.1
Language : Italian
Service kind : Complete Main
Default : No
Forced : No

Audio #10
ID : 12
Format : AC-3
Format/Info : Audio Coding 3
Codec ID : A_AC3
Duration : 2 h 12 min
Bit rate mode : Constant
Bit rate : 640 kb/s
Channel(s) : 6 channels
Channel positions : Front: L C R, Side: L R, LFE
Sampling rate : 48.0 kHz
Frame rate : 31.250 FPS (1536 SPF)
Bit depth : 16 bits
Compression mode : Lossy
Stream size : 609 MiB (1%)
Title : Mission.Impossible.Ghost.Protocol.2011.2160p.BluRay.REMUX.HEVC.TrueHD.7.1
Language : Japanese
Service kind : Complete Main
Default : No
Forced : No

Audio #11
ID : 13
Format : AC-3
Format/Info : Audio Coding 3
Codec ID : A_AC3
Duration : 2 h 12 min
Bit rate mode : Constant
Bit rate : 640 kb/s
Channel(s) : 6 channels
Channel positions : Front: L C R, Side: L R, LFE
Sampling rate : 48.0 kHz
Frame rate : 31.250 FPS (1536 SPF)
Bit depth : 16 bits
Compression mode : Lossy
Stream size : 609 MiB (1%)
Title : Mission.Impossible.Ghost.Protocol.2011.2160p.BluRay.REMUX.HEVC.TrueHD.7.1
Language : Portuguese
Service kind : Complete Main
Default : No
Forced : No

Text #1
ID : 14
Format : PGS
Muxing mode : zlib
Codec ID : S_HDMV/PGS
Codec ID/Info : Picture based subtitle format used on BDs/HD-DVDs
Duration : 2 h 2 min
Bit rate : 14.7 kb/s
Count of elements : 2537
Stream size : 12.9 MiB (0%)
Title : English-PGS
Language : English
Default : Yes
Forced : No

Text #2
ID : 15
Format : PGS
Muxing mode : zlib
Codec ID : S_HDMV/PGS
Codec ID/Info : Picture based subtitle format used on BDs/HD-DVDs
Duration : 2 h 5 min
Bit rate : 17.7 kb/s
Count of elements : 3211
Stream size : 15.9 MiB (0%)
Title : English-SDH-PGS
Language : English
Default : No
Forced : No

Text #3
ID : 16
Format : PGS
Muxing mode : zlib
Codec ID : S_HDMV/PGS
Codec ID/Info : Picture based subtitle format used on BDs/HD-DVDs
Duration : 2 h 10 min
Bit rate : 12.6 kb/s
Count of elements : 1836
Stream size : 11.8 MiB (0%)
Title : Danish-PGS
Language : Danish
Default : No
Forced : No

Text #4
ID : 17
Format : PGS
Muxing mode : zlib
Codec ID : S_HDMV/PGS
Codec ID/Info : Picture based subtitle format used on BDs/HD-DVDs
Duration : 2 h 10 min
Bit rate : 13.3 kb/s
Count of elements : 2416
Stream size : 12.4 MiB (0%)
Title : German-PGS
Language : German
Default : No
Forced : No

Text #5
ID : 18
Format : PGS
Muxing mode : zlib
Codec ID : S_HDMV/PGS
Codec ID/Info : Picture based subtitle format used on BDs/HD-DVDs
Duration : 2 h 10 min
Bit rate : 13.9 kb/s
Count of elements : 2534
Stream size : 13.0 MiB (0%)
Title : Spanish-PGS
Language : Spanish
Default : No
Forced : No

Text #6
ID : 19
Format : PGS
Muxing mode : zlib
Codec ID : S_HDMV/PGS
Codec ID/Info : Picture based subtitle format used on BDs/HD-DVDs
Duration : 2 h 4 min
Bit rate : 13.3 kb/s
Count of elements : 2452
Stream size : 11.8 MiB (0%)
Title : Spanish-PGS
Language : Spanish
Default : No
Forced : No

Text #7
ID : 20
Format : PGS
Muxing mode : zlib
Codec ID : S_HDMV/PGS
Codec ID/Info : Picture based subtitle format used on BDs/HD-DVDs
Duration : 2 h 10 min
Bit rate : 11.4 kb/s
Count of elements : 2506
Stream size : 10.6 MiB (0%)
Title : French-PGS
Language : French
Default : No
Forced : No

Text #8
ID : 21
Format : PGS
Muxing mode : zlib
Codec ID : S_HDMV/PGS
Codec ID/Info : Picture based subtitle format used on BDs/HD-DVDs
Duration : 2 h 4 min
Bit rate : 14.5 kb/s
Count of elements : 2576
Stream size : 12.9 MiB (0%)
Title : French-PGS
Language : French
Default : No
Forced : No

Text #9
ID : 22
Format : PGS
Muxing mode : zlib
Codec ID : S_HDMV/PGS
Codec ID/Info : Picture based subtitle format used on BDs/HD-DVDs
Duration : 2 h 9 min
Bit rate : 13.1 kb/s
Count of elements : 2202
Stream size : 12.1 MiB (0%)
Title : Italian-PGS
Language : Italian
Default : No
Forced : No

Text #10
ID : 23
Format : PGS
Muxing mode : zlib
Codec ID : S_HDMV/PGS
Codec ID/Info : Picture based subtitle format used on BDs/HD-DVDs
Duration : 2 h 5 min
Bit rate : 18.0 kb/s
Count of elements : 2421
Stream size : 16.2 MiB (0%)
Title : Japanese-PGS
Language : Japanese
Default : No
Forced : No

Text #11
ID : 24
Format : PGS
Muxing mode : zlib
Codec ID : S_HDMV/PGS
Codec ID/Info : Picture based subtitle format used on BDs/HD-DVDs
Duration : 2 h 11 min
Bit rate : 11.1 kb/s
Count of elements : 1826
Stream size : 10.4 MiB (0%)
Title : Dutch-PGS
Language : Dutch
Default : No
Forced : No

Text #12
ID : 25
Format : PGS
Muxing mode : zlib
Codec ID : S_HDMV/PGS
Codec ID/Info : Picture based subtitle format used on BDs/HD-DVDs
Duration : 2 h 10 min
Bit rate : 10.8 kb/s
Count of elements : 2242
Stream size : 10.1 MiB (0%)
Title : Norwegian-PGS
Language : Norwegian
Default : No
Forced : No

Text #13
ID : 26
Format : PGS
Muxing mode : zlib
Codec ID : S_HDMV/PGS
Codec ID/Info : Picture based subtitle format used on BDs/HD-DVDs
Duration : 2 h 5 min
Bit rate : 12.9 kb/s
Count of elements : 2474
Stream size : 11.5 MiB (0%)
Title : Portuguese-PGS
Language : Portuguese
Default : No
Forced : No

Text #14
ID : 27
Format : PGS
Muxing mode : zlib
Codec ID : S_HDMV/PGS
Codec ID/Info : Picture based subtitle format used on BDs/HD-DVDs
Duration : 2 h 10 min
Bit rate : 13.5 kb/s
Count of elements : 2580
Stream size : 12.6 MiB (0%)
Title : Finnish-PGS
Language : Finnish
Default : No
Forced : No

Text #15
ID : 28
Format : PGS
Muxing mode : zlib
Codec ID : S_HDMV/PGS
Codec ID/Info : Picture based subtitle format used on BDs/HD-DVDs
Duration : 2 h 10 min
Bit rate : 12.1 kb/s
Count of elements : 2466
Stream size : 11.3 MiB (0%)
Title : Swedish-PGS
Language : Swedish
Default : No
Forced : No

Text #16
ID : 29
Format : PGS
Muxing mode : zlib
Codec ID : S_HDMV/PGS
Codec ID/Info : Picture based subtitle format used on BDs/HD-DVDs
Duration : 1 h 55 min
Bit rate : 796 b/s
Count of elements : 173
Stream size : 672 KiB (0%)
Title : English-COMMENTARY-PGS
Language : English
Default : No
Forced : No

Text #17
ID : 30
Format : PGS
Muxing mode : zlib
Codec ID : S_HDMV/PGS
Codec ID/Info : Picture based subtitle format used on BDs/HD-DVDs
Duration : 1 h 55 min
Bit rate : 996 b/s
Count of elements : 188
Stream size : 841 KiB (0%)
Title : German-COMMENTARY-PGS
Language : German
Default : No
Forced : No

Text #18
ID : 31
Format : PGS
Muxing mode : zlib
Codec ID : S_HDMV/PGS
Codec ID/Info : Picture based subtitle format used on BDs/HD-DVDs
Duration : 1 h 55 min
Bit rate : 994 b/s
Count of elements : 190
Stream size : 839 KiB (0%)
Title : Spanish-COMMENTARY-PGS
Language : Spanish
Default : No
Forced : No

Text #19
ID : 32
Format : PGS
Muxing mode : zlib
Codec ID : S_HDMV/PGS
Codec ID/Info : Picture based subtitle format used on BDs/HD-DVDs
Duration : 1 h 55 min
Bit rate : 920 b/s
Count of elements : 192
Stream size : 776 KiB (0%)
Title : Spanish-COMMENTARY-PGS
Language : Spanish
Default : No
Forced : No

Text #20
ID : 33
Format : PGS
Muxing mode : zlib
Codec ID : S_HDMV/PGS
Codec ID/Info : Picture based subtitle format used on BDs/HD-DVDs
Duration : 1 h 55 min
Bit rate : 856 b/s
Count of elements : 190
Stream size : 722 KiB (0%)
Title : French-COMMENTARY-PGS
Language : French
Default : No
Forced : No

Text #21
ID : 34
Format : PGS
Muxing mode : zlib
Codec ID : S_HDMV/PGS
Codec ID/Info : Picture based subtitle format used on BDs/HD-DVDs
Duration : 1 h 55 min
Bit rate : 856 b/s
Count of elements : 188
Stream size : 723 KiB (0%)
Title : French-COMMENTARY-PGS
Language : French
Default : No
Forced : No

Text #22
ID : 35
Format : PGS
Muxing mode : zlib
Codec ID : S_HDMV/PGS
Codec ID/Info : Picture based subtitle format used on BDs/HD-DVDs
Duration : 1 h 55 min
Bit rate : 911 b/s
Count of elements : 186
Stream size : 769 KiB (0%)
Title : Italian-COMMENTARY-PGS
Language : Italian
Default : No
Forced : No

Text #23
ID : 36
Format : PGS
Muxing mode : zlib
Codec ID : S_HDMV/PGS
Codec ID/Info : Picture based subtitle format used on BDs/HD-DVDs
Duration : 1 h 58 min
Bit rate : 1 600 b/s
Count of elements : 246
Stream size : 1.36 MiB (0%)
Title : Japanese-COMMENTARY-PGS
Language : Japanese
Default : No
Forced : No

Text #24
ID : 37
Format : PGS
Muxing mode : zlib
Codec ID : S_HDMV/PGS
Codec ID/Info : Picture based subtitle format used on BDs/HD-DVDs
Duration : 1 h 55 min
Bit rate : 884 b/s
Count of elements : 190
Stream size : 746 KiB (0%)
Title : Portuguese-COMMENTARY-PGS
Language : Portuguese
Default : No
Forced : No

Menu
00:00:00.000 : en:Chapter 1
00:04:42.740 : en:Chapter 2
00:11:29.730 : en:Chapter 3
00:20:02.784 : en:Chapter 4
00:27:36.154 : en:Chapter 5
00:33:29.007 : en:Chapter 6
00:38:19.422 : en:Chapter 7
00:44:46.934 : en:Chapter 8
00:51:38.053 : en:Chapter 9
00:56:05.987 : en:Chapter 10
01:02:51.017 : en:Chapter 11
01:09:18.654 : en:Chapter 12
01:16:33.213 : en:Chapter 13
01:22:19.351 : en:Chapter 14
01:31:17.889 : en:Chapter 15
01:35:58.210 : en:Chapter 16
01:42:50.747 : en:Chapter 17
01:51:02.614 : en:Chapter 18
01:58:27.225 : en:Chapter 19
02:05:59.677 : en:Chapter 20
movie BDRip Video
ID : 1
Format : HEVC
Format/Info : High Efficiency Video Coding
Commercial name : HDR10
Format profile : Main 10@L5.1@High
Codec ID : V_MPEGH/ISO/HEVC
Duration : 2 h 12 min
Width : 3 840 pixels
Height : 1 600 pixels
Display aspect ratio : 2.40:1
Frame rate mode : Constant
Frame rate : 23.976 (24000/1001) FPS
Color space : YUV
Chroma subsampling : 4:2:0 (Type 2)
Bit depth : 10 bits
Writing library : x265 2.8+10-703eade86b53:[Windows][GCC 8.1.0][64 bit] 10bit
Encoding settings : cpuid=1111039 / frame-threads=4 / numa-pools=16 / wpp / no-pmode / no-pme / no-psnr / no-ssim / log-level=2 / input-csp=1 / input-res=3840x1600 / interlace=0 / total-frames=191232 / level-idc=51 / high-tier=1 / uhd-bd=0 / ref=4 / no-allow-non-conformance / repeat-headers / annexb / aud / hrd / info / hash=0 / no-temporal-layers / no-open-gop / min-keyint=24 / keyint=240 / gop-lookahead=0 / bframes=4 / b-adapt=2 / b-pyramid / bframe-bias=0 / rc-lookahead=25 / lookahead-slices=4 / scenecut=40 / radl=0 / no-intra-refresh / ctu=64 / min-cu-size=8 / rect / no-amp / max-tu-size=32 / tu-inter-depth=1 / tu-intra-depth=1 / limit-tu=0 / rdoq-level=2 / dynamic-rd=0.00 / no-ssim-rd / signhide / no-tskip / nr-intra=0 / nr-inter=0 / no-constrained-intra / no-strong-intra-smoothing / max-merge=3 / limit-refs=3 / limit-modes / me=3 / subme=3 / merange=57 / temporal-mvp / weightp / no-weightb / no-analyze-src-pics / deblock=-3:-3 / no-sao / no-sao-non-deblock / rd=4 / no-early-skip / rskip / no-fast-intra / no-tskip-fast / no-cu-lossless / no-b-intra / no-splitrd-skip / rdpenalty=0 / psy-rd=2.00 / psy-rdoq=1.00 / no-rd-refine / no-lossless / cbqpoffs=0 / crqpoffs=0 / rc=crf / crf=18.5 / qcomp=0.60 / qpstep=4 / stats-write=0 / stats-read=0 / vbv-maxrate=160000 / vbv-bufsize=160000 / vbv-init=0.9 / crf-max=0.0 / crf-min=0.0 / ipratio=1.40 / pbratio=1.30 / aq-mode=1 / aq-strength=1.00 / cutree / zone-count=0 / no-strict-cbr / qg-size=32 / no-rc-grain / qpmax=69 / qpmin=0 / no-const-vbv / sar=1 / overscan=0 / videoformat=5 / range=0 / colorprim=9 / transfer=16 / colormatrix=9 / chromaloc=1 / chromaloc-top=2 / chromaloc-bottom=2 / display-window=0 / master-display=G(13250,34500)B(7500,3000)R(34000,16000)WP(15635,16450)L(10000000,1) / max-cll=0,0 / min-luma=0 / max-luma=1023 / log2-max-poc-lsb=8 / vui-timing-info / vui-hrd-info / slices=1 / no-opt-qp-pps / no-opt-ref-list-length-pps / no-multi-pass-opt-rps / scenecut-bias=0.05 / no-opt-cu-delta-qp / no-aq-motion / hdr / hdr-opt / no-dhdr10-opt / no-idr-recovery-sei / analysis-reuse-level=5 / scale-factor=0 / refine-intra=0 / refine-inter=0 / refine-mv=0 / no-limit-sao / ctu-info=0 / no-lowpass-dct / refine-mv-type=0 / copy-pic=1 / max-ausize-factor=1.0 / no-dynamic-refine / no-single-sei
Default : Yes
Forced : No
Color range : Limited
Color primaries : BT.2020
Transfer characteristics : PQ
Matrix coefficients : BT.2020 non-constant
Statistics Tags Issue : no_variable_data 1970-01-01 00:00:00 / no_variable_data 2010-02-22 21:41:29
FromStats_BitRate : 28589244
FromStats_Duration : 02:12:55.968000000
FromStats_FrameCount : 191232
FromStats_StreamSize : 28503362255
Mastering display color primaries : Display P3
Mastering display luminance : min: 0.0001 cd/m2, max: 1000 cd/m2

Audio #1
ID : 2
Format : TrueHD
Codec ID : A_TRUEHD
Duration : 2 h 12 min
Bit rate mode : Variable
Maximum bit rate : 6 759 kb/s
Channel(s) : 8 channels
Channel positions : Front: L C R, Side: L R, Back: L R, LFE
Sampling rate : 48.0 kHz
Frame rate : 1 200.000 FPS (40 SPF)
Compression mode : Lossless
Title : Atmos 7.1
Language : English
Default : Yes
Forced : No
Statistics Tags Issue : no_variable_data 1970-01-01 00:00:00 / no_variable_data 2010-02-22 21:41:29
FromStats_BitRate : 4491741
FromStats_Duration : 02:12:55.969000000
FromStats_FrameCount : 9571163
FromStats_StreamSize : 4478249074

Audio #2
ID : 3
Format : AC-3
Format/Info : Audio Coding 3
Codec ID : A_AC3
Duration : 2 h 12 min
Bit rate mode : Constant
Bit rate : 640 kb/s
Channel(s) : 6 channels
Channel positions : Front: L C R, Side: L R, LFE
Sampling rate : 48.0 kHz
Frame rate : 31.250 FPS (1536 SPF)
Bit depth : 16 bits
Compression mode : Lossy
Stream size : 609 MiB (2%)
Title : AC-3 5.1
Language : English
Service kind : Complete Main
Default : No
Forced : No
Statistics Tags Issue : no_variable_data 1970-01-01 00:00:00 / no_variable_data 2010-02-22 21:41:29
FromStats_BitRate : 640000
FromStats_Duration : 02:12:56.000000000
FromStats_FrameCount : 249250
FromStats_StreamSize : 638080000

Text #1
ID : 4
Format : UTF-8
Codec ID : S_TEXT/UTF8
Codec ID/Info : UTF-8 Plain Text
Title : Forced SRT
Language : English
Default : Yes
Forced : Yes
Statistics Tags Issue : no_variable_data 1970-01-01 00:00:00 / no_variable_data 2010-02-22 21:41:29
FromStats_BitRate : 2
FromStats_Duration : 01:55:10.727000000
FromStats_FrameCount : 87
FromStats_StreamSize : 1998

Text #2
ID : 5
Format : PGS
Muxing mode : zlib
Codec ID : S_HDMV/PGS
Codec ID/Info : Picture based subtitle format used on BDs/HD-DVDs
Title : Forced
Language : English
Default : No
Forced : No
Statistics Tags Issue : no_variable_data 1970-01-01 00:00:00 / no_variable_data 2010-02-22 21:41:29
FromStats_BitRate : 796
FromStats_Duration : 01:55:10.738000000
FromStats_FrameCount : 173
FromStats_StreamSize : 688385

Text #3
ID : 6
Format : UTF-8
Codec ID : S_TEXT/UTF8
Codec ID/Info : UTF-8 Plain Text
Title : Stripped SRT
Language : English
Default : No
Forced : No
Statistics Tags Issue : no_variable_data 1970-01-01 00:00:00 / no_variable_data 2010-02-22 21:41:29
FromStats_BitRate : 43
FromStats_Duration : 02:02:55.284000000
FromStats_FrameCount : 1285
FromStats_StreamSize : 39990

Text #4
ID : 7
Format : UTF-8
Codec ID : S_TEXT/UTF8
Codec ID/Info : UTF-8 Plain Text
Title : Full SRT
Language : English
Default : No
Forced : No
Statistics Tags Issue : no_variable_data 1970-01-01 00:00:00 / no_variable_data 2010-02-22 21:41:29
FromStats_BitRate : 43
FromStats_Duration : 02:02:55.326000000
FromStats_FrameCount : 1269
FromStats_StreamSize : 39774

Text #5
ID : 8
Format : PGS
Muxing mode : zlib
Codec ID : S_HDMV/PGS
Codec ID/Info : Picture based subtitle format used on BDs/HD-DVDs
Title : Full
Language : English
Default : No
Forced : No
Statistics Tags Issue : no_variable_data 1970-01-01 00:00:00 / no_variable_data 2010-02-22 21:41:29
FromStats_BitRate : 14656
FromStats_Duration : 02:02:55.327000000
FromStats_FrameCount : 2537
FromStats_StreamSize : 13512501

Text #6
ID : 9
Format : UTF-8
Codec ID : S_TEXT/UTF8
Codec ID/Info : UTF-8 Plain Text
Title : SDH SRT
Language : English
Default : No
Forced : No
Statistics Tags Issue : no_variable_data 1970-01-01 00:00:00 / no_variable_data 2010-02-22 21:41:29
FromStats_BitRate : 50
FromStats_Duration : 02:05:00.409000000
FromStats_FrameCount : 1606
FromStats_StreamSize : 46911

Text #7
ID : 10
Format : PGS
Muxing mode : zlib
Codec ID : S_HDMV/PGS
Codec ID/Info : Picture based subtitle format used on BDs/HD-DVDs
Title : SDH
Language : English
Default : No
Forced : No
Statistics Tags Issue : no_variable_data 1970-01-01 00:00:00 / no_variable_data 2010-02-22 21:41:29
FromStats_BitRate : 17731
FromStats_Duration : 02:05:00.410000000
FromStats_FrameCount : 3211
FromStats_StreamSize : 16623964

Text #8
ID : 11
Format : PGS
Muxing mode : zlib
Codec ID : S_HDMV/PGS
Codec ID/Info : Picture based subtitle format used on BDs/HD-DVDs
Title : EU
Language : French
Default : No
Forced : No
Statistics Tags Issue : no_variable_data 1970-01-01 00:00:00 / no_variable_data 2010-02-22 21:41:29
FromStats_BitRate : 11357
FromStats_Duration : 02:10:40.332000000
FromStats_FrameCount : 2506
FromStats_StreamSize : 11130831

Text #9
ID : 12
Format : PGS
Muxing mode : zlib
Codec ID : S_HDMV/PGS
Codec ID/Info : Picture based subtitle format used on BDs/HD-DVDs
Title : CA
Language : French
Default : No
Forced : No
Statistics Tags Issue : no_variable_data 1970-01-01 00:00:00 / no_variable_data 2010-02-22 21:41:29
FromStats_BitRate : 14537
FromStats_Duration : 02:04:03.937000000
FromStats_FrameCount : 2576
FromStats_StreamSize : 13527152

Text #10
ID : 13
Format : PGS
Muxing mode : zlib
Codec ID : S_HDMV/PGS
Codec ID/Info : Picture based subtitle format used on BDs/HD-DVDs
Title : EU
Language : Spanish
Default : No
Forced : No
Statistics Tags Issue : no_variable_data 1970-01-01 00:00:00 / no_variable_data 2010-02-22 21:41:29
FromStats_BitRate : 13940
FromStats_Duration : 02:10:43.586000000
FromStats_FrameCount : 2534
FromStats_StreamSize : 13667518

Text #11
ID : 14
Format : PGS
Muxing mode : zlib
Codec ID : S_HDMV/PGS
Codec ID/Info : Picture based subtitle format used on BDs/HD-DVDs
Title : Latin
Language : Spanish
Default : No
Forced : No
Statistics Tags Issue : no_variable_data 1970-01-01 00:00:00 / no_variable_data 2010-02-22 21:41:29
FromStats_BitRate : 13266
FromStats_Duration : 02:04:04.437000000
FromStats_FrameCount : 2452
FromStats_StreamSize : 12345304

Text #12
ID : 15
Format : PGS
Muxing mode : zlib
Codec ID : S_HDMV/PGS
Codec ID/Info : Picture based subtitle format used on BDs/HD-DVDs
Language : Portuguese
Default : No
Forced : No
Statistics Tags Issue : no_variable_data 1970-01-01 00:00:00 / no_variable_data 2010-02-22 21:41:29
FromStats_BitRate : 12872
FromStats_Duration : 02:05:23.432000000
FromStats_FrameCount : 2474
FromStats_StreamSize : 12105569

Text #13
ID : 16
Format : PGS
Muxing mode : zlib
Codec ID : S_HDMV/PGS
Codec ID/Info : Picture based subtitle format used on BDs/HD-DVDs
Language : Italian
Default : No
Forced : No
Statistics Tags Issue : no_variable_data 1970-01-01 00:00:00 / no_variable_data 2010-02-22 21:41:29
FromStats_BitRate : 13054
FromStats_Duration : 02:09:31.472000000
FromStats_FrameCount : 2202
FromStats_StreamSize : 12681180

Text #14
ID : 17
Format : PGS
Muxing mode : zlib
Codec ID : S_HDMV/PGS
Codec ID/Info : Picture based subtitle format used on BDs/HD-DVDs
Language : German
Default : No
Forced : No
Statistics Tags Issue : no_variable_data 1970-01-01 00:00:00 / no_variable_data 2010-02-22 21:41:29
FromStats_BitRate : 13286
FromStats_Duration : 02:10:40.332000000
FromStats_FrameCount : 2416
FromStats_StreamSize : 13021761

Text #15
ID : 18
Format : PGS
Muxing mode : zlib
Codec ID : S_HDMV/PGS
Codec ID/Info : Picture based subtitle format used on BDs/HD-DVDs
Language : Dutch
Default : No
Forced : No
Statistics Tags Issue : no_variable_data 1970-01-01 00:00:00 / no_variable_data 2010-02-22 21:41:29
FromStats_BitRate : 11060
FromStats_Duration : 02:11:58.953000000
FromStats_FrameCount : 1826
FromStats_StreamSize : 10948074

Text #16
ID : 19
Format : PGS
Muxing mode : zlib
Codec ID : S_HDMV/PGS
Codec ID/Info : Picture based subtitle format used on BDs/HD-DVDs
Language : Swedish
Default : No
Forced : No
Statistics Tags Issue : no_variable_data 1970-01-01 00:00:00 / no_variable_data 2010-02-22 21:41:29
FromStats_BitRate : 12111
FromStats_Duration : 02:10:43.669000000
FromStats_FrameCount : 2466
FromStats_StreamSize : 11874572

Text #17
ID : 20
Format : PGS
Muxing mode : zlib
Codec ID : S_HDMV/PGS
Codec ID/Info : Picture based subtitle format used on BDs/HD-DVDs
Language : Norwegian
Default : No
Forced : No
Statistics Tags Issue : no_variable_data 1970-01-01 00:00:00 / no_variable_data 2010-02-22 21:41:29
FromStats_BitRate : 10785
FromStats_Duration : 02:10:43.752000000
FromStats_FrameCount : 2242
FromStats_StreamSize : 10575197

Text #18
ID : 21
Format : PGS
Muxing mode : zlib
Codec ID : S_HDMV/PGS
Codec ID/Info : Picture based subtitle format used on BDs/HD-DVDs
Language : Danish
Default : No
Forced : No
Statistics Tags Issue : no_variable_data 1970-01-01 00:00:00 / no_variable_data 2010-02-22 21:41:29
FromStats_BitRate : 12571
FromStats_Duration : 02:10:45.671000000
FromStats_FrameCount : 1836
FromStats_StreamSize : 12328735

Text #19
ID : 22
Format : PGS
Muxing mode : zlib
Codec ID : S_HDMV/PGS
Codec ID/Info : Picture based subtitle format used on BDs/HD-DVDs
Language : Finnish
Default : No
Forced : No
Statistics Tags Issue : no_variable_data 1970-01-01 00:00:00 / no_variable_data 2010-02-22 21:41:29
FromStats_BitRate : 13471
FromStats_Duration : 02:10:44.920000000
FromStats_FrameCount : 2580
FromStats_StreamSize : 13210153

Text #20
ID : 23
Format : PGS
Muxing mode : zlib
Codec ID : S_HDMV/PGS
Codec ID/Info : Picture based subtitle format used on BDs/HD-DVDs
Language : Japanese
Default : No
Forced : No
Statistics Tags Issue : no_variable_data 1970-01-01 00:00:00 / no_variable_data 2010-02-22 21:41:29
FromStats_BitRate : 18043
FromStats_Duration : 02:05:25.018000000
FromStats_FrameCount : 2421
FromStats_StreamSize : 16972666

Menu
00:00:00.000 : en:00:00:00.000
00:04:42.741 : en:00:04:42.741
00:11:29.731 : en:00:11:29.731
00:20:02.785 : en:00:20:02.785
00:27:36.154 : en:00:27:36.154
00:33:29.007 : en:00:33:29.007
00:38:19.422 : en:00:38:19.422
00:44:46.934 : en:00:44:46.934
00:51:38.053 : en:00:51:38.053
00:56:05.988 : en:00:56:05.988
01:02:51.017 : en:01:02:51.017
01:09:18.654 : en:01:09:18.654
01:16:33.214 : en:01:16:33.214
01:22:19.351 : en:01:22:19.351
01:31:17.889 : en:01:31:17.889
01:35:58.211 : en:01:35:58.211
01:42:50.748 : en:01:42:50.748
01:51:02.614 : en:01:51:02.614
01:58:27.225 : en:01:58:27.225
02:05:59.677 : en:02:05:59.677

Download

download 4k hdr movies download 4k hdr movies

Watch a movie trailer - Mission: Impossible - Ghost Protocol 4K 2011 Ultra HD 2160p
Comments and Feedback
Add your comment:
Your name:
Your E-Mail:
Code:
reload, if the code cannot be seen
Enter code: