Select movie Search movie Close search My Account

Mission Impossible 3 4K 2006 Ultra HD 2160p

Mission Impossible 3 4K 2006 Ultra HD 2160p
BDRemux / BDRip
Country: USA | Germany | China | Italy
Time: 2h 6min
IMDB: 6.9
Director: J.J. Abrams
Actors: Tom Cruise, Philip Seymour Hoffman, Ving Rhames, Billy Crudup, Michelle Monaghan, Jonathan Rhys Meyers, Keri Russell, Maggie Q, Simon Pegg, Eddie Marsan, Laurence Fishburne, Bahar Soomekh, Jeff Chase, Michael Berry Jr., Carla Gallo

Story Movie

Mission Impossible 3 4K 2006 Ultra HD 2160p
Ethan Hunt, who in the previous series of the film fought with enemies and crime, in the film Mission Impossible 3 4k movie download app, going to rest. The guy even tries to establish his personal life. But the CIA leadership finds a new task for him. In Ethan's blood, the instinct of a hunter awakens. He must save his former apprentice, but his mission will pass through many countries of Asia. Fourth part Mission: Impossible - Ghost Protocol 2011 4k movie download here.

Review 4K Movie

Let the spy thriller "Mission: Impossible 2" 4k largely do not justify the hopes of the fans of the franchise, but its results in the world box office could not but please the producers, among whom there is also the performer of the main role Tom Cruise. Considering it expedient for a while to take a rest from the adventures of Ethan Hunt, Cruz deepened cooperation with the best directors of our time, honing the acting skills in the projects of Michael Mann and Steven Spielberg. Every new appearance of Tom on large screens was accompanied by a natural success, because not for nothing is not only the audience, but critics consider him not just cute, but truly talented person. Considering that enough time had passed and we can begin the triumphant return of "Mission: Impossible," Tom Cruise went headlong into developing the project, which in fact proved to be a difficult task. Repeated rewriting of the script, a scandalous change of directors, a shift in the timing of production and premiere, as well as well-known details of the actor's personal life, almost standing to his reputation, almost knocked down the expected trikwel. But what should happen is sure to happen. "Mission: Impossible 3" UHD engaged in his debutant in the full meter of JJ Abrams, the creator of several iconic television series, through which he made a name for himself as a skillful and knowledgeable sense in the tempting stories of the filmmaker. For the first time "Mission: Impossible" was in the hands of the director, who came to the big cinema from the world of small screens. And this circumstance not only did not aggravate the quality of the franchise, but even allowed it to rise to a new level of quality, especially if we compare the third film with the absurd handiwork of John Woo. JJ Abrams made the adventures of Ethan Hunt, as a meaningful kaleidoscope of unimaginable adventures that look at one go and are perceived as a reality. "Mission: Impossible 3" ULTRA HD can boast a healthy sense of humor, believable drama and the necessary share of artistic fiction, for which we love the franchise of Tom Cruise. And let the cash indicators of Abrams tape turned out to be an order of magnitude lower than the bosses of the Paramount pictures studio expected, but nevertheless it is an excellent continuation of the intriguing series of films, the point on which it was still very early.

As for the plot, this time Ethan Hunt (Cruz) needs to capture the international arms dealer Owen Davian (Philip Seymour Hoffman), who repeatedly left the field of view of the world's leading security services. For hanta, the capture of Davian is a matter of honor, since the perpetrator caused the death of the agent's best apprentice. And no one can forgive such things. In detail, the developed operation turns out to be a success only at first. Inspired by the success of Hunt and his loyal group of comrades, led by Luther Stikell (Wing Reims) with a triumphant return home with a valuable captive without realizing that these nightmares are just waiting for them ahead. The threats of Davian are not just a sound. All that he threatens his enemies, comes true. and in the most that neither is terrible. From now on, Ethan Hunt can no longer be self-confident, because under direct blow of Davian gets his very close, native man.

With the advent of the director JJ Abrams' "Mission: Impossible" moves away from the style of narration imposed on the franchise by Brian De Palma and John Woo. Unlike the first films, "Mission: Impossible 3" 4k movie download app makes a bank toward an entertaining action movie, unencumbered by unnecessary unnecessary reasoning. You can forget about Cruz's attempts and the company to play in the territory of the sophisticated spy fighter that was raised in the 60's and 70's, and, fortunately, we will no longer see absurd visual delights and annoying choreography coming directly from the Asian action films. Abrams tried to make his film keep pace with the times, not wanting to return to obsolete techniques. And this step of his coolly refreshed the franchise, while making it a direct continuation of the past parts. The third "Mission: Impossible" does not reject either the popularly beloved first film or the artistically failing second. It borrows from them all the best, tied to new realities, which came with the beginning of the 2000s. Considering that excessive seriousness in the adventures of Ethan Hunt is not needed, but also about the drama should not be forgotten, the director was able to find the golden mean in the presentation of the material. On the one hand, the film boasts a surprisingly large amount of relevant humor, for which Wing Reims and Simon Pegg answer. Yes, and Cruz himself is not averse to becoming the object of a couple of comic sketches, not out of the scope of what is permitted, one hundred can not but rejoice. However, history has not been without a tense drama, which I want to believe in, unlike the artificial experiences presented in the franchise earlier. Finally a hero without fear and reproach, the best of the best operatives of the Department of Impossible Mission Ethan Hunt appears in front of the audience in an informal atmosphere. From now on, he has who experience with all their heart and this gives the plot a poignancy.

Mediainfo

movie BDRemux Video #1
ID : 1
Format : HEVC
Format/Info : High Efficiency Video Coding
Commercial name : HDR10
Format profile : Main 10@L5.1@High
Codec ID : V_MPEGH/ISO/HEVC
Duration : 2 h 5 min
Bit rate : 46.8 Mb/s
Width : 3 840 pixels
Height : 2 160 pixels
Display aspect ratio : 16:9
Frame rate mode : Constant
Frame rate : 23.976 (24000/1001) FPS
Color space : YUV
Chroma subsampling : 4:2:0 (Type 2)
Bit depth : 10 bits
Bits/(Pixel*Frame) : 0.235
Stream size : 41.0 GiB (76%)
Title : Mission.Impossible.III.2006.2160p.BluRay.REMUX.HEVC.TrueHD.5.1
Default : Yes
Forced : No
Color range : Limited
Color primaries : BT.2020
Transfer characteristics : PQ
Matrix coefficients : BT.2020 non-constant
Mastering display color primaries : Display P3
Mastering display luminance : min: 0.0001 cd/m2, max: 1000 cd/m2

Video #2
ID : 2
Format : HEVC
Format/Info : High Efficiency Video Coding
Commercial name : HDR10
Format profile : Main 10@L5.1@High
Codec ID : V_MPEGH/ISO/HEVC
Duration : 2 h 5 min
Bit rate : 5 269 kb/s
Width : 1 920 pixels
Height : 1 080 pixels
Display aspect ratio : 16:9
Frame rate mode : Constant
Frame rate : 23.976 (24000/1001) FPS
Color space : YUV
Chroma subsampling : 4:2:0 (Type 2)
Bit depth : 10 bits
Bits/(Pixel*Frame) : 0.106
Stream size : 4.62 GiB (9%)
Title : Mission.Impossible.III.2006.2160p.BluRay.REMUX.HEVC.TrueHD.5.1
Default : No
Forced : No
Color range : Limited
Color primaries : BT.2020
Transfer characteristics : PQ
Matrix coefficients : BT.2020 non-constant
Mastering display color primaries : Display P3
Mastering display luminance : min: 0.0001 cd/m2, max: 1000 cd/m2

Audio #1
ID : 3
Format : TrueHD
Codec ID : A_TRUEHD
Duration : 2 h 5 min
Bit rate mode : Variable
Bit rate : 3 537 kb/s
Maximum bit rate : 5 184 kb/s
Channel(s) : 6 channels
Channel positions : Front: L C R, Side: L R, LFE
Sampling rate : 48.0 kHz
Frame rate : 1 200.000 FPS (40 SPF)
Compression mode : Lossless
Stream size : 3.10 GiB (6%)
Title : Mission.Impossible.III.2006.2160p.BluRay.REMUX.HEVC.TrueHD.5.1
Language : English
Default : Yes
Forced : No

Audio #2
ID : 4
Format : AC-3
Format/Info : Audio Coding 3
Codec ID : A_AC3
Duration : 2 h 5 min
Bit rate mode : Constant
Bit rate : 640 kb/s
Channel(s) : 6 channels
Channel positions : Front: L C R, Side: L R, LFE
Sampling rate : 48.0 kHz
Frame rate : 31.250 FPS (1536 SPF)
Bit depth : 16 bits
Compression mode : Lossy
Stream size : 574 MiB (1%)
Title : Mission.Impossible.III.2006.2160p.BluRay.REMUX.HEVC.TrueHD.5.1
Language : English
Service kind : Complete Main
Default : No
Forced : No

Audio #3
ID : 5
Format : AC-3
Format/Info : Audio Coding 3
Codec ID : A_AC3
Duration : 2 h 5 min
Bit rate mode : Constant
Bit rate : 640 kb/s
Channel(s) : 6 channels
Channel positions : Front: L C R, Side: L R, LFE
Sampling rate : 48.0 kHz
Frame rate : 31.250 FPS (1536 SPF)
Bit depth : 16 bits
Compression mode : Lossy
Stream size : 574 MiB (1%)
Title : Mission.Impossible.III.2006.2160p.BluRay.REMUX.HEVC.TrueHD.5.1
Language : English
Service kind : Complete Main
Default : No
Forced : No

Audio #4
ID : 6
Format : AC-3
Format/Info : Audio Coding 3
Codec ID : A_AC3
Duration : 2 h 5 min
Bit rate mode : Constant
Bit rate : 640 kb/s
Channel(s) : 6 channels
Channel positions : Front: L C R, Side: L R, LFE
Sampling rate : 48.0 kHz
Frame rate : 31.250 FPS (1536 SPF)
Bit depth : 16 bits
Compression mode : Lossy
Stream size : 574 MiB (1%)
Title : Mission.Impossible.III.2006.2160p.BluRay.REMUX.HEVC.TrueHD.5.1
Language : German
Service kind : Complete Main
Default : No
Forced : No

Audio #5
ID : 7
Format : AC-3
Format/Info : Audio Coding 3
Codec ID : A_AC3
Duration : 2 h 5 min
Bit rate mode : Constant
Bit rate : 640 kb/s
Channel(s) : 6 channels
Channel positions : Front: L C R, Side: L R, LFE
Sampling rate : 48.0 kHz
Frame rate : 31.250 FPS (1536 SPF)
Bit depth : 16 bits
Compression mode : Lossy
Stream size : 574 MiB (1%)
Title : Mission.Impossible.III.2006.2160p.BluRay.REMUX.HEVC.TrueHD.5.1
Language : Spanish
Service kind : Complete Main
Default : No
Forced : No

Audio #6
ID : 8
Format : AC-3
Format/Info : Audio Coding 3
Codec ID : A_AC3
Duration : 2 h 5 min
Bit rate mode : Constant
Bit rate : 640 kb/s
Channel(s) : 6 channels
Channel positions : Front: L C R, Side: L R, LFE
Sampling rate : 48.0 kHz
Frame rate : 31.250 FPS (1536 SPF)
Bit depth : 16 bits
Compression mode : Lossy
Stream size : 574 MiB (1%)
Title : Mission.Impossible.III.2006.2160p.BluRay.REMUX.HEVC.TrueHD.5.1
Language : Spanish
Service kind : Complete Main
Default : No
Forced : No

Audio #7
ID : 9
Format : AC-3
Format/Info : Audio Coding 3
Codec ID : A_AC3
Duration : 2 h 5 min
Bit rate mode : Constant
Bit rate : 640 kb/s
Channel(s) : 6 channels
Channel positions : Front: L C R, Side: L R, LFE
Sampling rate : 48.0 kHz
Frame rate : 31.250 FPS (1536 SPF)
Bit depth : 16 bits
Compression mode : Lossy
Stream size : 574 MiB (1%)
Title : Mission.Impossible.III.2006.2160p.BluRay.REMUX.HEVC.TrueHD.5.1
Language : French
Service kind : Complete Main
Default : No
Forced : No

Audio #8
ID : 10
Format : AC-3
Format/Info : Audio Coding 3
Codec ID : A_AC3
Duration : 2 h 5 min
Bit rate mode : Constant
Bit rate : 640 kb/s
Channel(s) : 6 channels
Channel positions : Front: L C R, Side: L R, LFE
Sampling rate : 48.0 kHz
Frame rate : 31.250 FPS (1536 SPF)
Bit depth : 16 bits
Compression mode : Lossy
Stream size : 574 MiB (1%)
Title : Mission.Impossible.III.2006.2160p.BluRay.REMUX.HEVC.TrueHD.5.1
Language : Italian
Service kind : Complete Main
Default : No
Forced : No

Audio #9
ID : 11
Format : AC-3
Format/Info : Audio Coding 3
Codec ID : A_AC3
Duration : 2 h 5 min
Bit rate mode : Constant
Bit rate : 640 kb/s
Channel(s) : 6 channels
Channel positions : Front: L C R, Side: L R, LFE
Sampling rate : 48.0 kHz
Frame rate : 31.250 FPS (1536 SPF)
Bit depth : 16 bits
Compression mode : Lossy
Stream size : 574 MiB (1%)
Title : Mission.Impossible.III.2006.2160p.BluRay.REMUX.HEVC.TrueHD.5.1
Language : Japanese
Service kind : Complete Main
Default : No
Forced : No

Audio #10
ID : 12
Format : AC-3
Format/Info : Audio Coding 3
Codec ID : A_AC3
Duration : 2 h 5 min
Bit rate mode : Constant
Bit rate : 640 kb/s
Channel(s) : 6 channels
Channel positions : Front: L C R, Side: L R, LFE
Sampling rate : 48.0 kHz
Frame rate : 31.250 FPS (1536 SPF)
Bit depth : 16 bits
Compression mode : Lossy
Stream size : 574 MiB (1%)
Title : Mission.Impossible.III.2006.2160p.BluRay.REMUX.HEVC.TrueHD.5.1
Language : Portuguese
Service kind : Complete Main
Default : No
Forced : No

Audio #11
ID : 13
Format : AC-3
Format/Info : Audio Coding 3
Codec ID : A_AC3
Duration : 2 h 5 min
Bit rate mode : Constant
Bit rate : 192 kb/s
Channel(s) : 2 channels
Channel positions : Front: L R
Sampling rate : 48.0 kHz
Frame rate : 31.250 FPS (1536 SPF)
Bit depth : 16 bits
Compression mode : Lossy
Stream size : 172 MiB (0%)
Title : Mission.Impossible.III.2006.2160p.BluRay.REMUX.HEVC.TrueHD.5.1
Language : English
Service kind : Complete Main
Default : No
Forced : No

Text #1
ID : 14
Format : PGS
Muxing mode : zlib
Codec ID : S_HDMV/PGS
Codec ID/Info : Picture based subtitle format used on BDs/HD-DVDs
Duration : 1 h 57 min
Bit rate : 29.5 kb/s
Count of elements : 2416
Stream size : 24.9 MiB (0%)
Title : English-PGS
Language : English
Default : Yes
Forced : No

Text #2
ID : 15
Format : PGS
Muxing mode : zlib
Codec ID : S_HDMV/PGS
Codec ID/Info : Picture based subtitle format used on BDs/HD-DVDs
Duration : 2 h 2 min
Bit rate : 31.9 kb/s
Count of elements : 2786
Stream size : 28.0 MiB (0%)
Title : English-SDH-PGS
Language : English
Default : No
Forced : No

Text #3
ID : 16
Format : PGS
Muxing mode : zlib
Codec ID : S_HDMV/PGS
Codec ID/Info : Picture based subtitle format used on BDs/HD-DVDs
Duration : 2 h 4 min
Bit rate : 22.2 kb/s
Count of elements : 2342
Stream size : 19.8 MiB (0%)
Title : Danish-PGS
Language : Danish
Default : No
Forced : No

Text #4
ID : 17
Format : PGS
Muxing mode : zlib
Codec ID : S_HDMV/PGS
Codec ID/Info : Picture based subtitle format used on BDs/HD-DVDs
Duration : 1 h 57 min
Bit rate : 31.5 kb/s
Count of elements : 2430
Stream size : 26.5 MiB (0%)
Title : German-PGS
Language : German
Default : No
Forced : No

Text #5
ID : 18
Format : PGS
Muxing mode : zlib
Codec ID : S_HDMV/PGS
Codec ID/Info : Picture based subtitle format used on BDs/HD-DVDs
Duration : 2 h 4 min
Bit rate : 23.1 kb/s
Count of elements : 2302
Stream size : 20.6 MiB (0%)
Title : Spanish-PGS
Language : Spanish
Default : No
Forced : No

Text #6
ID : 19
Format : PGS
Muxing mode : zlib
Codec ID : S_HDMV/PGS
Codec ID/Info : Picture based subtitle format used on BDs/HD-DVDs
Duration : 1 h 57 min
Bit rate : 27.4 kb/s
Count of elements : 2416
Stream size : 23.1 MiB (0%)
Title : Spanish-PGS
Language : Spanish
Default : No
Forced : No

Text #7
ID : 20
Format : PGS
Muxing mode : zlib
Codec ID : S_HDMV/PGS
Codec ID/Info : Picture based subtitle format used on BDs/HD-DVDs
Duration : 1 h 57 min
Bit rate : 21.8 kb/s
Count of elements : 2214
Stream size : 18.4 MiB (0%)
Title : French-PGS
Language : French
Default : No
Forced : No

Text #8
ID : 21
Format : PGS
Muxing mode : zlib
Codec ID : S_HDMV/PGS
Codec ID/Info : Picture based subtitle format used on BDs/HD-DVDs
Duration : 2 h 4 min
Bit rate : 25.4 kb/s
Count of elements : 2320
Stream size : 22.7 MiB (0%)
Title : Italian-PGS
Language : Italian
Default : No
Forced : No

Text #9
ID : 22
Format : PGS
Muxing mode : zlib
Codec ID : S_HDMV/PGS
Codec ID/Info : Picture based subtitle format used on BDs/HD-DVDs
Duration : 1 h 57 min
Bit rate : 18.2 kb/s
Count of elements : 2200
Stream size : 15.4 MiB (0%)
Title : Japanese-PGS
Language : Japanese
Default : No
Forced : No

Text #10
ID : 23
Format : PGS
Muxing mode : zlib
Codec ID : S_HDMV/PGS
Codec ID/Info : Picture based subtitle format used on BDs/HD-DVDs
Duration : 2 h 4 min
Bit rate : 19.9 kb/s
Count of elements : 2244
Stream size : 17.8 MiB (0%)
Title : Dutch-PGS
Language : Dutch
Default : No
Forced : No

Text #11
ID : 24
Format : PGS
Muxing mode : zlib
Codec ID : S_HDMV/PGS
Codec ID/Info : Picture based subtitle format used on BDs/HD-DVDs
Duration : 2 h 4 min
Bit rate : 19.4 kb/s
Count of elements : 2340
Stream size : 17.3 MiB (0%)
Title : Norwegian-PGS
Language : Norwegian
Default : No
Forced : No

Text #12
ID : 25
Format : PGS
Muxing mode : zlib
Codec ID : S_HDMV/PGS
Codec ID/Info : Picture based subtitle format used on BDs/HD-DVDs
Duration : 2 h 4 min
Bit rate : 23.3 kb/s
Count of elements : 2432
Stream size : 20.8 MiB (0%)
Title : Portuguese-PGS
Language : Portuguese
Default : No
Forced : No

Text #13
ID : 26
Format : PGS
Muxing mode : zlib
Codec ID : S_HDMV/PGS
Codec ID/Info : Picture based subtitle format used on BDs/HD-DVDs
Duration : 2 h 4 min
Bit rate : 23.6 kb/s
Count of elements : 2402
Stream size : 21.1 MiB (0%)
Title : Finnish-PGS
Language : Finnish
Default : No
Forced : No

Text #14
ID : 27
Format : PGS
Muxing mode : zlib
Codec ID : S_HDMV/PGS
Codec ID/Info : Picture based subtitle format used on BDs/HD-DVDs
Duration : 2 h 4 min
Bit rate : 23.1 kb/s
Count of elements : 2364
Stream size : 20.7 MiB (0%)
Title : Swedish-PGS
Language : Swedish
Default : No
Forced : No

Text #15
ID : 28
Format : PGS
Muxing mode : zlib
Codec ID : S_HDMV/PGS
Codec ID/Info : Picture based subtitle format used on BDs/HD-DVDs
Duration : 2 h 5 min
Bit rate : 67.8 kb/s
Count of elements : 4754
Stream size : 60.7 MiB (0%)
Title : English-COMMENTARY-PGS
Language : English
Default : No
Forced : No

Text #16
ID : 29
Format : PGS
Muxing mode : zlib
Codec ID : S_HDMV/PGS
Codec ID/Info : Picture based subtitle format used on BDs/HD-DVDs
Duration : 2 h 5 min
Bit rate : 65.1 kb/s
Count of elements : 4708
Stream size : 58.3 MiB (0%)
Title : German-COMMENTARY-PGS
Language : German
Default : No
Forced : No

Text #17
ID : 30
Format : PGS
Muxing mode : zlib
Codec ID : S_HDMV/PGS
Codec ID/Info : Picture based subtitle format used on BDs/HD-DVDs
Duration : 2 h 5 min
Bit rate : 59.7 kb/s
Count of elements : 4712
Stream size : 53.5 MiB (0%)
Title : Spanish-COMMENTARY-PGS
Language : Spanish
Default : No
Forced : No

Text #18
ID : 31
Format : PGS
Muxing mode : zlib
Codec ID : S_HDMV/PGS
Codec ID/Info : Picture based subtitle format used on BDs/HD-DVDs
Duration : 2 h 5 min
Bit rate : 56.8 kb/s
Count of elements : 4732
Stream size : 50.9 MiB (0%)
Title : Spanish-COMMENTARY-PGS
Language : Spanish
Default : No
Forced : No

Text #19
ID : 32
Format : PGS
Muxing mode : zlib
Codec ID : S_HDMV/PGS
Codec ID/Info : Picture based subtitle format used on BDs/HD-DVDs
Duration : 2 h 5 min
Bit rate : 58.1 kb/s
Count of elements : 4718
Stream size : 52.0 MiB (0%)
Title : French-COMMENTARY-PGS
Language : French
Default : No
Forced : No

Text #20
ID : 33
Format : PGS
Muxing mode : zlib
Codec ID : S_HDMV/PGS
Codec ID/Info : Picture based subtitle format used on BDs/HD-DVDs
Duration : 2 h 5 min
Bit rate : 58.0 kb/s
Count of elements : 4712
Stream size : 52.0 MiB (0%)
Title : Italian-COMMENTARY-PGS
Language : Italian
Default : No
Forced : No

Text #21
ID : 34
Format : PGS
Muxing mode : zlib
Codec ID : S_HDMV/PGS
Codec ID/Info : Picture based subtitle format used on BDs/HD-DVDs
Duration : 2 h 5 min
Bit rate : 41.4 kb/s
Count of elements : 3749
Stream size : 37.1 MiB (0%)
Title : Japanese-COMMENTARY-PGS
Language : Japanese
Default : No
Forced : No

Text #22
ID : 35
Format : PGS
Muxing mode : zlib
Codec ID : S_HDMV/PGS
Codec ID/Info : Picture based subtitle format used on BDs/HD-DVDs
Duration : 2 h 5 min
Bit rate : 57.8 kb/s
Count of elements : 4710
Stream size : 51.8 MiB (0%)
Title : Portuguese-COMMENTARY-PGS
Language : Portuguese
Default : No
Forced : No

Text #23
ID : 36
Format : PGS
Muxing mode : zlib
Codec ID : S_HDMV/PGS
Codec ID/Info : Picture based subtitle format used on BDs/HD-DVDs
Duration : 1 h 8 min
Bit rate : 441 b/s
Count of elements : 36
Stream size : 223 KiB (0%)
Title : Japanese-FORCED-PGS
Language : Japanese
Default : No
Forced : No

Menu
00:00:00.000 : en:Chapter 1
00:04:02.450 : en:Chapter 2
00:12:57.860 : en:Chapter 3
00:21:18.068 : en:Chapter 4
00:26:32.299 : en:Chapter 5
00:32:56.474 : en:Chapter 6
00:39:30.493 : en:Chapter 7
00:46:56.438 : en:Chapter 8
00:51:44.309 : en:Chapter 9
00:57:34.868 : en:Chapter 10
01:02:08.975 : en:Chapter 11
01:09:06.642 : en:Chapter 12
01:18:19.236 : en:Chapter 13
01:23:31.381 : en:Chapter 14
01:27:35.083 : en:Chapter 15
01:34:08.017 : en:Chapter 16
01:42:43.448 : en:Chapter 17
01:51:10.830 : en:Chapter 18
01:57:27.832 : en:Chapter 19
movie BDRip Video
ID : 1
Format : HEVC
Format/Info : High Efficiency Video Coding
Commercial name : HDR10
Format profile : Main 10@L5.1@High
Codec ID : V_MPEGH/ISO/HEVC
Duration : 2 h 5 min
Width : 3 840 pixels
Height : 1 600 pixels
Display aspect ratio : 2.40:1
Frame rate mode : Constant
Frame rate : 23.976 (24000/1001) FPS
Color space : YUV
Chroma subsampling : 4:2:0 (Type 2)
Bit depth : 10 bits
Writing library : x265 2.7+338-147b7dcee675:[Windows][GCC 6.3.0][64 bit] 10bit
Encoding settings : cpuid=1049583 / frame-threads=4 / numa-pools=16 / wpp / no-pmode / no-pme / no-psnr / no-ssim / log-level=2 / input-csp=1 / input-res=3840x1600 / interlace=0 / total-frames=180414 / level-idc=51 / high-tier=1 / uhd-bd=0 / ref=4 / no-allow-non-conformance / repeat-headers / annexb / aud / hrd / info / hash=0 / no-temporal-layers / no-open-gop / min-keyint=24 / keyint=240 / gop-lookahead=0 / bframes=4 / b-adapt=2 / b-pyramid / bframe-bias=0 / rc-lookahead=25 / lookahead-slices=4 / scenecut=40 / radl=0 / no-intra-refresh / ctu=64 / min-cu-size=8 / rect / no-amp / max-tu-size=32 / tu-inter-depth=1 / tu-intra-depth=1 / limit-tu=0 / rdoq-level=2 / dynamic-rd=0.00 / no-ssim-rd / signhide / no-tskip / nr-intra=0 / nr-inter=0 / no-constrained-intra / no-strong-intra-smoothing / max-merge=3 / limit-refs=3 / limit-modes / me=3 / subme=3 / merange=57 / temporal-mvp / weightp / no-weightb / no-analyze-src-pics / deblock=-3:-3 / no-sao / no-sao-non-deblock / rd=4 / no-early-skip / rskip / no-fast-intra / no-tskip-fast / no-cu-lossless / no-b-intra / no-splitrd-skip / rdpenalty=0 / psy-rd=2.00 / psy-rdoq=1.00 / no-rd-refine / no-lossless / cbqpoffs=0 / crqpoffs=0 / rc=crf / crf=17.0 / qcomp=0.60 / qpstep=4 / stats-write=0 / stats-read=0 / vbv-maxrate=160000 / vbv-bufsize=160000 / vbv-init=0.9 / crf-max=0.0 / crf-min=0.0 / ipratio=1.40 / pbratio=1.30 / aq-mode=1 / aq-strength=1.00 / cutree / zone-count=0 / no-strict-cbr / qg-size=32 / no-rc-grain / qpmax=69 / qpmin=0 / no-const-vbv / sar=1 / overscan=0 / videoformat=5 / range=0 / colorprim=9 / transfer=16 / colormatrix=9 / chromaloc=1 / chromaloc-top=2 / chromaloc-bottom=2 / display-window=0 / master-display=G(13250,34500)B(7500,3000)R(34000,16000)WP(15635,16450)L(10000000,1) / max-cll=0,0 / min-luma=0 / max-luma=1023 / log2-max-poc-lsb=8 / vui-timing-info / vui-hrd-info / slices=1 / opt-qp-pps / opt-ref-list-length-pps / no-multi-pass-opt-rps / scenecut-bias=0.05 / no-opt-cu-delta-qp / no-aq-motion / hdr / hdr-opt / no-dhdr10-opt / no-idr-recovery-sei / analysis-reuse-level=5 / scale-factor=0 / refine-intra=0 / refine-inter=0 / refine-mv=0 / no-limit-sao / ctu-info=0 / no-lowpass-dct / refine-mv-type=0 / copy-pic=1 / max-ausize-factor=1.0 / no-dynamic-refine / no-single-sei
Default : Yes
Forced : No
Color range : Limited
Color primaries : BT.2020
Transfer characteristics : PQ
Matrix coefficients : BT.2020 non-constant
Statistics Tags Issue : no_variable_data 1970-01-01 00:00:00 / no_variable_data 2010-02-22 21:41:29
FromStats_BitRate : 28546714
FromStats_Duration : 02:05:24.768000000
FromStats_FrameCount : 180414
FromStats_StreamSize : 26850925075
Mastering display color primaries : Display P3
Mastering display luminance : min: 0.0001 cd/m2, max: 1000 cd/m2

Audio #1
ID : 2
Format : TrueHD
Codec ID : A_TRUEHD
Duration : 2 h 5 min
Bit rate mode : Variable
Maximum bit rate : 5 184 kb/s
Channel(s) : 6 channels
Channel positions : Front: L C R, Side: L R, LFE
Sampling rate : 48.0 kHz
Frame rate : 1 200.000 FPS (40 SPF)
Compression mode : Lossless
Title : Atmos
Language : English
Default : Yes
Forced : No
Statistics Tags Issue : no_variable_data 1970-01-01 00:00:00 / no_variable_data 2010-02-22 21:41:29
FromStats_BitRate : 3537404
FromStats_Duration : 02:05:24.768000000
FromStats_FrameCount : 9029721
FromStats_StreamSize : 3327268598

Audio #2
ID : 3
Format : AC-3
Format/Info : Audio Coding 3
Codec ID : A_AC3
Duration : 2 h 5 min
Bit rate mode : Constant
Bit rate : 640 kb/s
Channel(s) : 6 channels
Channel positions : Front: L C R, Side: L R, LFE
Sampling rate : 48.0 kHz
Frame rate : 31.250 FPS (1536 SPF)
Bit depth : 16 bits
Compression mode : Lossy
Stream size : 574 MiB (2%)
Title : AC-3
Language : English
Service kind : Complete Main
Default : No
Forced : No
Statistics Tags Issue : no_variable_data 1970-01-01 00:00:00 / no_variable_data 2010-02-22 21:41:29
FromStats_BitRate : 640000
FromStats_Duration : 02:05:24.768000000
FromStats_FrameCount : 235149
FromStats_StreamSize : 601981440

Audio #3
ID : 4
Format : AC-3
Format/Info : Audio Coding 3
Codec ID : A_AC3
Duration : 2 h 5 min
Bit rate mode : Constant
Bit rate : 192 kb/s
Channel(s) : 2 channels
Channel positions : Front: L R
Sampling rate : 48.0 kHz
Frame rate : 31.250 FPS (1536 SPF)
Bit depth : 16 bits
Compression mode : Lossy
Stream size : 172 MiB (1%)
Title : Commentary with actor Tom Cruise and director J.J. Abrams
Language : English
Service kind : Complete Main
Default : No
Forced : No
Statistics Tags Issue : no_variable_data 1970-01-01 00:00:00 / no_variable_data 2010-02-22 21:41:29
FromStats_BitRate : 192000
FromStats_Duration : 02:05:24.544000000
FromStats_FrameCount : 235142
FromStats_StreamSize : 180589056

Text #1
ID : 5
Format : UTF-8
Codec ID : S_TEXT/UTF8
Codec ID/Info : UTF-8 Plain Text
Title : Forced SRT
Language : English
Default : Yes
Forced : Yes
Statistics Tags Issue : no_variable_data 1970-01-01 00:00:00 / no_variable_data 2010-02-22 21:41:29
FromStats_BitRate : 1
FromStats_Duration : 00:29:40.487000000
FromStats_FrameCount : 9
FromStats_StreamSize : 320

Text #2
ID : 6
Format : PGS
Muxing mode : zlib
Codec ID : S_HDMV/PGS
Codec ID/Info : Picture based subtitle format used on BDs/HD-DVDs
Title : Forced
Language : English
Default : No
Forced : No
Statistics Tags Issue : no_variable_data 1970-01-01 00:00:00 / no_variable_data 2010-02-22 21:41:29
FromStats_BitRate : 867
FromStats_Duration : 00:29:40.487000000
FromStats_FrameCount : 18
FromStats_StreamSize : 193058

Text #3
ID : 7
Format : UTF-8
Codec ID : S_TEXT/UTF8
Codec ID/Info : UTF-8 Plain Text
Title : Stripped SRT
Language : English
Default : No
Forced : No
Statistics Tags Issue : no_variable_data 1970-01-01 00:00:00 / no_variable_data 2010-02-22 21:41:29
FromStats_BitRate : 50
FromStats_Duration : 01:57:55.193000000
FromStats_FrameCount : 1218
FromStats_StreamSize : 44401

Text #4
ID : 8
Format : UTF-8
Codec ID : S_TEXT/UTF8
Codec ID/Info : UTF-8 Plain Text
Title : Full SRT
Language : English
Default : No
Forced : No
Statistics Tags Issue : no_variable_data 1970-01-01 00:00:00 / no_variable_data 2010-02-22 21:41:29
FromStats_BitRate : 50
FromStats_Duration : 01:57:55.193000000
FromStats_FrameCount : 1208
FromStats_StreamSize : 44359

Text #5
ID : 9
Format : PGS
Muxing mode : zlib
Codec ID : S_HDMV/PGS
Codec ID/Info : Picture based subtitle format used on BDs/HD-DVDs
Title : Full
Language : English
Default : No
Forced : No
Statistics Tags Issue : no_variable_data 1970-01-01 00:00:00 / no_variable_data 2010-02-22 21:41:29
FromStats_BitRate : 29496
FromStats_Duration : 01:57:55.193000000
FromStats_FrameCount : 2416
FromStats_StreamSize : 26086957

Text #6
ID : 10
Format : UTF-8
Codec ID : S_TEXT/UTF8
Codec ID/Info : UTF-8 Plain Text
Title : SDH SRT
Language : English
Default : No
Forced : No
Statistics Tags Issue : no_variable_data 1970-01-01 00:00:00 / no_variable_data 2010-02-22 21:41:29
FromStats_BitRate : 52
FromStats_Duration : 02:02:22.627000000
FromStats_FrameCount : 1393
FromStats_StreamSize : 48338

Text #7
ID : 11
Format : PGS
Muxing mode : zlib
Codec ID : S_HDMV/PGS
Codec ID/Info : Picture based subtitle format used on BDs/HD-DVDs
Title : SDH
Language : English
Default : No
Forced : No
Statistics Tags Issue : no_variable_data 1970-01-01 00:00:00 / no_variable_data 2010-02-22 21:41:29
FromStats_BitRate : 31935
FromStats_Duration : 02:02:22.627000000
FromStats_FrameCount : 2786
FromStats_StreamSize : 29311128

Text #8
ID : 12
Format : PGS
Muxing mode : zlib
Codec ID : S_HDMV/PGS
Codec ID/Info : Picture based subtitle format used on BDs/HD-DVDs
Title : Commentary with actor Tom Cruise and director J.J. Abrams
Language : English
Default : No
Forced : No
Statistics Tags Issue : no_variable_data 1970-01-01 00:00:00 / no_variable_data 2010-02-22 21:41:29
FromStats_BitRate : 67780
FromStats_Duration : 02:05:14.382000000
FromStats_FrameCount : 4754
FromStats_StreamSize : 63665880

Text #9
ID : 13
Format : PGS
Muxing mode : zlib
Codec ID : S_HDMV/PGS
Codec ID/Info : Picture based subtitle format used on BDs/HD-DVDs
Language : French
Default : No
Forced : No
Statistics Tags Issue : no_variable_data 1970-01-01 00:00:00 / no_variable_data 2010-02-22 21:41:29
FromStats_BitRate : 21816
FromStats_Duration : 01:57:55.318000000
FromStats_FrameCount : 2214
FromStats_StreamSize : 19295158

Text #10
ID : 14
Format : PGS
Muxing mode : zlib
Codec ID : S_HDMV/PGS
Codec ID/Info : Picture based subtitle format used on BDs/HD-DVDs
Title : Commentary with actor Tom Cruise and director J.J. Abrams
Language : French
Default : No
Forced : No
Statistics Tags Issue : no_variable_data 1970-01-01 00:00:00 / no_variable_data 2010-02-22 21:41:29
FromStats_BitRate : 58088
FromStats_Duration : 02:05:15.424000000
FromStats_FrameCount : 4718
FromStats_StreamSize : 54569711

Text #11
ID : 15
Format : PGS
Muxing mode : zlib
Codec ID : S_HDMV/PGS
Codec ID/Info : Picture based subtitle format used on BDs/HD-DVDs
Title : EU
Language : Spanish
Default : No
Forced : No
Statistics Tags Issue : no_variable_data 1970-01-01 00:00:00 / no_variable_data 2010-02-22 21:41:29
FromStats_BitRate : 23098
FromStats_Duration : 02:04:48.690000000
FromStats_FrameCount : 2302
FromStats_StreamSize : 21622011

Text #12
ID : 16
Format : PGS
Muxing mode : zlib
Codec ID : S_HDMV/PGS
Codec ID/Info : Picture based subtitle format used on BDs/HD-DVDs
Title : Commentary with actor Tom Cruise and director J.J. Abrams (EU)
Language : Spanish
Default : No
Forced : No
Statistics Tags Issue : no_variable_data 1970-01-01 00:00:00 / no_variable_data 2010-02-22 21:41:29
FromStats_BitRate : 59700
FromStats_Duration : 02:05:19.595000000
FromStats_FrameCount : 4712
FromStats_StreamSize : 56115386

Text #13
ID : 17
Format : PGS
Muxing mode : zlib
Codec ID : S_HDMV/PGS
Codec ID/Info : Picture based subtitle format used on BDs/HD-DVDs
Title : Latin
Language : Spanish
Default : No
Forced : No
Statistics Tags Issue : no_variable_data 1970-01-01 00:00:00 / no_variable_data 2010-02-22 21:41:29
FromStats_BitRate : 27430
FromStats_Duration : 01:57:55.193000000
FromStats_FrameCount : 2416
FromStats_StreamSize : 24259619

Text #14
ID : 18
Format : PGS
Muxing mode : zlib
Codec ID : S_HDMV/PGS
Codec ID/Info : Picture based subtitle format used on BDs/HD-DVDs
Title : Commentary with actor Tom Cruise and director J.J. Abrams (Latin)
Language : Spanish
Default : No
Forced : No
Statistics Tags Issue : no_variable_data 1970-01-01 00:00:00 / no_variable_data 2010-02-22 21:41:29
FromStats_BitRate : 56769
FromStats_Duration : 02:05:17.344000000
FromStats_FrameCount : 4732
FromStats_StreamSize : 53344800

Text #15
ID : 19
Format : PGS
Muxing mode : zlib
Codec ID : S_HDMV/PGS
Codec ID/Info : Picture based subtitle format used on BDs/HD-DVDs
Language : Portuguese
Default : No
Forced : No
Statistics Tags Issue : no_variable_data 1970-01-01 00:00:00 / no_variable_data 2010-02-22 21:41:29
FromStats_BitRate : 23334
FromStats_Duration : 02:04:48.690000000
FromStats_FrameCount : 2432
FromStats_StreamSize : 21843405

Text #16
ID : 20
Format : PGS
Muxing mode : zlib
Codec ID : S_HDMV/PGS
Codec ID/Info : Picture based subtitle format used on BDs/HD-DVDs
Title : Commentary with actor Tom Cruise and director J.J. Abrams
Language : Portuguese
Default : No
Forced : No
Statistics Tags Issue : no_variable_data 1970-01-01 00:00:00 / no_variable_data 2010-02-22 21:41:29
FromStats_BitRate : 57813
FromStats_Duration : 02:05:17.468000000
FromStats_FrameCount : 4710
FromStats_StreamSize : 54326308

Text #17
ID : 21
Format : PGS
Muxing mode : zlib
Codec ID : S_HDMV/PGS
Codec ID/Info : Picture based subtitle format used on BDs/HD-DVDs
Language : Italian
Default : No
Forced : No
Statistics Tags Issue : no_variable_data 1970-01-01 00:00:00 / no_variable_data 2010-02-22 21:41:29
FromStats_BitRate : 25380
FromStats_Duration : 02:04:48.690000000
FromStats_FrameCount : 2320
FromStats_StreamSize : 23758391

Text #18
ID : 22
Format : PGS
Muxing mode : zlib
Codec ID : S_HDMV/PGS
Codec ID/Info : Picture based subtitle format used on BDs/HD-DVDs
Title : Commentary with actor Tom Cruise and director J.J. Abrams
Language : Italian
Default : No
Forced : No
Statistics Tags Issue : no_variable_data 1970-01-01 00:00:00 / no_variable_data 2010-02-22 21:41:29
FromStats_BitRate : 58049
FromStats_Duration : 02:05:19.595000000
FromStats_FrameCount : 4712
FromStats_StreamSize : 54563712

Text #19
ID : 23
Format : PGS
Muxing mode : zlib
Codec ID : S_HDMV/PGS
Codec ID/Info : Picture based subtitle format used on BDs/HD-DVDs
Language : German
Default : No
Forced : No
Statistics Tags Issue : no_variable_data 1970-01-01 00:00:00 / no_variable_data 2010-02-22 21:41:29
FromStats_BitRate : 31463
FromStats_Duration : 01:57:55.402000000
FromStats_FrameCount : 2430
FromStats_StreamSize : 27827166

Text #20
ID : 24
Format : PGS
Muxing mode : zlib
Codec ID : S_HDMV/PGS
Codec ID/Info : Picture based subtitle format used on BDs/HD-DVDs
Title : Commentary with actor Tom Cruise and director J.J. Abrams
Language : German
Default : No
Forced : No
Statistics Tags Issue : no_variable_data 1970-01-01 00:00:00 / no_variable_data 2010-02-22 21:41:29
FromStats_BitRate : 65052
FromStats_Duration : 02:05:15.424000000
FromStats_FrameCount : 4708
FromStats_StreamSize : 61112577

Text #21
ID : 25
Format : PGS
Muxing mode : zlib
Codec ID : S_HDMV/PGS
Codec ID/Info : Picture based subtitle format used on BDs/HD-DVDs
Language : Dutch
Default : No
Forced : No
Statistics Tags Issue : no_variable_data 1970-01-01 00:00:00 / no_variable_data 2010-02-22 21:41:29
FromStats_BitRate : 19948
FromStats_Duration : 02:04:48.690000000
FromStats_FrameCount : 2244
FromStats_StreamSize : 18673777

Text #22
ID : 26
Format : PGS
Muxing mode : zlib
Codec ID : S_HDMV/PGS
Codec ID/Info : Picture based subtitle format used on BDs/HD-DVDs
Language : Swedish
Default : No
Forced : No
Statistics Tags Issue : no_variable_data 1970-01-01 00:00:00 / no_variable_data 2010-02-22 21:41:29
FromStats_BitRate : 23131
FromStats_Duration : 02:04:48.690000000
FromStats_FrameCount : 2364
FromStats_StreamSize : 21653429

Text #23
ID : 27
Format : PGS
Muxing mode : zlib
Codec ID : S_HDMV/PGS
Codec ID/Info : Picture based subtitle format used on BDs/HD-DVDs
Language : Norwegian
Default : No
Forced : No
Statistics Tags Issue : no_variable_data 1970-01-01 00:00:00 / no_variable_data 2010-02-22 21:41:29
FromStats_BitRate : 19400
FromStats_Duration : 02:04:48.690000000
FromStats_FrameCount : 2340
FromStats_StreamSize : 18160213

Text #24
ID : 28
Format : PGS
Muxing mode : zlib
Codec ID : S_HDMV/PGS
Codec ID/Info : Picture based subtitle format used on BDs/HD-DVDs
Language : Danish
Default : No
Forced : No
Statistics Tags Issue : no_variable_data 1970-01-01 00:00:00 / no_variable_data 2010-02-22 21:41:29
FromStats_BitRate : 22185
FromStats_Duration : 02:04:48.690000000
FromStats_FrameCount : 2342
FromStats_StreamSize : 20767496

Text #25
ID : 29
Format : PGS
Muxing mode : zlib
Codec ID : S_HDMV/PGS
Codec ID/Info : Picture based subtitle format used on BDs/HD-DVDs
Language : Finnish
Default : No
Forced : No
Statistics Tags Issue : no_variable_data 1970-01-01 00:00:00 / no_variable_data 2010-02-22 21:41:29
FromStats_BitRate : 23621
FromStats_Duration : 02:04:48.690000000
FromStats_FrameCount : 2402
FromStats_StreamSize : 22111756

Text #26
ID : 30
Format : PGS
Muxing mode : zlib
Codec ID : S_HDMV/PGS
Codec ID/Info : Picture based subtitle format used on BDs/HD-DVDs
Language : Japanese
Default : No
Forced : No
Statistics Tags Issue : no_variable_data 1970-01-01 00:00:00 / no_variable_data 2010-02-22 21:41:29
FromStats_BitRate : 18232
FromStats_Duration : 01:57:55.151000000
FromStats_FrameCount : 2200
FromStats_StreamSize : 16124811

Text #27
ID : 31
Format : PGS
Muxing mode : zlib
Codec ID : S_HDMV/PGS
Codec ID/Info : Picture based subtitle format used on BDs/HD-DVDs
Title : Commentary with actor Tom Cruise and director J.J. Abrams
Language : Japanese
Default : No
Forced : No
Statistics Tags Issue : no_variable_data 1970-01-01 00:00:00 / no_variable_data 2010-02-22 21:41:29
FromStats_BitRate : 41426
FromStats_Duration : 02:05:14.925000000
FromStats_FrameCount : 3749
FromStats_StreamSize : 38914946

Menu
00:00:00.000 : en:00:00:00.000
00:04:02.451 : en:00:04:02.451
00:12:57.860 : en:00:12:57.860
00:21:18.068 : en:00:21:18.068
00:26:32.299 : en:00:26:32.299
00:32:56.474 : en:00:32:56.474
00:39:30.493 : en:00:39:30.493
00:46:56.439 : en:00:46:56.439
00:51:44.310 : en:00:51:44.310
00:57:34.868 : en:00:57:34.868
01:02:08.975 : en:01:02:08.975
01:09:06.642 : en:01:09:06.642
01:18:19.236 : en:01:18:19.236
01:23:31.381 : en:01:23:31.381
01:27:35.083 : en:01:27:35.083
01:34:08.017 : en:01:34:08.017
01:42:43.449 : en:01:42:43.449
01:51:10.831 : en:01:51:10.831
01:57:27.832 : en:01:57:27.832

Download

download 4k hdr movies download 4k hdr movies

Watch a movie trailer - Mission Impossible 3 4K 2006 Ultra HD 2160p
Comments and Feedback
Add your comment:
Your name:
Your E-Mail:
Code:
reload, if the code cannot be seen
Enter code: