Select movie Search movie Close search My Account

Hansel & Gretel: Witch Hunters 4K 2013 Ultra HD 2160p

Hansel & Gretel: Witch Hunters 4K 2013 Ultra HD 2160p
BDRemux / BDRip
Country: Germany | USA
Time: 1h 28min
IMDB: 6.1
Director: Tommy Wirkola
Actors: Jeremy Renner, Gemma Arterton, Famke Janssen, Pihla Viitala, Derek Mears, Robin Atkin Downes, Ingrid Bols? Berdal, Joanna Kulig, Thomas Mann, Peter Stormare, Bj?rn Sundquist, Rainer Bock, Thomas Scharff, Kathrin K?hnel, Cedric Eich

Story Movie

Hansel & Gretel: Witch Hunters 4K 2013 Ultra HD 2160p

Hansel & Gretel: Witch Hunters 4K - Ganzel, suffering from diabetes (and the reason for that very ill-fated sweet home), Gretel, not indifferent to the trolls named Edward (forcing to recall another evil from another movie) - these are witch hunters fighting against evil forces in ancient times. In fact Hansel & Gretel: Witch Hunters 4k mkv download, from the little Hanzel and Gretel known to all of us since childhood, only names and a house made of sweets.

Review 4K Movie

The other day the premiere of the mystical thriller Norwegian film director Tommy Virkola (“Operation“ Dead Snow ”) took place in Azerbaijan. The tandem of the American style and Germanic traditions went to the film only for the benefit: numerous fights, abundance of weapons and a classic fabulous European forest full of sacraments, trolls and witches.

In the story of the famous fairy tale, Hansel and Gretel get into the witch's gingerbread house after their father leaves them in the forest. Children manage to kill her and escape. 15 years later, brother and sister Hansel and Gretel devote their lives to fighting witches.

Hansel & Gretel: Witch Hunters 4K - the brainchild of Hollywood and European cinema. One of the main advantages of this film is beauty. Beauty in everything: camera work at a height, with the battles between good and evil in all their manifestations, the actors also skillfully coped with special effects, costumes, representing a kind of unity of the culture of the time of the Brothers Grimm and modernity. What to say about the fabulous beauty of the girls with their Scandinavian coldness and attractiveness.

How strange and harmonious was the fragile Mina (Pihla Viitala), which our Hansel & Gretel: Witch Hunters 4k mkv download saved from execution in view of the suspicion of witchcraft, with a machine gun in their hands. No less exotic looked Gretel (Gemma Arterton) in a sexy leather suit and with a crossbow on his shoulder. What is surprising, it all looks harmonious, nothing is out of balance. The work of the actors is not impressed by their skill. If the majority of the audience came to the film for the sake of Jeremy Renner (Hansel), who won universal love after the role of Yastristin’s eye in the movie “The Avengers”, then frustration is inevitable. Yes, beautiful. Yes, professionally. But besides a red-haired Mina of Nordic appearance and a cute big troll named Edward, it’s hard to remember anyone.

Yes, and the release of this film at the same time with the creation of Tarantino “Django Unchained” by Vircole is not good. The universal rapture of the Tarantina creation distracted the audience from the blockbuster-tale. Perhaps this is a retribution of fate for the film “To Kill Boulevard”, shot in 2007, a parody of the Norwegian director on “Kill Bill” by Quentin.

With all its advantages, with all that the film looked at one go, and 2:00 flew by unnoticed, leaving the dark hall of the cinema there was a feeling that there’s really nothing to say about the movie: nothing to remember, nothing to discuss. The euphoria lasted no more than 5 minutes. During the entire film, the visual series distracted from the meaningless and sometimes disjointed plot. But the viewer has little “how”, it is important “what”.

P.S. Movie 17+. “Meat and blood” in the film is enough, although I agree that even here everything is verified and beautiful, but nevertheless I recommend having a strong man’s shoulder next to myself, as sensitive to every rustle as I am. could be buried at any moment.

Mediainfo

movie BDRemux Video #1
ID : 1
Format : HEVC
Format/Info : High Efficiency Video Coding
Commercial name : HDR10
Format profile : Main 10@L5.1@High
Codec ID : V_MPEGH/ISO/HEVC
Duration : 1 h 27 min
Bit rate : 69.1 Mb/s
Width : 3 840 pixels
Height : 2 160 pixels
Display aspect ratio : 16:9
Frame rate mode : Constant
Frame rate : 23.976 (24000/1001) FPS
Color space : YUV
Chroma subsampling : 4:2:0 (Type 2)
Bit depth : 10 bits
Bits/(Pixel*Frame) : 0.347
Stream size : 42.4 GiB (77%)
Title : Hansel.and.Gretel.Witch.Hunters.2013.2160p.BluRay.REMUX.HEVC.TrueHD.5.1
Default : Yes
Forced : No
Color range : Limited
Color primaries : BT.2020
Transfer characteristics : PQ
Matrix coefficients : BT.2020 non-constant
Mastering display color primaries : Display P3
Mastering display luminance : min: 0.0001 cd/m2, max: 1000 cd/m2


Video #2
ID : 2
Format : HEVC
Format/Info : High Efficiency Video Coding
Commercial name : HDR10
Format profile : Main 10@L5.1@High
Codec ID : V_MPEGH/ISO/HEVC
Duration : 1 h 27 min
Bit rate : 7 757 kb/s
Width : 1 920 pixels
Height : 1 080 pixels
Display aspect ratio : 16:9
Frame rate mode : Constant
Frame rate : 23.976 (24000/1001) FPS
Color space : YUV
Chroma subsampling : 4:2:0 (Type 2)
Bit depth : 10 bits
Bits/(Pixel*Frame) : 0.156
Stream size : 4.76 GiB (9%)
Title : Hansel.and.Gretel.Witch.Hunters.2013.2160p.BluRay.REMUX.HEVC.TrueHD.5.1
Default : No
Forced : No
Color range : Limited
Color primaries : BT.2020
Transfer characteristics : PQ
Matrix coefficients : BT.2020 non-constant
Mastering display color primaries : Display P3
Mastering display luminance : min: 0.0001 cd/m2, max: 1000 cd/m2

Audio #1
ID : 3
Format : MLP FBA
Format/Info : Meridian Lossless Packing FBA
Commercial name : Dolby TrueHD
Codec ID : A_TRUEHD
Duration : 1 h 27 min
Bit rate mode : Variable
Bit rate : 3 526 kb/s
Maximum bit rate : 4 860 kb/s
Channel(s) : 6 channels
Channel layout : L R C LFE Ls Rs
Sampling rate : 48.0 kHz
Frame rate : 1 200.000 FPS (40 SPF)
Compression mode : Lossless
Stream size : 2.17 GiB (4%)
Title : Hansel.and.Gretel.Witch.Hunters.2013.2160p.BluRay.REMUX.HEVC.TrueHD.5.1
Language : English
Default : Yes
Forced : No

Audio #2
ID : 4
Format : AC-3
Format/Info : Audio Coding 3
Commercial name : Dolby Digital
Codec ID : A_AC3
Duration : 1 h 27 min
Bit rate mode : Constant
Bit rate : 640 kb/s
Channel(s) : 6 channels
Channel layout : L R C LFE Ls Rs
Sampling rate : 48.0 kHz
Frame rate : 31.250 FPS (1536 SPF)
Bit depth : 16 bits
Compression mode : Lossy
Stream size : 403 MiB (1%)
Title : Hansel.and.Gretel.Witch.Hunters.2013.2160p.BluRay.REMUX.HEVC.TrueHD.5.1
Language : English
Service kind : Complete Main
Default : No
Forced : No

Audio #3
ID : 5
Format : AC-3
Format/Info : Audio Coding 3
Commercial name : Dolby Digital
Codec ID : A_AC3
Duration : 1 h 27 min
Bit rate mode : Constant
Bit rate : 640 kb/s
Channel(s) : 6 channels
Channel layout : L R C LFE Ls Rs
Sampling rate : 48.0 kHz
Frame rate : 31.250 FPS (1536 SPF)
Bit depth : 16 bits
Compression mode : Lossy
Stream size : 403 MiB (1%)
Title : Hansel.and.Gretel.Witch.Hunters.2013.2160p.BluRay.REMUX.HEVC.TrueHD.5.1
Language : English
Service kind : Complete Main
Default : No
Forced : No

Audio #4
ID : 6
Format : AC-3
Format/Info : Audio Coding 3
Commercial name : Dolby Digital
Codec ID : A_AC3
Duration : 1 h 27 min
Bit rate mode : Constant
Bit rate : 640 kb/s
Channel(s) : 6 channels
Channel layout : L R C LFE Ls Rs
Sampling rate : 48.0 kHz
Frame rate : 31.250 FPS (1536 SPF)
Bit depth : 16 bits
Compression mode : Lossy
Stream size : 403 MiB (1%)
Title : Hansel.and.Gretel.Witch.Hunters.2013.2160p.BluRay.REMUX.HEVC.TrueHD.5.1
Language : Czech
Service kind : Complete Main
Default : No
Forced : No

Audio #5
ID : 7
Format : AC-3
Format/Info : Audio Coding 3
Commercial name : Dolby Digital
Codec ID : A_AC3
Duration : 1 h 27 min
Bit rate mode : Constant
Bit rate : 640 kb/s
Channel(s) : 6 channels
Channel layout : L R C LFE Ls Rs
Sampling rate : 48.0 kHz
Frame rate : 31.250 FPS (1536 SPF)
Bit depth : 16 bits
Compression mode : Lossy
Stream size : 403 MiB (1%)
Title : Hansel.and.Gretel.Witch.Hunters.2013.2160p.BluRay.REMUX.HEVC.TrueHD.5.1
Language : German
Service kind : Complete Main
Default : No
Forced : No

Audio #6
ID : 8
Format : AC-3
Format/Info : Audio Coding 3
Commercial name : Dolby Digital
Codec ID : A_AC3
Duration : 1 h 27 min
Bit rate mode : Constant
Bit rate : 640 kb/s
Channel(s) : 6 channels
Channel layout : L R C LFE Ls Rs
Sampling rate : 48.0 kHz
Frame rate : 31.250 FPS (1536 SPF)
Bit depth : 16 bits
Compression mode : Lossy
Stream size : 403 MiB (1%)
Title : Hansel.and.Gretel.Witch.Hunters.2013.2160p.BluRay.REMUX.HEVC.TrueHD.5.1
Language : Spanish
Service kind : Complete Main
Default : No
Forced : No

Audio #7
ID : 9
Format : AC-3
Format/Info : Audio Coding 3
Commercial name : Dolby Digital
Codec ID : A_AC3
Duration : 1 h 27 min
Bit rate mode : Constant
Bit rate : 640 kb/s
Channel(s) : 6 channels
Channel layout : L R C LFE Ls Rs
Sampling rate : 48.0 kHz
Frame rate : 31.250 FPS (1536 SPF)
Bit depth : 16 bits
Compression mode : Lossy
Stream size : 403 MiB (1%)
Title : Hansel.and.Gretel.Witch.Hunters.2013.2160p.BluRay.REMUX.HEVC.TrueHD.5.1
Language : Spanish
Service kind : Complete Main
Default : No
Forced : No

Audio #8
ID : 10
Format : AC-3
Format/Info : Audio Coding 3
Commercial name : Dolby Digital
Codec ID : A_AC3
Duration : 1 h 27 min
Bit rate mode : Constant
Bit rate : 640 kb/s
Channel(s) : 6 channels
Channel layout : L R C LFE Ls Rs
Sampling rate : 48.0 kHz
Frame rate : 31.250 FPS (1536 SPF)
Bit depth : 16 bits
Compression mode : Lossy
Stream size : 403 MiB (1%)
Title : Hansel.and.Gretel.Witch.Hunters.2013.2160p.BluRay.REMUX.HEVC.TrueHD.5.1
Language : French
Service kind : Complete Main
Default : No
Forced : No

Audio #9
ID : 11
Format : AC-3
Format/Info : Audio Coding 3
Commercial name : Dolby Digital
Codec ID : A_AC3
Duration : 1 h 27 min
Bit rate mode : Constant
Bit rate : 640 kb/s
Channel(s) : 6 channels
Channel layout : L R C LFE Ls Rs
Sampling rate : 48.0 kHz
Frame rate : 31.250 FPS (1536 SPF)
Bit depth : 16 bits
Compression mode : Lossy
Stream size : 403 MiB (1%)
Title : Hansel.and.Gretel.Witch.Hunters.2013.2160p.BluRay.REMUX.HEVC.TrueHD.5.1
Language : French
Service kind : Complete Main
Default : No
Forced : No

Audio #10
ID : 12
Format : AC-3
Format/Info : Audio Coding 3
Commercial name : Dolby Digital
Codec ID : A_AC3
Duration : 1 h 27 min
Bit rate mode : Constant
Bit rate : 640 kb/s
Channel(s) : 6 channels
Channel layout : L R C LFE Ls Rs
Sampling rate : 48.0 kHz
Frame rate : 31.250 FPS (1536 SPF)
Bit depth : 16 bits
Compression mode : Lossy
Stream size : 403 MiB (1%)
Title : Hansel.and.Gretel.Witch.Hunters.2013.2160p.BluRay.REMUX.HEVC.TrueHD.5.1
Language : Italian
Service kind : Complete Main
Default : No
Forced : No

Audio #11
ID : 13
Format : AC-3
Format/Info : Audio Coding 3
Commercial name : Dolby Digital
Codec ID : A_AC3
Duration : 1 h 27 min
Bit rate mode : Constant
Bit rate : 640 kb/s
Channel(s) : 6 channels
Channel layout : L R C LFE Ls Rs
Sampling rate : 48.0 kHz
Frame rate : 31.250 FPS (1536 SPF)
Bit depth : 16 bits
Compression mode : Lossy
Stream size : 403 MiB (1%)
Title : Hansel.and.Gretel.Witch.Hunters.2013.2160p.BluRay.REMUX.HEVC.TrueHD.5.1
Language : Japanese
Service kind : Complete Main
Default : No
Forced : No

Audio #12
ID : 14
Format : AC-3
Format/Info : Audio Coding 3
Commercial name : Dolby Digital
Codec ID : A_AC3
Duration : 1 h 27 min
Bit rate mode : Constant
Bit rate : 640 kb/s
Channel(s) : 6 channels
Channel layout : L R C LFE Ls Rs
Sampling rate : 48.0 kHz
Frame rate : 31.250 FPS (1536 SPF)
Bit depth : 16 bits
Compression mode : Lossy
Stream size : 403 MiB (1%)
Title : Hansel.and.Gretel.Witch.Hunters.2013.2160p.BluRay.REMUX.HEVC.TrueHD.5.1
Language : Hungarian
Service kind : Complete Main
Default : No
Forced : No

Audio #13
ID : 15
Format : AC-3
Format/Info : Audio Coding 3
Commercial name : Dolby Digital
Codec ID : A_AC3
Duration : 1 h 27 min
Bit rate mode : Constant
Bit rate : 640 kb/s
Channel(s) : 6 channels
Channel layout : L R C LFE Ls Rs
Sampling rate : 48.0 kHz
Frame rate : 31.250 FPS (1536 SPF)
Bit depth : 16 bits
Compression mode : Lossy
Stream size : 403 MiB (1%)
Title : Hansel.and.Gretel.Witch.Hunters.2013.2160p.BluRay.REMUX.HEVC.TrueHD.5.1
Language : Polish
Service kind : Complete Main
Default : No
Forced : No

Audio #14
ID : 16
Format : AC-3
Format/Info : Audio Coding 3
Commercial name : Dolby Digital
Codec ID : A_AC3
Duration : 1 h 27 min
Bit rate mode : Constant
Bit rate : 640 kb/s
Channel(s) : 6 channels
Channel layout : L R C LFE Ls Rs
Sampling rate : 48.0 kHz
Frame rate : 31.250 FPS (1536 SPF)
Bit depth : 16 bits
Compression mode : Lossy
Stream size : 403 MiB (1%)
Title : Hansel.and.Gretel.Witch.Hunters.2013.2160p.BluRay.REMUX.HEVC.TrueHD.5.1
Language : Portuguese
Service kind : Complete Main
Default : No
Forced : No

Audio #15
ID : 17
Format : AC-3
Format/Info : Audio Coding 3
Commercial name : Dolby Digital
Codec ID : A_AC3
Duration : 1 h 27 min
Bit rate mode : Constant
Bit rate : 640 kb/s
Channel(s) : 6 channels
Channel layout : L R C LFE Ls Rs
Sampling rate : 48.0 kHz
Frame rate : 31.250 FPS (1536 SPF)
Bit depth : 16 bits
Compression mode : Lossy
Stream size : 403 MiB (1%)
Title : Hansel.and.Gretel.Witch.Hunters.2013.2160p.BluRay.REMUX.HEVC.TrueHD.5.1
Language : Russian
Service kind : Complete Main
Default : No
Forced : No

Audio #16
ID : 18
Format : AC-3
Format/Info : Audio Coding 3
Commercial name : Dolby Digital
Codec ID : A_AC3
Duration : 1 h 27 min
Bit rate mode : Constant
Bit rate : 640 kb/s
Channel(s) : 6 channels
Channel layout : L R C LFE Ls Rs
Sampling rate : 48.0 kHz
Frame rate : 31.250 FPS (1536 SPF)
Bit depth : 16 bits
Compression mode : Lossy
Stream size : 403 MiB (1%)
Title : Hansel.and.Gretel.Witch.Hunters.2013.2160p.BluRay.REMUX.HEVC.TrueHD.5.1
Language : Thai
Service kind : Complete Main
Default : No
Forced : No

Text #1
ID : 19
Format : PGS
Muxing mode : zlib
Codec ID : S_HDMV/PGS
Codec ID/Info : Picture based subtitle format used on BDs/HD-DVDs
Duration : 1 h 19 min
Bit rate : 21.5 kb/s
Count of elements : 1590
Stream size : 12.3 MiB (0%)
Title : English-PGS
Language : English
Default : Yes
Forced : No

Text #2
ID : 20
Format : PGS
Muxing mode : zlib
Codec ID : S_HDMV/PGS
Codec ID/Info : Picture based subtitle format used on BDs/HD-DVDs
Duration : 1 h 21 min
Bit rate : 26.9 kb/s
Count of elements : 2086
Stream size : 15.7 MiB (0%)
Title : English-SDH-PGS
Language : English
Default : No
Forced : No

Text #3
ID : 21
Format : PGS
Muxing mode : zlib
Codec ID : S_HDMV/PGS
Codec ID/Info : Picture based subtitle format used on BDs/HD-DVDs
Duration : 1 h 26 min
Bit rate : 9 898 b/s
Count of elements : 1472
Stream size : 6.11 MiB (0%)
Title : Arabic-PGS
Language : Arabic
Default : No
Forced : No

Text #4
ID : 22
Format : PGS
Muxing mode : zlib
Codec ID : S_HDMV/PGS
Codec ID/Info : Picture based subtitle format used on BDs/HD-DVDs
Duration : 1 h 26 min
Bit rate : 23.6 kb/s
Count of elements : 1618
Stream size : 14.6 MiB (0%)
Title : Malay-PGS
Language : Malay
Default : No
Forced : No

Text #5
ID : 23
Format : PGS
Muxing mode : zlib
Codec ID : S_HDMV/PGS
Codec ID/Info : Picture based subtitle format used on BDs/HD-DVDs
Duration : 1 h 26 min
Bit rate : 14.3 kb/s
Count of elements : 1476
Stream size : 8.85 MiB (0%)
Title : Chinese-PGS
Language : Chinese
Default : No
Forced : No

Text #6
ID : 24
Format : PGS
Muxing mode : zlib
Codec ID : S_HDMV/PGS
Codec ID/Info : Picture based subtitle format used on BDs/HD-DVDs
Duration : 1 h 26 min
Bit rate : 17.0 kb/s
Count of elements : 1476
Stream size : 10.5 MiB (0%)
Title : Czech-PGS
Language : Czech
Default : No
Forced : No

Text #7
ID : 25
Format : PGS
Muxing mode : zlib
Codec ID : S_HDMV/PGS
Codec ID/Info : Picture based subtitle format used on BDs/HD-DVDs
Duration : 1 h 26 min
Bit rate : 21.9 kb/s
Count of elements : 1620
Stream size : 13.5 MiB (0%)
Title : German-PGS
Language : German
Default : No
Forced : No

Text #8
ID : 26
Format : PGS
Muxing mode : zlib
Codec ID : S_HDMV/PGS
Codec ID/Info : Picture based subtitle format used on BDs/HD-DVDs
Duration : 1 h 26 min
Bit rate : 19.8 kb/s
Count of elements : 1472
Stream size : 12.2 MiB (0%)
Title : Greek-PGS
Language : Greek
Default : No
Forced : No

Text #9
ID : 27
Format : PGS
Muxing mode : zlib
Codec ID : S_HDMV/PGS
Codec ID/Info : Picture based subtitle format used on BDs/HD-DVDs
Duration : 1 h 26 min
Bit rate : 20.1 kb/s
Count of elements : 1500
Stream size : 12.4 MiB (0%)
Title : Spanish-PGS
Language : Spanish
Default : No
Forced : No

Text #10
ID : 28
Format : PGS
Muxing mode : zlib
Codec ID : S_HDMV/PGS
Codec ID/Info : Picture based subtitle format used on BDs/HD-DVDs
Duration : 1 h 19 min
Bit rate : 20.2 kb/s
Count of elements : 1458
Stream size : 11.5 MiB (0%)
Title : Spanish-PGS
Language : Spanish
Default : No
Forced : No

Text #11
ID : 29
Format : PGS
Muxing mode : zlib
Codec ID : S_HDMV/PGS
Codec ID/Info : Picture based subtitle format used on BDs/HD-DVDs
Duration : 1 h 26 min
Bit rate : 16.8 kb/s
Count of elements : 1512
Stream size : 10.4 MiB (0%)
Title : French-PGS
Language : French
Default : No
Forced : No

Text #12
ID : 30
Format : PGS
Muxing mode : zlib
Codec ID : S_HDMV/PGS
Codec ID/Info : Picture based subtitle format used on BDs/HD-DVDs
Duration : 1 h 19 min
Bit rate : 22.2 kb/s
Count of elements : 1618
Stream size : 12.6 MiB (0%)
Title : French-PGS
Language : French
Default : No
Forced : No

Text #13
ID : 31
Format : PGS
Muxing mode : zlib
Codec ID : S_HDMV/PGS
Codec ID/Info : Picture based subtitle format used on BDs/HD-DVDs
Duration : 1 h 26 min
Bit rate : 31.8 kb/s
Count of elements : 2170
Stream size : 19.7 MiB (0%)
Title : Hindi-PGS
Language : Hindi
Default : No
Forced : No

Text #14
ID : 32
Format : PGS
Muxing mode : zlib
Codec ID : S_HDMV/PGS
Codec ID/Info : Picture based subtitle format used on BDs/HD-DVDs
Duration : 1 h 26 min
Bit rate : 19.1 kb/s
Count of elements : 1472
Stream size : 11.8 MiB (0%)
Title : Icelandic-PGS
Language : Icelandic
Default : No
Forced : No

Text #15
ID : 33
Format : PGS
Muxing mode : zlib
Codec ID : S_HDMV/PGS
Codec ID/Info : Picture based subtitle format used on BDs/HD-DVDs
Duration : 1 h 26 min
Bit rate : 19.9 kb/s
Count of elements : 1620
Stream size : 12.3 MiB (0%)
Title : Italian-PGS
Language : Italian
Default : No
Forced : No

Text #16
ID : 34
Format : PGS
Muxing mode : zlib
Codec ID : S_HDMV/PGS
Codec ID/Info : Picture based subtitle format used on BDs/HD-DVDs
Duration : 1 h 19 min
Bit rate : 17.8 kb/s
Count of elements : 1498
Stream size : 10.1 MiB (0%)
Title : Japanese-PGS
Language : Japanese
Default : No
Forced : No

Text #17
ID : 35
Format : PGS
Muxing mode : zlib
Codec ID : S_HDMV/PGS
Codec ID/Info : Picture based subtitle format used on BDs/HD-DVDs
Duration : 1 h 26 min
Bit rate : 12.2 kb/s
Count of elements : 1476
Stream size : 7.56 MiB (0%)
Title : Korean-PGS
Language : Korean
Default : No
Forced : No

Text #18
ID : 36
Format : PGS
Muxing mode : zlib
Codec ID : S_HDMV/PGS
Codec ID/Info : Picture based subtitle format used on BDs/HD-DVDs
Duration : 1 h 26 min
Bit rate : 20.5 kb/s
Count of elements : 1620
Stream size : 12.6 MiB (0%)
Title : Hungarian-PGS
Language : Hungarian
Default : No
Forced : No

Text #19
ID : 37
Format : PGS
Muxing mode : zlib
Codec ID : S_HDMV/PGS
Codec ID/Info : Picture based subtitle format used on BDs/HD-DVDs
Duration : 1 h 26 min
Bit rate : 15.6 kb/s
Count of elements : 1498
Stream size : 9.67 MiB (0%)
Title : Chinese-PGS
Language : Chinese
Default : No
Forced : No

Text #20
ID : 38
Format : PGS
Muxing mode : zlib
Codec ID : S_HDMV/PGS
Codec ID/Info : Picture based subtitle format used on BDs/HD-DVDs
Duration : 1 h 26 min
Bit rate : 17.6 kb/s
Count of elements : 1190
Stream size : 10.9 MiB (0%)
Title : Dutch-PGS
Language : Dutch
Default : No
Forced : No

Text #21
ID : 39
Format : PGS
Muxing mode : zlib
Codec ID : S_HDMV/PGS
Codec ID/Info : Picture based subtitle format used on BDs/HD-DVDs
Duration : 1 h 26 min
Bit rate : 17.9 kb/s
Count of elements : 1464
Stream size : 11.1 MiB (0%)
Title : Polish-PGS
Language : Polish
Default : No
Forced : No

Text #22
ID : 40
Format : PGS
Muxing mode : zlib
Codec ID : S_HDMV/PGS
Codec ID/Info : Picture based subtitle format used on BDs/HD-DVDs
Duration : 1 h 19 min
Bit rate : 19.5 kb/s
Count of elements : 1466
Stream size : 11.1 MiB (0%)
Title : Portuguese-PGS
Language : Portuguese
Default : No
Forced : No

Text #23
ID : 41
Format : PGS
Muxing mode : zlib
Codec ID : S_HDMV/PGS
Codec ID/Info : Picture based subtitle format used on BDs/HD-DVDs
Duration : 1 h 26 min
Bit rate : 18.8 kb/s
Count of elements : 1406
Stream size : 11.6 MiB (0%)
Title : Portuguese-PGS
Language : Portuguese
Default : No
Forced : No

Text #24
ID : 42
Format : PGS
Muxing mode : zlib
Codec ID : S_HDMV/PGS
Codec ID/Info : Picture based subtitle format used on BDs/HD-DVDs
Duration : 1 h 26 min
Bit rate : 19.2 kb/s
Count of elements : 1620
Stream size : 11.9 MiB (0%)
Title : Russian-PGS
Language : Russian
Default : No
Forced : No

Text #25
ID : 43
Format : PGS
Muxing mode : zlib
Codec ID : S_HDMV/PGS
Codec ID/Info : Picture based subtitle format used on BDs/HD-DVDs
Duration : 1 h 26 min
Bit rate : 16.9 kb/s
Count of elements : 1470
Stream size : 10.4 MiB (0%)
Title : Romanian-PGS
Language : rom
Default : No
Forced : No

Text #26
ID : 44
Format : PGS
Muxing mode : zlib
Codec ID : S_HDMV/PGS
Codec ID/Info : Picture based subtitle format used on BDs/HD-DVDs
Duration : 1 h 26 min
Bit rate : 16.9 kb/s
Count of elements : 1476
Stream size : 10.4 MiB (0%)
Title : Slovak-PGS
Language : Slovak
Default : No
Forced : No

Text #27
ID : 45
Format : PGS
Muxing mode : zlib
Codec ID : S_HDMV/PGS
Codec ID/Info : Picture based subtitle format used on BDs/HD-DVDs
Duration : 1 h 26 min
Bit rate : 14.8 kb/s
Count of elements : 1476
Stream size : 9.14 MiB (0%)
Title : Thai-PGS
Language : Thai
Default : No
Forced : No

Text #28
ID : 46
Format : PGS
Muxing mode : zlib
Codec ID : S_HDMV/PGS
Codec ID/Info : Picture based subtitle format used on BDs/HD-DVDs
Duration : 1 h 26 min
Bit rate : 19.0 kb/s
Count of elements : 1476
Stream size : 11.7 MiB (0%)
Title : Turkish-PGS
Language : Turkish
Default : No
Forced : No

Text #29
ID : 47
Format : PGS
Muxing mode : zlib
Codec ID : S_HDMV/PGS
Codec ID/Info : Picture based subtitle format used on BDs/HD-DVDs
Duration : 2 min 28 s
Bit rate : 12.6 kb/s
Count of elements : 26
Stream size : 228 KiB (0%)
Title : Japanese-PGS
Language : Japanese
Default : No
Forced : No

Menu
00:00:00.000 : :Chapter 1
00:08:57.828 : :Chapter 2
00:15:58.791 : :Chapter 3
00:24:08.113 : :Chapter 4
00:32:18.937 : :Chapter 5
00:40:13.869 : :Chapter 6
00:46:46.637 : :Chapter 7
00:52:23.098 : :Chapter 8
01:00:21.034 : :Chapter 9
01:05:06.652 : :Chapter 10
01:12:50.657 : :Chapter 11
01:19:02.863 : :Chapter 12
movie BDRip Video
ID : 1
Format : HEVC
Format/Info : High Efficiency Video Coding
Commercial name : HDR10
Format profile : Main 10@L5.1@High
Codec ID : V_MPEGH/ISO/HEVC
Duration : 1 h 27 min
Bit rate : 15.3 Mb/s
Width : 3 840 pixels
Height : 1 600 pixels
Display aspect ratio : 2.40:1
Frame rate mode : Constant
Frame rate : 23.976 (24000/1001) FPS
Color space : YUV
Chroma subsampling : 4:2:0 (Type 2)
Bit depth : 10 bits
Bits/(Pixel*Frame) : 0.104
Stream size : 9.38 GiB (78%)
Writing library : x265 2.8+58-d17bc7714ed2:[Windows][GCC 8.2.0][64 bit] 10bit
Encoding settings : cpuid=1176575 / frame-threads=5 / numa-pools=32 / wpp / no-pmode / no-pme / no-psnr / no-ssim / log-level=2 / input-csp=1 / input-res=3840x1600 / interlace=0 / total-frames=126512 / level-idc=51 / high-tier=1 / uhd-bd=0 / ref=4 / no-allow-non-conformance / repeat-headers / annexb / aud / hrd / info / hash=0 / no-temporal-layers / no-open-gop / min-keyint=24 / keyint=240 / gop-lookahead=0 / bframes=4 / b-adapt=2 / b-pyramid / bframe-bias=0 / rc-lookahead=25 / lookahead-slices=4 / scenecut=40 / radl=0 / no-intra-refresh / ctu=64 / min-cu-size=8 / rect / no-amp / max-tu-size=32 / tu-inter-depth=1 / tu-intra-depth=1 / limit-tu=0 / rdoq-level=2 / dynamic-rd=0.00 / no-ssim-rd / signhide / no-tskip / nr-intra=0 / nr-inter=0 / no-constrained-intra / no-strong-intra-smoothing / max-merge=3 / limit-refs=3 / limit-modes / me=3 / subme=3 / merange=57 / temporal-mvp / weightp / no-weightb / no-analyze-src-pics / deblock=-3:-3 / no-sao / no-sao-non-deblock / rd=4 / no-early-skip / rskip / no-fast-intra / no-tskip-fast / no-cu-lossless / no-b-intra / no-splitrd-skip / rdpenalty=0 / psy-rd=2.00 / psy-rdoq=1.00 / no-rd-refine / no-lossless / cbqpoffs=0 / crqpoffs=0 / rc=crf / crf=17.0 / qcomp=0.60 / qpstep=4 / stats-write=0 / stats-read=0 / vbv-maxrate=160000 / vbv-bufsize=160000 / vbv-init=0.9 / crf-max=0.0 / crf-min=0.0 / ipratio=1.40 / pbratio=1.30 / aq-mode=1 / aq-strength=1.00 / cutree / zone-count=0 / no-strict-cbr / qg-size=32 / no-rc-grain / qpmax=69 / qpmin=0 / no-const-vbv / sar=1 / overscan=0 / videoformat=5 / range=0 / colorprim=9 / transfer=16 / colormatrix=9 / chromaloc=1 / chromaloc-top=2 / chromaloc-bottom=2 / display-window=0 / master-display=G(13250,34500)B(7500,3000)R(34000,16000)WP(15635,16450)L(10000000,1) / max-cll=0,0 / min-luma=0 / max-luma=1023 / log2-max-poc-lsb=8 / vui-timing-info / vui-hrd-info / slices=1 / no-opt-qp-pps / no-opt-ref-list-length-pps / no-multi-pass-opt-rps / scenecut-bias=0.05 / no-opt-cu-delta-qp / no-aq-motion / hdr / hdr-opt / no-dhdr10-opt / no-idr-recovery-sei / analysis-reuse-level=5 / scale-factor=0 / refine-intra=0 / refine-inter=0 / refine-mv=0 / no-limit-sao / ctu-info=0 / no-lowpass-dct / refine-mv-type=0 / copy-pic=1 / max-ausize-factor=1.0 / no-dynamic-refine / no-single-sei
Default : Yes
Forced : No
Color range : Limited
Color primaries : BT.2020
Transfer characteristics : PQ
Matrix coefficients : BT.2020 non-constant
Mastering display color primaries : Display P3
Mastering display luminance : min: 0.0001 cd/m2, max: 1000 cd/m2

Audio #1
ID : 2
Format : MLP FBA
Format/Info : Meridian Lossless Packing FBA
Commercial name : Dolby TrueHD
Codec ID : A_TRUEHD
Duration : 1 h 27 min
Bit rate mode : Variable
Bit rate : 3 526 kb/s
Maximum bit rate : 4 860 kb/s
Channel(s) : 6 channels
Channel layout : L R C LFE Ls Rs
Sampling rate : 48.0 kHz
Frame rate : 1 200.000 FPS (40 SPF)
Compression mode : Lossless
Stream size : 2.17 GiB (18%)
Title : TrueHD 5.1
Language : English
Default : Yes
Forced : No

Audio #2
ID : 3
Format : AC-3
Format/Info : Audio Coding 3
Commercial name : Dolby Digital
Codec ID : A_AC3
Duration : 1 h 27 min
Bit rate mode : Constant
Bit rate : 640 kb/s
Channel(s) : 6 channels
Channel layout : L R C LFE Ls Rs
Sampling rate : 48.0 kHz
Frame rate : 31.250 FPS (1536 SPF)
Bit depth : 16 bits
Compression mode : Lossy
Stream size : 403 MiB (3%)
Title : AC-3 5.1
Language : English
Service kind : Complete Main
Default : No
Forced : No

Text #1
ID : 4
Format : UTF-8
Codec ID : S_TEXT/UTF8
Codec ID/Info : UTF-8 Plain Text
Duration : 1 h 19 min
Bit rate : 35 b/s
Count of elements : 805
Stream size : 20.8 KiB (0%)
Title : Stripped SRT
Language : English
Default : No
Forced : No

Text #2
ID : 5
Format : UTF-8
Codec ID : S_TEXT/UTF8
Codec ID/Info : UTF-8 Plain Text
Duration : 1 h 19 min
Bit rate : 35 b/s
Count of elements : 795
Stream size : 20.6 KiB (0%)
Title : Full SRT
Language : English
Default : No
Forced : No

Text #3
ID : 6
Format : PGS
Muxing mode : zlib
Codec ID : S_HDMV/PGS
Codec ID/Info : Picture based subtitle format used on BDs/HD-DVDs
Duration : 1 h 19 min
Bit rate : 21.5 kb/s
Count of elements : 1590
Stream size : 12.3 MiB (0%)
Title : Full
Language : English
Default : No
Forced : No

Text #4
ID : 7
Format : UTF-8
Codec ID : S_TEXT/UTF8
Codec ID/Info : UTF-8 Plain Text
Duration : 1 h 21 min
Bit rate : 41 b/s
Count of elements : 1043
Stream size : 24.8 KiB (0%)
Title : SDH SRT
Language : English
Default : No
Forced : No

Text #5
ID : 8
Format : PGS
Muxing mode : zlib
Codec ID : S_HDMV/PGS
Codec ID/Info : Picture based subtitle format used on BDs/HD-DVDs
Duration : 1 h 21 min
Bit rate : 26.9 kb/s
Count of elements : 2086
Stream size : 15.7 MiB (0%)
Title : SDH
Language : English
Default : No
Forced : No

Text #6
ID : 9
Format : PGS
Muxing mode : zlib
Codec ID : S_HDMV/PGS
Codec ID/Info : Picture based subtitle format used on BDs/HD-DVDs
Duration : 1 h 26 min
Bit rate : 16.8 kb/s
Count of elements : 1512
Stream size : 10.4 MiB (0%)
Language : French
Default : No
Forced : No

Text #7
ID : 10
Format : PGS
Muxing mode : zlib
Codec ID : S_HDMV/PGS
Codec ID/Info : Picture based subtitle format used on BDs/HD-DVDs
Duration : 1 h 19 min
Bit rate : 22.2 kb/s
Count of elements : 1618
Stream size : 12.6 MiB (0%)
Language : French
Default : No
Forced : No

Text #8
ID : 11
Format : PGS
Muxing mode : zlib
Codec ID : S_HDMV/PGS
Codec ID/Info : Picture based subtitle format used on BDs/HD-DVDs
Duration : 1 h 26 min
Bit rate : 20.1 kb/s
Count of elements : 1500
Stream size : 12.4 MiB (0%)
Language : Spanish
Default : No
Forced : No

Text #9
ID : 12
Format : PGS
Muxing mode : zlib
Codec ID : S_HDMV/PGS
Codec ID/Info : Picture based subtitle format used on BDs/HD-DVDs
Duration : 1 h 19 min
Bit rate : 20.2 kb/s
Count of elements : 1458
Stream size : 11.5 MiB (0%)
Language : Spanish
Default : No
Forced : No

Text #10
ID : 13
Format : PGS
Muxing mode : zlib
Codec ID : S_HDMV/PGS
Codec ID/Info : Picture based subtitle format used on BDs/HD-DVDs
Duration : 1 h 19 min
Bit rate : 19.5 kb/s
Count of elements : 1466
Stream size : 11.1 MiB (0%)
Language : Portuguese
Default : No
Forced : No

Text #11
ID : 14
Format : PGS
Muxing mode : zlib
Codec ID : S_HDMV/PGS
Codec ID/Info : Picture based subtitle format used on BDs/HD-DVDs
Duration : 1 h 26 min
Bit rate : 18.8 kb/s
Count of elements : 1406
Stream size : 11.6 MiB (0%)
Language : Portuguese
Default : No
Forced : No

Text #12
ID : 15
Format : PGS
Muxing mode : zlib
Codec ID : S_HDMV/PGS
Codec ID/Info : Picture based subtitle format used on BDs/HD-DVDs
Duration : 1 h 26 min
Bit rate : 19.9 kb/s
Count of elements : 1620
Stream size : 12.3 MiB (0%)
Language : Italian
Default : No
Forced : No

Text #13
ID : 16
Format : PGS
Muxing mode : zlib
Codec ID : S_HDMV/PGS
Codec ID/Info : Picture based subtitle format used on BDs/HD-DVDs
Duration : 1 h 26 min
Bit rate : 21.9 kb/s
Count of elements : 1620
Stream size : 13.5 MiB (0%)
Language : German
Default : No
Forced : No

Text #14
ID : 17
Format : PGS
Muxing mode : zlib
Codec ID : S_HDMV/PGS
Codec ID/Info : Picture based subtitle format used on BDs/HD-DVDs
Duration : 1 h 26 min
Bit rate : 17.6 kb/s
Count of elements : 1190
Stream size : 10.9 MiB (0%)
Language : Dutch
Default : No
Forced : No

Text #15
ID : 18
Format : PGS
Muxing mode : zlib
Codec ID : S_HDMV/PGS
Codec ID/Info : Picture based subtitle format used on BDs/HD-DVDs
Duration : 1 h 26 min
Bit rate : 19.1 kb/s
Count of elements : 1472
Stream size : 11.8 MiB (0%)
Language : Icelandic
Default : No
Forced : No

Text #16
ID : 19
Format : PGS
Muxing mode : zlib
Codec ID : S_HDMV/PGS
Codec ID/Info : Picture based subtitle format used on BDs/HD-DVDs
Duration : 1 h 26 min
Bit rate : 19.2 kb/s
Count of elements : 1620
Stream size : 11.9 MiB (0%)
Language : Russian
Default : No
Forced : No

Text #17
ID : 20
Format : PGS
Muxing mode : zlib
Codec ID : S_HDMV/PGS
Codec ID/Info : Picture based subtitle format used on BDs/HD-DVDs
Duration : 1 h 26 min
Bit rate : 17.0 kb/s
Count of elements : 1476
Stream size : 10.5 MiB (0%)
Language : Czech
Default : No
Forced : No

Text #18
ID : 21
Format : PGS
Muxing mode : zlib
Codec ID : S_HDMV/PGS
Codec ID/Info : Picture based subtitle format used on BDs/HD-DVDs
Duration : 1 h 26 min
Bit rate : 17.9 kb/s
Count of elements : 1464
Stream size : 11.1 MiB (0%)
Language : Polish
Default : No
Forced : No

Text #19
ID : 22
Format : PGS
Muxing mode : zlib
Codec ID : S_HDMV/PGS
Codec ID/Info : Picture based subtitle format used on BDs/HD-DVDs
Duration : 1 h 26 min
Bit rate : 20.5 kb/s
Count of elements : 1620
Stream size : 12.6 MiB (0%)
Language : Hungarian
Default : No
Forced : No

Text #20
ID : 23
Format : PGS
Muxing mode : zlib
Codec ID : S_HDMV/PGS
Codec ID/Info : Picture based subtitle format used on BDs/HD-DVDs
Duration : 1 h 26 min
Bit rate : 16.9 kb/s
Count of elements : 1476
Stream size : 10.4 MiB (0%)
Language : Slovak
Default : No
Forced : No

Text #21
ID : 24
Format : PGS
Muxing mode : zlib
Codec ID : S_HDMV/PGS
Codec ID/Info : Picture based subtitle format used on BDs/HD-DVDs
Duration : 1 h 26 min
Bit rate : 16.9 kb/s
Count of elements : 1470
Stream size : 10.4 MiB (0%)
Language : rom
Default : No
Forced : No

Text #22
ID : 25
Format : PGS
Muxing mode : zlib
Codec ID : S_HDMV/PGS
Codec ID/Info : Picture based subtitle format used on BDs/HD-DVDs
Duration : 1 h 26 min
Bit rate : 19.8 kb/s
Count of elements : 1472
Stream size : 12.2 MiB (0%)
Language : Greek
Default : No
Forced : No

Text #23
ID : 26
Format : PGS
Muxing mode : zlib
Codec ID : S_HDMV/PGS
Codec ID/Info : Picture based subtitle format used on BDs/HD-DVDs
Duration : 1 h 26 min
Bit rate : 19.0 kb/s
Count of elements : 1476
Stream size : 11.7 MiB (0%)
Language : Turkish
Default : No
Forced : No

Text #24
ID : 27
Format : PGS
Muxing mode : zlib
Codec ID : S_HDMV/PGS
Codec ID/Info : Picture based subtitle format used on BDs/HD-DVDs
Duration : 1 h 26 min
Bit rate : 9 898 b/s
Count of elements : 1472
Stream size : 6.11 MiB (0%)
Language : Arabic
Default : No
Forced : No

Text #25
ID : 28
Format : PGS
Muxing mode : zlib
Codec ID : S_HDMV/PGS
Codec ID/Info : Picture based subtitle format used on BDs/HD-DVDs
Duration : 1 h 19 min
Bit rate : 17.8 kb/s
Count of elements : 1498
Stream size : 10.1 MiB (0%)
Language : Japanese
Default : No
Forced : No

Text #26
ID : 29
Format : PGS
Muxing mode : zlib
Codec ID : S_HDMV/PGS
Codec ID/Info : Picture based subtitle format used on BDs/HD-DVDs
Duration : 1 h 26 min
Bit rate : 14.3 kb/s
Count of elements : 1476
Stream size : 8.85 MiB (0%)
Language : Chinese
Default : No
Forced : No

Text #27
ID : 30
Format : PGS
Muxing mode : zlib
Codec ID : S_HDMV/PGS
Codec ID/Info : Picture based subtitle format used on BDs/HD-DVDs
Duration : 1 h 26 min
Bit rate : 15.6 kb/s
Count of elements : 1498
Stream size : 9.67 MiB (0%)
Language : Chinese
Default : No
Forced : No

Text #28
ID : 31
Format : PGS
Muxing mode : zlib
Codec ID : S_HDMV/PGS
Codec ID/Info : Picture based subtitle format used on BDs/HD-DVDs
Duration : 1 h 26 min
Bit rate : 12.2 kb/s
Count of elements : 1476
Stream size : 7.56 MiB (0%)
Language : Korean
Default : No
Forced : No

Text #29
ID : 32
Format : PGS
Muxing mode : zlib
Codec ID : S_HDMV/PGS
Codec ID/Info : Picture based subtitle format used on BDs/HD-DVDs
Duration : 1 h 26 min
Bit rate : 14.8 kb/s
Count of elements : 1476
Stream size : 9.14 MiB (0%)
Language : Thai
Default : No
Forced : No

Text #30
ID : 33
Format : PGS
Muxing mode : zlib
Codec ID : S_HDMV/PGS
Codec ID/Info : Picture based subtitle format used on BDs/HD-DVDs
Duration : 1 h 26 min
Bit rate : 31.8 kb/s
Count of elements : 2170
Stream size : 19.7 MiB (0%)
Language : Hindi
Default : No
Forced : No

Text #31
ID : 34
Format : PGS
Muxing mode : zlib
Codec ID : S_HDMV/PGS
Codec ID/Info : Picture based subtitle format used on BDs/HD-DVDs
Duration : 1 h 26 min
Bit rate : 23.6 kb/s
Count of elements : 1618
Stream size : 14.6 MiB (0%)
Language : Malay
Default : No
Forced : No

Menu
00:00:00.000 : :00:00:00.000
00:08:57.829 : :00:08:57.829
00:15:58.791 : :00:15:58.791
00:24:08.113 : :00:24:08.113
00:32:18.937 : :00:32:18.937
00:40:13.870 : :00:40:13.870
00:46:46.637 : :00:46:46.637
00:52:23.098 : :00:52:23.098
01:00:21.034 : :01:00:21.034
01:05:06.653 : :01:05:06.653
01:12:50.658 : :01:12:50.658
01:19:02.863 : :01:19:02.863

Download

download 4k hdr movies download 4k hdr movies

Watch a movie trailer - Hansel & Gretel: Witch Hunters 4K 2013 Ultra HD 2160p
Comments and Feedback
Add your comment:
Your name:
Your E-Mail:
Code:
reload, if the code cannot be seen
Enter code: