Select movie Search movie Close search My Account

Fullmetal Alchemist 4K 2017 JAPANESE Ultra HD 2160p

Fullmetal Alchemist 4K 2017 JAPANESE Ultra HD 2160p
BDRemux / BDRip
Country: Japan
Time: 2h 15min
IMDB: 5.9
Director: Fumihiko Sori
Actors: Ry?suke Yamada, Tsubasa Honda, Dean Fujioka, Ry?ta Sat?, Misako Renbutsu, Y? ?izumi, Kenjir? Ishimaru, Yasuko Matsuyuki, Shinji Uchiyama, Kanata Hong?, Natsuna, Fumiyo Kohinata, Natsuki Harada, Jun Kunimura...

Story Movie

Fullmetal Alchemist 4K 2017 JAPANESE Ultra HD 2160p

Fullmetal Alchemist 4K - the problem is that all this looks like another attempt to attract an audience with the help of slag, shot under a well-known brand. The main disappointment is the presence of the Warner Brothers logo. Such a film giant is quite capable of investing the necessary resources and removing the decent film version that the Steel Alchemist 4k test file definitely deserves.

Review 4K Movie

I now do not understand why shoot this film here? Another failure of Netflix on the film adaptation of one of the greatest works of Eastern culture. Even though I am a huge fan of the Fullmetal Alchemist 4K, it was painful for me to watch this movie.

The characters are not alive, more like some kind of cosplayers than real people. That is why they took Eastern actors, even if in the anime the Eastern race was different from the European (those who do not know in the anime have a country called Xin which is a stereotype similar to the Eastern nations and the characters who came from there differed in their appearance). The only emotional one was probably Alphonse, whose body has iron armor.

The story aspires, frame by frame, to match the original story, not realizing that it harms the film. Yes, you can and match, but you need to do it correctly, as in Harry Potter, for example, because the world of the Alchemist is very rich and interesting. It was possible to break the story into several films, so that the characters had time to open up.

The creators are afraid to take risks and because of this Fullmetal Alchemist 4k test file, it turns out that such a trash. We hope that someday they will understand their mistakes and we will see the adaptation we deserve.

Mediainfo

movie BDRemux Video
ID : 1
Format : HEVC
Format/Info : High Efficiency Video Coding
Format profile : Main 10@L5.1@High
Codec ID : V_MPEGH/ISO/HEVC
Duration : 2 h 13 min
Bit rate : 77.0 Mb/s
Width : 3 840 pixels
Height : 2 160 pixels
Display aspect ratio : 16:9
Frame rate mode : Constant
Frame rate : 23.976 (24000/1001) FPS
Color space : YUV
Chroma subsampling : 4:2:0 (Type 2)
Bit depth : 10 bits
Bits/(Pixel*Frame) : 0.387
Stream size : 71.9 GiB (92%)
Title : Fullmetal.Alchemist.2017.JAPANESE.2160p.BluRay.REMUX.HEVC.DTS-HD.MA.5.1
Default : Yes
Forced : No
Color range : Limited
Color primaries : BT.2020
Transfer characteristics : PQ
Matrix coefficients : BT.2020 non-constant

Audio #1
ID : 2
Format : DTS XLL
Format/Info : Digital Theater Systems
Commercial name : DTS-HD Master Audio
Codec ID : A_DTS
Duration : 2 h 13 min
Bit rate mode : Variable
Bit rate : 3 924 kb/s
Channel(s) : 6 channels
Channel layout : C L R Ls Rs LFE
Sampling rate : 48.0 kHz
Frame rate : 93.750 FPS (512 SPF)
Bit depth : 24 bits
Compression mode : Lossless
Stream size : 3.67 GiB (5%)
Title : Fullmetal.Alchemist.2017.JAPANESE.2160p.BluRay.REMUX.HEVC.DTS-HD.MA.5.1
Language : Japanese
Default : Yes
Forced : No

Audio #2
ID : 3
Format : PCM
Format settings : Little / Signed
Codec ID : A_PCM/INT/LIT
Duration : 2 h 13 min
Bit rate mode : Constant
Bit rate : 2 304 kb/s
Channel(s) : 2 channels
Sampling rate : 48.0 kHz
Frame rate : 200.000 FPS (240 SPF)
Bit depth : 24 bits
Stream size : 2.15 GiB (3%)
Title : Fullmetal.Alchemist.2017.JAPANESE.2160p.BluRay.REMUX.HEVC.DTS-HD.MA.5.1
Language : Japanese
Default : No
Forced : No

Text #1
ID : 4
Format : UTF-8
Codec ID : S_TEXT/UTF8
Codec ID/Info : UTF-8 Plain Text
Duration : 2 h 6 min
Bit rate : 27 b/s
Count of elements : 1220
Stream size : 25.3 KiB (0%)
Title : English-SRT
Language : English
Default : Yes
Forced : Yes

Text #2
ID : 5
Format : PGS
Muxing mode : zlib
Codec ID : S_HDMV/PGS
Codec ID/Info : Picture based subtitle format used on BDs/HD-DVDs
Duration : 2 h 11 min
Bit rate : 29.1 kb/s
Count of elements : 2658
Stream size : 27.3 MiB (0%)
Title : Japanese-PGS
Language : Japanese
Default : No
Forced : No

Menu
00:00:00.000 : :Chapter 1
00:06:42.276 : :Chapter 2
00:19:11.567 : :Chapter 3
00:26:41.433 : :Chapter 4
00:35:23.162 : :Chapter 5
00:47:11.328 : :Chapter 6
00:55:32.370 : :Chapter 7
01:04:24.819 : :Chapter 8
01:17:54.586 : :Chapter 9
01:25:32.585 : :Chapter 10
01:33:52.626 : :Chapter 11
01:49:45.203 : :Chapter 12
01:59:13.312 : :Chapter 13
02:08:04.676 : :Chapter 14
movie BDRip Video
ID : 1
Format : HEVC
Format/Info : High Efficiency Video Coding
Commercial name : HDR10
Format profile : Main 10@L5.1@High
Codec ID : V_MPEGH/ISO/HEVC
Duration : 2 h 13 min
Bit rate : 13.6 Mb/s
Width : 3 840 pixels
Height : 1 632 pixels
Display aspect ratio : 2.35:1
Frame rate mode : Constant
Frame rate : 23.976 (24000/1001) FPS
Color space : YUV
Chroma subsampling : 4:2:0 (Type 2)
Bit depth : 10 bits
Bits/(Pixel*Frame) : 0.090
Stream size : 12.7 GiB (75%)
Title : Fullmetal.Alchemist.2017.JAPANESE.2160p.BluRay.x265.10bit.HDR.DTS-HD.MA.5.1-SWTYBLZ
Writing library : x265 2.8+54-79c76e42cb28:[Windows][GCC 7.3.1][64 bit] 10bit
Encoding settings : cpuid=1111039 / frame-threads=16 / numa-pools=24,24,24,24 / wpp / no-pmode / no-pme / no-psnr / no-ssim / log-level=2 / input-csp=1 / input-res=3840x1632 / interlace=0 / total-frames=0 / level-idc=51 / high-tier=1 / uhd-bd=0 / ref=3 / no-allow-non-conformance / repeat-headers / annexb / aud / hrd / info / hash=0 / no-temporal-layers / no-open-gop / min-keyint=1 / keyint=24 / gop-lookahead=0 / bframes=4 / b-adapt=2 / b-pyramid / bframe-bias=0 / rc-lookahead=25 / lookahead-slices=4 / scenecut=40 / radl=0 / no-intra-refresh / ctu=64 / min-cu-size=8 / no-rect / no-amp / max-tu-size=32 / tu-inter-depth=1 / tu-intra-depth=1 / limit-tu=0 / rdoq-level=0 / dynamic-rd=0.00 / no-ssim-rd / signhide / no-tskip / nr-intra=0 / nr-inter=0 / no-constrained-intra / strong-intra-smoothing / max-merge=2 / limit-refs=3 / no-limit-modes / me=1 / subme=2 / merange=57 / temporal-mvp / weightp / no-weightb / no-analyze-src-pics / deblock=0:0 / no-sao / no-sao-non-deblock / rd=3 / no-early-skip / rskip / no-fast-intra / no-tskip-fast / no-cu-lossless / no-b-intra / no-splitrd-skip / rdpenalty=0 / psy-rd=2.00 / psy-rdoq=0.00 / no-rd-refine / no-lossless / cbqpoffs=0 / crqpoffs=0 / rc=crf / crf=16.0 / qcomp=0.60 / qpstep=4 / stats-write=0 / stats-read=0 / vbv-maxrate=160000 / vbv-bufsize=160000 / vbv-init=0.9 / crf-max=0.0 / crf-min=0.0 / ipratio=1.40 / pbratio=1.30 / aq-mode=1 / aq-strength=1.00 / cutree / zone-count=0 / no-strict-cbr / qg-size=32 / no-rc-grain / qpmax=69 / qpmin=0 / no-const-vbv / sar=1 / overscan=0 / videoformat=5 / range=0 / colorprim=9 / transfer=16 / colormatrix=9 / chromaloc=1 / chromaloc-top=2 / chromaloc-bottom=2 / display-window=0 / master-display=G(13250,34500)B(7500,3000)R(34000,16000)WP(15635,16450)L(10000000,50) / max-cll=0,0 / min-luma=0 / max-luma=1023 / log2-max-poc-lsb=8 / vui-timing-info / vui-hrd-info / slices=1 / opt-qp-pps / opt-ref-list-length-pps / no-multi-pass-opt-rps / scenecut-bias=0.05 / no-opt-cu-delta-qp / no-aq-motion / hdr / hdr-opt / no-dhdr10-opt / no-idr-recovery-sei / analysis-reuse-level=5 / scale-factor=0 / refine-intra=0 / refine-inter=0 / refine-mv=0 / no-limit-sao / ctu-info=0 / no-lowpass-dct / refine-mv-type=0 / copy-pic=1 / max-ausize-factor=1.0 / no-dynamic-refine / no-single-sei
Language : Japanese
Default : Yes
Forced : No
Color range : Limited
Color primaries : BT.2020
Transfer characteristics : PQ
Matrix coefficients : BT.2020 non-constant
Mastering display color primaries : Display P3
Mastering display luminance : min: 0.0050 cd/m2, max: 1000 cd/m2

Audio #1
ID : 2
Format : DTS XLL
Format/Info : Digital Theater Systems
Commercial name : DTS-HD Master Audio
Codec ID : A_DTS
Duration : 2 h 13 min
Bit rate mode : Variable
Bit rate : 3 924 kb/s
Channel(s) : 6 channels
Channel layout : C L R Ls Rs LFE
Sampling rate : 48.0 kHz
Frame rate : 93.750 FPS (512 SPF)
Bit depth : 24 bits
Compression mode : Lossless
Stream size : 3.67 GiB (22%)
Title : Fullmetal.Alchemist.2017.JAPANESE.2160p.BluRay.x265.10bit.HDR.DTS-HD.MA.5.1-SWTYBLZ
Language : Japanese
Default : Yes
Forced : No

Audio #2
ID : 3
Format : AC-3
Format/Info : Audio Coding 3
Commercial name : Dolby Digital
Codec ID : A_AC3
Duration : 2 h 13 min
Bit rate mode : Constant
Bit rate : 640 kb/s
Channel(s) : 6 channels
Channel layout : L R C LFE Ls Rs
Sampling rate : 48.0 kHz
Frame rate : 31.250 FPS (1536 SPF)
Bit depth : 16 bits
Compression mode : Lossy
Stream size : 612 MiB (4%)
Title : Fullmetal.Alchemist.2017.JAPANESE.2160p.BluRay.x265.10bit.HDR.DTS-HD.MA.5.1-SWTYBLZ
Language : Japanese
Service kind : Complete Main
Default : No
Forced : No

Text #1
ID : 4
Format : UTF-8
Codec ID : S_TEXT/UTF8
Codec ID/Info : UTF-8 Plain Text
Duration : 2 h 6 min
Bit rate : 27 b/s
Count of elements : 1220
Stream size : 25.3 KiB (0%)
Title : English-SRT
Language : English
Default : Yes
Forced : Yes

Text #2
ID : 5
Format : PGS
Muxing mode : zlib
Codec ID : S_HDMV/PGS
Codec ID/Info : Picture based subtitle format used on BDs/HD-DVDs
Duration : 2 h 11 min
Bit rate : 29.1 kb/s
Count of elements : 2658
Stream size : 27.3 MiB (0%)
Title : Japanese-PGS
Language : Japanese
Default : No
Forced : No

Menu
00:00:00.000 : :Chapter 1
00:06:42.276 : :Chapter 2
00:19:11.567 : :Chapter 3
00:26:41.433 : :Chapter 4
00:35:23.162 : :Chapter 5
00:47:11.328 : :Chapter 6
00:55:32.370 : :Chapter 7
01:04:24.819 : :Chapter 8
01:17:54.586 : :Chapter 9
01:25:32.585 : :Chapter 10
01:33:52.626 : :Chapter 11
01:49:45.203 : :Chapter 12
01:59:13.312 : :Chapter 13
02:08:04.676 : :Chapter 14

Download

download 4k hdr movies download 4k hdr movies

Watch a movie trailer - Fullmetal Alchemist 4K 2017 JAPANESE Ultra HD 2160p
Comments and Feedback
Add your comment:
Your name:
Your E-Mail:
Code:
reload, if the code cannot be seen
Enter code: