Select movie Search movie Close search My Account

Skyscraper 4K 2018 Ultra HD 2160p

Skyscraper 4K 2018 Ultra HD 2160p
BDRemux / BDRip
Country: USA
Time: 1h 42min
IMDB: 5.9
Director: Rawson Marshall Thurber
Actors: Dwayne Johnson, Neve Campbell, Chin Han, Roland M?ller, Noah Taylor, Byron Mann, Pablo Schreiber, McKenna Roberts, Noah Cottrell, Hannah Quinlivan, Adrian Holmes, Elfina Luk, Kevin Rankin, Gretal Montgomery, Jett Klyne

Story Movie

Skyscraper 2018 Ultra HD 2160p
In the film Skyscraper UHD, the plot unfolds around a tall skyscraper that falls into a fire disaster. In this case, death and mortal danger threatens all people. which are in the building. There is no way out on the first glg, but the former security officer never thinks and he is ready to fight for the lives of people in the very center of the fire. and how this fight will end you will learn from the movie Skyscraper download uhd.

Review 4K Movie

Such cliché statements are waiting for you, but, they will be pronounced as if no one has ever said anything like this. I'm carping? I'm not one of these moviegoers! Only objectivity and nothing else.

Skyscraper download uhd

Seriously, guys, Scala is a cool and positive man, a phenomenal speaker and wrestler, but his filmography leaves much to be desired with each new film, and as an actor he is completely stuck in one image. There was not enough of the fact that he selected the franchise from Vin Diesel and brought Tyriz Gibson to tears, so he also acted in shoddy action films. Burst simply and together with Jason eclipsed Dominic, who, admittedly, was morally obsolete, and Diesel itself had already commercialized The Fast and the Furious at the end. Calling Rocks films cheap means that the language doesn’t turn around, because a lot of money comes in steadily, but projects don't grow as a quality, but rather the opposite.

The picture was put by Rawson Marshall Turber, whose filmography at the bottom, honestly, I watched only three of his films and they seemed second-rate to me, and as for the rest of the films, then I relied on the average user rating, and I really hope that they didn’t fooled put it. The action movie is not small, but it looks sad and even cheap. Is the whole Rock budget gone? Probably yes. What is the joke of an entertaining action movie that cannot surprise and captivate you with a colorful, piercing action?

On the plot and talk, in fact, nothing. Even speculate will not work. This is a typical action movie, where fights for the sake of fights, skirmishes for the sake of exchanges, and the plot itself is inexpressive and faded. The rock is in its brand role and is not even going to leave it in the near future. All this is pretty fed up and even surprising. And Scala himself is not tired of his mediocrity? He, of course, for the new generation will be a kind of hero of the militants. As we have Stallone, Willis, Seagal and many other frequenter militants of the 70s - 90s. Rock Johnson will beat everyone and save everyone. The whole semantic load of his films Skyscraper Ultra HD.

If we consider the film as an ordinary thriller with explosions, gunfights, scuffle, then someone might like it, but I'm a fan of a more intricate and original movie. No one expected, I think, a masterpiece, but I waited for an adequate film, but I got it, as always. Why am I looking if there is nothing else to expect from Scala? So the answer is very simple. I would like to go to the movies with friends, popcorn, cola, the atmosphere and the like. But I do not want to go out with such a look, as if, they decided to use you, take your money and pump the next slag, but in a muscular and bald package. No cultural influence, typical prohodnyak. And in my case, I have already looked at all the new products of that week and there was no choice. I had to go.

The formula for success: You take Johnson's "Rock" by Duane and ask him to play himself, the main thing is to have a facial expression and more severe grimaces. Begging for a crazy budget and just take off the first thing that comes to mind. And even if it looks low-grade - you push it to the viewer on serious and imperturbable soup. You take a mediocre soundtrack and not interesting characters that the viewer does not want to empathize with, but, rather, will want to finish off after each pathetic and stupid dialogue. The good timing is not great.

Mediainfo

movie BDRemux Video #1
ID : 1
Format : HEVC
Format/Info : High Efficiency Video Coding
Commercial name : HDR10
Format profile : Main 10@L5.1@High
Codec ID : V_MPEGH/ISO/HEVC
Duration : 1 h 42 min
Bit rate : 69.1 Mb/s
Width : 3 840 pixels
Height : 2 160 pixels
Display aspect ratio : 16:9
Frame rate mode : Constant
Frame rate : 23.976 (24000/1001) FPS
Color space : YUV
Chroma subsampling : 4:2:0 (Type 2)
Bit depth : 10 bits
Bits/(Pixel*Frame) : 0.348
Stream size : 49.5 GiB (77%)
Title : Skyscraper.2018.2160p.BluRay.REMUX.HEVC.DTS-HD.MA.TrueHD.7.1.Atmos
Default : Yes
Forced : No
Color range : Limited
Color primaries : BT.2020
Transfer characteristics : PQ
Matrix coefficients : BT.2020 non-constant
Mastering display color primaries : Display P3
Mastering display luminance : min: 0.0050 cd/m2, max: 1000 cd/m2
Maximum Content Light Level : 1000 cd/m2
Maximum Frame-Average Light Level : 986 cd/m2


Video #2
ID : 2
Format : HEVC
Format/Info : High Efficiency Video Coding
Commercial name : HDR10
Format profile : Main 10@L5.1@High
Codec ID : V_MPEGH/ISO/HEVC
Duration : 1 h 42 min
Bit rate : 12.1 Mb/s
Width : 1 920 pixels
Height : 1 080 pixels
Display aspect ratio : 16:9
Frame rate mode : Constant
Frame rate : 23.976 (24000/1001) FPS
Color space : YUV
Chroma subsampling : 4:2:0 (Type 2)
Bit depth : 10 bits
Bits/(Pixel*Frame) : 0.244
Stream size : 8.69 GiB (14%)
Title : Skyscraper.2018.2160p.BluRay.REMUX.HEVC.DTS-HD.MA.TrueHD.7.1.Atmos
Default : No
Forced : No
Color range : Limited
Color primaries : BT.2020
Transfer characteristics : PQ
Matrix coefficients : BT.2020 non-constant
Mastering display color primaries : Display P3
Mastering display luminance : min: 0.0050 cd/m2, max: 1000 cd/m2

Audio #1
ID : 3
Format : TrueHD
Format profile : TrueHD+Atmos / TrueHD
Codec ID : A_TRUEHD
Duration : 1 h 42 min
Bit rate mode : Variable
Bit rate : 2 836 kb/s
Maximum bit rate : 5 022 kb/s
Channel(s) : Object Based / 8 channels
Channel positions : Object Based / Front: L C R, Side: L R, Back: L R, LFE
Sampling rate : / 48.0 kHz
Frame rate : 1 200.000 FPS (40 SPF)
Compression mode : Lossless
Stream size : 2.03 GiB (3%)
Title : Skyscraper.2018.2160p.BluRay.REMUX.HEVC.DTS-HD.MA.TrueHD.7.1.Atmos
Language : English
Default : Yes
Forced : No

Audio #2
ID : 4
Format : DTS
Format/Info : Digital Theater Systems
Format profile : MA / Core
Codec ID : A_DTS
Duration : 1 h 42 min
Bit rate mode : Variable / Constant
Bit rate : 3 509 kb/s / 1 509 kb/s
Channel(s) : 8 channels / 6 channels
Channel positions : Front: L C R, Side: L R, Back: L R, LFE / Front: L C R, Side: L R, LFE
Sampling rate : 48.0 kHz
Frame rate : 93.750 FPS (512 SPF)
Bit depth : 24 bits
Compression mode : Lossless / Lossy
Stream size : 2.51 GiB (4%)
Title : Skyscraper.2018.2160p.BluRay.REMUX.HEVC.DTS-HD.MA.TrueHD.7.1.Atmos
Language : English
Default : No
Forced : No

Audio #3
ID : 5
Format : AC-3
Format/Info : Audio Coding 3
Codec ID : A_AC3
Duration : 1 h 42 min
Bit rate mode : Constant
Bit rate : 448 kb/s
Channel(s) : 6 channels
Channel positions : Front: L C R, Side: L R, LFE
Sampling rate : 48.0 kHz
Frame rate : 31.250 FPS (1536 SPF)
Bit depth : 16 bits
Compression mode : Lossy
Stream size : 328 MiB (0%)
Title : Skyscraper.2018.2160p.BluRay.REMUX.HEVC.DTS-HD.MA.TrueHD.7.1.Atmos
Language : English
Service kind : Complete Main
Default : No
Forced : No

Audio #4
ID : 6
Format : E-AC-3
Format/Info : Enhanced Audio Coding 3
Codec ID : A_EAC3
Duration : 1 h 42 min
Bit rate mode : Constant
Bit rate : 500 b/s
Channel(s) : 8 channels
Channel(s)_Original : 6 channels
Channel positions : Front: L C R, Side: L R, LFE
Sampling rate : 48.0 kHz
Frame rate : 187.500 FPS (256 SPF)
Compression mode : Lossy
Stream size : 563 MiB (1%)
Title : Skyscraper.2018.2160p.BluRay.REMUX.HEVC.DTS-HD.MA.TrueHD.7.1.Atmos
Language : Spanish
Service kind : Complete Main
Default : No
Forced : No

Audio #5
ID : 7
Format : E-AC-3
Format/Info : Enhanced Audio Coding 3
Codec ID : A_EAC3
Duration : 1 h 42 min
Bit rate mode : Constant
Bit rate : 500 b/s
Channel(s) : 8 channels
Channel(s)_Original : 6 channels
Channel positions : Front: L C R, Side: L R, LFE
Sampling rate : 48.0 kHz
Frame rate : 187.500 FPS (256 SPF)
Compression mode : Lossy
Stream size : 563 MiB (1%)
Title : Skyscraper.2018.2160p.BluRay.REMUX.HEVC.DTS-HD.MA.TrueHD.7.1.Atmos
Language : French
Service kind : Complete Main
Default : No
Forced : No

Audio #6
ID : 8
Format : AC-3
Format/Info : Audio Coding 3
Codec ID : A_AC3
Duration : 1 h 42 min
Bit rate mode : Constant
Bit rate : 192 kb/s
Channel(s) : 2 channels
Channel positions : Front: L R
Sampling rate : 48.0 kHz
Frame rate : 31.250 FPS (1536 SPF)
Bit depth : 16 bits
Compression mode : Lossy
Stream size : 141 MiB (0%)
Title : Skyscraper.2018.2160p.BluRay.REMUX.HEVC.DTS-HD.MA.TrueHD.7.1.Atmos
Language : English
Service kind : Complete Main
Default : No
Forced : No

Text #1
ID : 9
Format : PGS
Muxing mode : zlib
Codec ID : S_HDMV/PGS
Codec ID/Info : Picture based subtitle format used on BDs/HD-DVDs
Duration : 1 h 32 min
Bit rate : 38.5 kb/s
Count of elements : 2648
Stream size : 25.4 MiB (0%)
Title : English-PGS
Language : English
Default : Yes
Forced : No

Text #2
ID : 10
Format : PGS
Muxing mode : zlib
Codec ID : S_HDMV/PGS
Codec ID/Info : Picture based subtitle format used on BDs/HD-DVDs
Duration : 1 h 41 min
Bit rate : 24.9 kb/s
Count of elements : 2238
Stream size : 18.1 MiB (0%)
Title : Spanish-PGS
Language : Spanish
Default : No
Forced : No

Text #3
ID : 11
Format : PGS
Muxing mode : zlib
Codec ID : S_HDMV/PGS
Codec ID/Info : Picture based subtitle format used on BDs/HD-DVDs
Duration : 1 h 41 min
Bit rate : 26.3 kb/s
Count of elements : 2156
Stream size : 19.1 MiB (0%)
Title : French-PGS
Language : French
Default : No
Forced : No

Text #4
ID : 12
Format : PGS
Muxing mode : zlib
Codec ID : S_HDMV/PGS
Codec ID/Info : Picture based subtitle format used on BDs/HD-DVDs
Duration : 1 h 41 min
Bit rate : 1 742 b/s
Count of elements : 135
Stream size : 1.26 MiB (0%)
Title : Spanish-FORCED-PGS
Language : Spanish
Default : No
Forced : No

Text #5
ID : 13
Format : PGS
Muxing mode : zlib
Codec ID : S_HDMV/PGS
Codec ID/Info : Picture based subtitle format used on BDs/HD-DVDs
Duration : 1 h 41 min
Bit rate : 2 079 b/s
Count of elements : 170
Stream size : 1.51 MiB (0%)
Title : French-FORCED-PGS
Language : French
Default : No
Forced : No

Menu
00:00:00.000 : :Chapter 1
00:04:24.764 : :Chapter 2
00:10:07.356 : :Chapter 3
00:16:09.927 : :Chapter 4
00:21:12.604 : :Chapter 5
00:25:34.991 : :Chapter 6
00:30:11.726 : :Chapter 7
00:35:23.913 : :Chapter 8
00:40:07.113 : :Chapter 9
00:47:18.961 : :Chapter 10
00:52:10.252 : :Chapter 11
00:58:16.784 : :Chapter 12
01:02:02.969 : :Chapter 13
01:05:29.634 : :Chapter 14
01:09:59.403 : :Chapter 15
01:14:31.425 : :Chapter 16
01:17:18.258 : :Chapter 17
01:23:33.341 : :Chapter 18
01:27:46.219 : :Chapter 19
01:32:54.569 : :Chapter 20
movie BDRip Video
ID : 1
Format : HEVC
Format/Info : High Efficiency Video Coding
Commercial name : HDR10
Format profile : Main 10@L5.1@High
Codec ID : V_MPEGH/ISO/HEVC
Duration : 1 h 42 min
Bit rate : 17.9 Mb/s
Width : 3 840 pixels
Height : 1 600 pixels
Display aspect ratio : 2.40:1
Frame rate mode : Constant
Frame rate : 23.976 (24000/1001) FPS
Color space : YUV
Chroma subsampling : 4:2:0 (Type 2)
Bit depth : 10 bits
Bits/(Pixel*Frame) : 0.121
Stream size : 12.8 GiB (83%)
Writing library : x265 2.8+10-703eade86b53:[Windows][MSVC 1914][64 bit] 10bit
Encoding settings : cpuid=1111039 / frame-threads=4 / numa-pools=20 / wpp / no-pmode / no-pme / no-psnr / no-ssim / log-level=2 / input-csp=1 / input-res=3840x1600 / interlace=0 / total-frames=147319 / level-idc=51 / high-tier=1 / uhd-bd=0 / ref=4 / no-allow-non-conformance / repeat-headers / annexb / aud / hrd / info / hash=0 / no-temporal-layers / no-open-gop / min-keyint=1 / keyint=24 / gop-lookahead=0 / bframes=4 / b-adapt=2 / b-pyramid / bframe-bias=0 / rc-lookahead=25 / lookahead-slices=4 / scenecut=40 / radl=0 / no-intra-refresh / ctu=64 / min-cu-size=8 / rect / no-amp / max-tu-size=32 / tu-inter-depth=1 / tu-intra-depth=1 / limit-tu=0 / rdoq-level=2 / dynamic-rd=0.00 / no-ssim-rd / signhide / no-tskip / nr-intra=0 / nr-inter=0 / no-constrained-intra / no-strong-intra-smoothing / max-merge=3 / limit-refs=3 / limit-modes / me=3 / subme=3 / merange=57 / temporal-mvp / weightp / no-weightb / no-analyze-src-pics / deblock=-3:-3 / no-sao / no-sao-non-deblock / rd=4 / no-early-skip / rskip / no-fast-intra / no-tskip-fast / no-cu-lossless / no-b-intra / no-splitrd-skip / rdpenalty=0 / psy-rd=2.00 / psy-rdoq=1.00 / no-rd-refine / no-lossless / cbqpoffs=0 / crqpoffs=0 / rc=crf / crf=17.0 / qcomp=0.60 / qpstep=4 / stats-write=0 / stats-read=0 / vbv-maxrate=160000 / vbv-bufsize=160000 / vbv-init=0.9 / crf-max=0.0 / crf-min=0.0 / ipratio=1.40 / pbratio=1.30 / aq-mode=1 / aq-strength=1.00 / cutree / zone-count=0 / no-strict-cbr / qg-size=32 / no-rc-grain / qpmax=69 / qpmin=0 / no-const-vbv / sar=1 / overscan=0 / videoformat=5 / range=0 / colorprim=9 / transfer=16 / colormatrix=9 / chromaloc=1 / chromaloc-top=2 / chromaloc-bottom=2 / display-window=0 / master-display=G(13250,34500)B(7500,3000)R(34000,16000)WP(15635,16450)L(10000000,50) / max-cll=1000,986 / min-luma=0 / max-luma=1023 / log2-max-poc-lsb=8 / vui-timing-info / vui-hrd-info / slices=1 / no-opt-qp-pps / no-opt-ref-list-length-pps / no-multi-pass-opt-rps / scenecut-bias=0.05 / no-opt-cu-delta-qp / no-aq-motion / hdr / hdr-opt / no-dhdr10-opt / no-idr-recovery-sei / analysis-reuse-level=5 / scale-factor=0 / refine-intra=0 / refine-inter=0 / refine-mv=0 / no-limit-sao / ctu-info=0 / no-lowpass-dct / refine-mv-type=0 / copy-pic=1 / max-ausize-factor=1.0 / no-dynamic-refine / no-single-sei
Default : Yes
Forced : No
Color range : Limited
Color primaries : BT.2020
Transfer characteristics : PQ
Matrix coefficients : BT.2020 non-constant
Mastering display color primaries : Display P3
Mastering display luminance : min: 0.0050 cd/m2, max: 1000 cd/m2
Maximum Content Light Level : 1000 cd/m2
Maximum Frame-Average Light Level : 986 cd/m2

Audio #1
ID : 2
Format : MLP FBA 16-ch
Format/Info : Meridian Lossless Packing FBA with 16-channel presentation
Commercial name : Dolby TrueHD with Dolby Atmos
Codec ID : A_TRUEHD
Duration : 1 h 42 min
Bit rate mode : Variable
Bit rate : 2 836 kb/s
Maximum bit rate : 5 022 kb/s
Channel(s) : 8 channels
Channel layout : L R C LFE Ls Rs Lb Rb
Sampling rate : 48.0 kHz
Frame rate : 1 200.000 FPS (40 SPF)
Compression mode : Lossless
Stream size : 2.03 GiB (13%)
Language : English
Default : Yes
Forced : No
Number of dynamic objects : 11
Bed channel count : 1 channel
Bed channel configuration : LFE

Audio #2
ID : 3
Format : AC-3
Format/Info : Audio Coding 3
Commercial name : Dolby Digital
Codec ID : A_AC3
Duration : 1 h 42 min
Bit rate mode : Constant
Bit rate : 448 kb/s
Channel(s) : 6 channels
Channel layout : L R C LFE Ls Rs
Sampling rate : 48.0 kHz
Frame rate : 31.250 FPS (1536 SPF)
Bit depth : 16 bits
Compression mode : Lossy
Stream size : 328 MiB (2%)
Language : English
Service kind : Complete Main
Default : No
Forced : No

Audio #3
ID : 4
Format : AC-3
Format/Info : Audio Coding 3
Commercial name : Dolby Digital
Codec ID : A_AC3
Duration : 1 h 42 min
Bit rate mode : Constant
Bit rate : 192 kb/s
Channel(s) : 2 channels
Channel layout : L R
Sampling rate : 48.0 kHz
Frame rate : 31.250 FPS (1536 SPF)
Bit depth : 16 bits
Compression mode : Lossy
Stream size : 141 MiB (1%)
Title : Commentary
Language : English
Service kind : Complete Main
Default : No
Forced : No

Text #1
ID : 5
Format : PGS
Muxing mode : zlib
Codec ID : S_HDMV/PGS
Codec ID/Info : Picture based subtitle format used on BDs/HD-DVDs
Duration : 1 h 32 min
Bit rate : 38.5 kb/s
Count of elements : 2648
Stream size : 25.4 MiB (0%)
Language : English
Default : No
Forced : No

Text #2
ID : 6
Format : PGS
Muxing mode : zlib
Codec ID : S_HDMV/PGS
Codec ID/Info : Picture based subtitle format used on BDs/HD-DVDs
Duration : 1 h 41 min
Bit rate : 24.9 kb/s
Count of elements : 2238
Stream size : 18.1 MiB (0%)
Language : Spanish
Default : No
Forced : No

Text #3
ID : 7
Format : PGS
Muxing mode : zlib
Codec ID : S_HDMV/PGS
Codec ID/Info : Picture based subtitle format used on BDs/HD-DVDs
Duration : 1 h 41 min
Bit rate : 26.3 kb/s
Count of elements : 2156
Stream size : 19.1 MiB (0%)
Language : French
Default : No
Forced : No

Menu
00:00:00.000 : :00:00:00.000
00:04:24.764 : :00:04:24.764
00:10:07.357 : :00:10:07.357
00:16:09.927 : :00:16:09.927
00:21:12.605 : :00:21:12.605
00:25:34.992 : :00:25:34.992
00:30:11.727 : :00:30:11.727
00:35:23.913 : :00:35:23.913
00:40:07.113 : :00:40:07.113
00:47:18.961 : :00:47:18.961
00:52:10.252 : :00:52:10.252
00:58:16.785 : :00:58:16.785
01:02:02.969 : :01:02:02.969
01:05:29.634 : :01:05:29.634
01:09:59.404 : :01:09:59.404
01:14:31.425 : :01:14:31.425
01:17:18.259 : :01:17:18.259
01:23:33.342 : :01:23:33.342
01:27:46.219 : :01:27:46.219
01:32:54.569 : :01:32:54.569

Download

download 4k hdr movies download 4k hdr movies

Watch a movie trailer - Skyscraper 4K 2018 Ultra HD 2160p
Comments and Feedback
Add your comment:
Your name:
Your E-Mail:
Code:
reload, if the code cannot be seen
Enter code: