Select movie Search movie Close search My Account

The Martian 4K 2015 Ultra HD 2160p

The Martian 4K 2015 Ultra HD 2160p
BDRemux / BDRip
Country: USA | United Kingdom
Time: 2h 24min
IMDB: 8.0
Director: Ridley Scott
Actors: Matt Damon, Jessica Chastain, Chiwetel Ejiofor, Kristen Wiig, Jeff Daniels, Michael Pea, Sean Bean, Kate Mara, Sebastian Stan, Aksel Hennie.

Story Movie

An astronaut becomes stranded on Mars after his team assume him dead, and must rely on his ingenuity to find a way to signal to Earth that he is alive.

During a manned mission to Mars, Astronaut Mark Watney is presumed dead after a fierce storm and left behind by his crew. But Watney has survived and finds himself stranded and alone on the hostile planet. With only meager supplies, he must draw upon his ingenuity, wit and spirit to subsist and find a way to signal to Earth that he is alive. Millions of miles away, NASA and a team of international scientists work tirelessly to bring "the Martian" home, while his crewmates concurrently plot a daring, if not impossible, rescue mission. As these stories of incredible bravery unfold, the world comes together to root for Watney's safe return.

Review 4K Movie

I read some of the reviews and decided to review this title myself. That's because I'd like you not to miss this lovely movie.

It got some very bad criticism (Reviews&Ratings first page hosts at least 4 reviewers rating this title '1', lowest possible value on IMDb), most of which deals with Physics laws bended to screenwriter's desire.

Well I just want to reassure you that even though I am among the nerdiest guys on the Internet, I didn't get annoyed from what I saw. Not once. And if you weren't annoyed by Tom Hanks and his boys killing almost an entire German Division before giving up in 'Save Private Ryan' you won't be annoyed too.

It's a movie, not a documentary. And it's a great movie, a classic by all means.

Mediainfo

movie BDRemux Video
ID : 1
Format : HEVC
Format/Info : High Efficiency Video Coding
Format profile : Main 10@L5.1@High
Codec ID : V_MPEGH/ISO/HEVC
Duration : 2 h 31 min
Width : 3 840 pixels
Height : 2 160 pixels
Display aspect ratio : 16:9
Frame rate mode : Constant
Frame rate : 23.976 (24000/1001) FPS
Color space : YUV
Chroma subsampling : 4:2:0 (Type 2)
Bit depth : 10 bits
Title : The.Martian.2015.EXTENDED.2160p.BluRay.REMUX.HEVC.DTS-HD.MA.TrueHD.7.1.Atmos-FGT
Writing library : ATEME Titan KFE 3.7.3 (4.7.3.1003)
Default : Yes
Forced : No
Color range : Limited
Color primaries : BT.2020
Transfer characteristics : SMPTE ST 2084
Matrix coefficients : BT.2020 non-constant
Mastering display color primaries : R: x=0.680000 y=0.320000, G: x=0.265000 y=0.690000, B: x=0.150000 y=0.060000, White point: x=0.312700 y=0.329000
Mastering display luminance : min: 0.0000 cd/m2, max: 1000.0000 cd/m2

Audio #1
ID : 2
Format : TrueHD
Format profile : TrueHD+Atmos / TrueHD
Codec ID : A_TRUEHD
Bit rate mode : Variable
Maximum bit rate : 5 997 kb/s
Channel(s) : Object Based / 8 channels
Channel positions : Object Based / Front: L C R, Side: L R, Back: L R, LFE
Sampling rate : / 48.0 kHz
Frame rate : 1 200.000 FPS (40 spf)
Compression mode : Lossless
Delay relative to video : 32 ms
Title : The.Martian.2015.EXTENDED.2160p.BluRay.REMUX.HEVC.DTS-HD.MA.TrueHD.7.1.Atmos-FGT
Language : English
Default : Yes
Forced : No

Audio #2
ID : 3
Format : DTS
Format/Info : Digital Theater Systems
Format profile : MA / Core
Mode : 16
Format settings, Endianness : Big
Codec ID : A_DTS
Duration : 2 h 31 min
Bit rate mode : Variable / Constant
Bit rate : Unknown / 1 509 kb/s
Channel(s) : 8 channels / 6 channels
Channel positions : Front: L C R, Side: L R, Back: L R, LFE / Front: L C R, Side: L R, LFE
Sampling rate : 48.0 kHz
Frame rate : 93.750 FPS (512 spf)
Bit depth : 24 bits
Compression mode : Lossless / Lossy
Title : The.Martian.2015.EXTENDED.2160p.BluRay.REMUX.HEVC.DTS-HD.MA.TrueHD.7.1.Atmos-FGT
Language : English
Default : No
Forced : No

Audio #3
ID : 4
Format : AC-3
Format/Info : Audio Coding 3
Format settings, Endianness : Big
Codec ID : A_AC3
Duration : 2 h 31 min
Bit rate mode : Constant
Bit rate : 640 kb/s
Channel(s) : 6 channels
Channel positions : Front: L C R, Side: L R, LFE
Sampling rate : 48.0 kHz
Frame rate : 31.250 FPS (1536 spf)
Bit depth : 16 bits
Compression mode : Lossy
Delay relative to video : 31 ms
Stream size : 693 MiB (1%)
Title : The.Martian.2015.EXTENDED.2160p.BluRay.REMUX.HEVC.DTS-HD.MA.TrueHD.7.1.Atmos-FGT
Language : English
Service kind : Complete Main
Default : No
Forced : No

Audio #4
ID : 5
Format : AC-3
Format/Info : Audio Coding 3
Format settings, Endianness : Big
Codec ID : A_AC3
Duration : 2 h 31 min
Bit rate mode : Constant
Bit rate : 448 kb/s
Channel(s) : 6 channels
Channel positions : Front: L C R, Side: L R, LFE
Sampling rate : 48.0 kHz
Frame rate : 31.250 FPS (1536 spf)
Bit depth : 16 bits
Compression mode : Lossy
Stream size : 485 MiB (1%)
Title : The.Martian.2015.EXTENDED.2160p.BluRay.REMUX.HEVC.DTS-HD.MA.TrueHD.7.1.Atmos-FGT
Language : English
Service kind : Complete Main
Default : No
Forced : No

Audio #5
ID : 6
Format : AC-3
Format/Info : Audio Coding 3
Format settings, Endianness : Big
Codec ID : A_AC3
Duration : 2 h 31 min
Bit rate mode : Constant
Bit rate : 448 kb/s
Channel(s) : 6 channels
Channel positions : Front: L C R, Side: L R, LFE
Sampling rate : 48.0 kHz
Frame rate : 31.250 FPS (1536 spf)
Bit depth : 16 bits
Compression mode : Lossy
Stream size : 485 MiB (1%)
Title : The.Martian.2015.EXTENDED.2160p.BluRay.REMUX.HEVC.DTS-HD.MA.TrueHD.7.1.Atmos-FGT
Language : Spanish
Service kind : Complete Main
Default : No
Forced : No

Audio #6
ID : 7
Format : AC-3
Format/Info : Audio Coding 3
Format settings, Endianness : Big
Codec ID : A_AC3
Duration : 2 h 31 min
Bit rate mode : Constant
Bit rate : 448 kb/s
Channel(s) : 6 channels
Channel positions : Front: L C R, Side: L R, LFE
Sampling rate : 48.0 kHz
Frame rate : 31.250 FPS (1536 spf)
Bit depth : 16 bits
Compression mode : Lossy
Stream size : 485 MiB (1%)
Title : The.Martian.2015.EXTENDED.2160p.BluRay.REMUX.HEVC.DTS-HD.MA.TrueHD.7.1.Atmos-FGT
Language : French
Service kind : Complete Main
Default : No
Forced : No

Audio #7
ID : 8
Format : AC-3
Format/Info : Audio Coding 3
Format settings, Endianness : Big
Codec ID : A_AC3
Duration : 2 h 31 min
Bit rate mode : Constant
Bit rate : 224 kb/s
Channel(s) : 2 channels
Channel positions : Front: L R
Sampling rate : 48.0 kHz
Frame rate : 31.250 FPS (1536 spf)
Bit depth : 16 bits
Compression mode : Lossy
Stream size : 242 MiB (0%)
Title : The.Martian.2015.EXTENDED.2160p.BluRay.REMUX.HEVC.DTS-HD.MA.TrueHD.7.1.Atmos-FGT
Language : English
Service kind : Complete Main
Default : No
Forced : No

Audio #8
ID : 9
Format : AC-3
Format/Info : Audio Coding 3
Format settings, Endianness : Big
Codec ID : A_AC3
Duration : 2 h 31 min
Bit rate mode : Constant
Bit rate : 224 kb/s
Channel(s) : 2 channels
Channel positions : Front: L R
Sampling rate : 48.0 kHz
Frame rate : 31.250 FPS (1536 spf)
Bit depth : 16 bits
Compression mode : Lossy
Stream size : 242 MiB (0%)
Title : The.Martian.2015.EXTENDED.2160p.BluRay.REMUX.HEVC.DTS-HD.MA.TrueHD.7.1.Atmos-FGT
Language : English
Service kind : Complete Main
Default : No
Forced : No

Text #1
ID : 10
Format : UTF-8
Codec ID : S_TEXT/UTF8
Codec ID/Info : UTF-8 Plain Text
Title : English-FORCED-SRT
Language : English
Default : Yes
Forced : Yes

Text #2
ID : 11
Format : UTF-8
Codec ID : S_TEXT/UTF8
Codec ID/Info : UTF-8 Plain Text
Title : English-SRT
Language : English
Default : No
Forced : No

Text #3
ID : 12
Format : PGS
Muxing mode : zlib
Codec ID : S_HDMV/PGS
Codec ID/Info : Picture based subtitle format used on BDs/HD-DVDs
Title : English-PGS
Language : English
Default : No
Forced : No

Text #4
ID : 13
Format : PGS
Muxing mode : zlib
Codec ID : S_HDMV/PGS
Codec ID/Info : Picture based subtitle format used on BDs/HD-DVDs
Title : Spanish-PGS
Language : Spanish
Default : No
Forced : No

Text #5
ID : 14
Format : PGS
Muxing mode : zlib
Codec ID : S_HDMV/PGS
Codec ID/Info : Picture based subtitle format used on BDs/HD-DVDs
Title : French-PGS
Language : French
Default : No
Forced : No

Text #6
ID : 15
Format : PGS
Muxing mode : zlib
Codec ID : S_HDMV/PGS
Codec ID/Info : Picture based subtitle format used on BDs/HD-DVDs
Title : English-COMMENTARY-PGS
Language : English
Default : No
Forced : No

Text #7
ID : 16
Format : PGS
Muxing mode : zlib
Codec ID : S_HDMV/PGS
Codec ID/Info : Picture based subtitle format used on BDs/HD-DVDs
Title : Spanish-COMMENTARY-PGS
Language : Spanish
Default : No
Forced : No

Text #8
ID : 17
Format : PGS
Muxing mode : zlib
Codec ID : S_HDMV/PGS
Codec ID/Info : Picture based subtitle format used on BDs/HD-DVDs
Title : French-COMMENTARY-PGS
Language : French
Default : No
Forced : No

Text #9
ID : 18
Format : PGS
Muxing mode : zlib
Codec ID : S_HDMV/PGS
Codec ID/Info : Picture based subtitle format used on BDs/HD-DVDs
Title : English-FORCED-PGS
Language : English
Default : No
Forced : No

Menu
00:00:00.000 : en:Chapter 1
00:03:22.285 : en:Chapter 2
00:10:15.156 : en:Chapter 3
00:15:24.590 : en:Chapter 4
00:18:25.187 : en:Chapter 5
00:21:58.817 : en:Chapter 6
00:24:52.532 : en:Chapter 7
00:29:17.130 : en:Chapter 8
00:32:01.085 : en:Chapter 9
00:34:45.541 : en:Chapter 10
00:40:08.155 : en:Chapter 11
00:42:48.315 : en:Chapter 12
00:47:50.075 : en:Chapter 13
00:51:12.736 : en:Chapter 14
00:58:03.396 : en:Chapter 15
01:01:41.614 : en:Chapter 16
01:04:24.944 : en:Chapter 17
01:08:54.254 : en:Chapter 18
01:11:54.101 : en:Chapter 19
01:16:33.505 : en:Chapter 20
01:22:05.503 : en:Chapter 21
01:26:19.715 : en:Chapter 22
01:37:47.653 : en:Chapter 23
01:44:36.478 : en:Chapter 24
01:50:38.381 : en:Chapter 25
01:53:22.670 : en:Chapter 26
01:59:17.566 : en:Chapter 27
02:03:51.006 : en:Chapter 28
02:07:32.352 : en:Chapter 29
02:14:24.723 : en:Chapter 30
02:20:48.397 : en:Chapter 31
02:23:11.832 : en:Chapter 32
movie BDRip Video
ID : 1
Format : HEVC
Format/Info : High Efficiency Video Coding
Format profile : Main 10@L5.1@High
Codec ID : V_MPEGH/ISO/HEVC
Duration : 2 h 21 min
Bit rate : 13.5 Mb/s
Width : 3 840 pixels
Height : 1 600 pixels
Display aspect ratio : 2.40:1
Frame rate mode : Constant
Frame rate : 23.976 (24000/1001) FPS
Color space : YUV
Chroma subsampling : 4:2:0 (Type 2)
Bit depth : 10 bits
Bits/(Pixel*Frame) : 0.091
Stream size : 13.3 GiB (67%)
Writing library : x265 2.5+58-06979c042350:[Windows][GCC 6.2.1][64 bit] 10bit
Encoding settings : cpuid=1173503 / frame-threads=4 / numa-pools=16 / wpp / no-pmode / no-pme / no-psnr / no-ssim / log-level=2 / input-csp=1 / input-res=3840x1600 / interlace=0 / total-frames=203739 / level-idc=51 / high-tier=1 / uhd-bd=0 / ref=4 / no-allow-non-conformance / repeat-headers / annexb / aud / hrd / info / hash=0 / no-temporal-layers / no-open-gop / min-keyint=1 / keyint=24 / bframes=4 / b-adapt=2 / b-pyramid / bframe-bias=0 / rc-lookahead=25 / lookahead-slices=4 / scenecut=40 / no-intra-refresh / ctu=64 / min-cu-size=8 / rect / no-amp / max-tu-size=32 / tu-inter-depth=1 / tu-intra-depth=1 / limit-tu=0 / rdoq-level=2 / dynamic-rd=0.00 / no-ssim-rd / signhide / no-tskip / nr-intra=0 / nr-inter=0 / no-constrained-intra / no-strong-intra-smoothing / max-merge=3 / limit-refs=3 / limit-modes / me=3 / subme=3 / merange=57 / temporal-mvp / weightp / no-weightb / no-analyze-src-pics / deblock=-3:-3 / no-sao / no-sao-non-deblock / rd=4 / no-early-skip / rskip / no-fast-intra / no-tskip-fast / no-cu-lossless / no-b-intra / no-splitrd-skip / rdpenalty=0 / psy-rd=2.00 / psy-rdoq=1.00 / no-rd-refine / analysis-reuse-mode=0 / no-lossless / cbqpoffs=0 / crqpoffs=0 / rc=crf / crf=17.0 / qcomp=0.60 / qpstep=4 / stats-write=0 / stats-read=0 / vbv-maxrate=160000 / vbv-bufsize=160000 / vbv-init=0.9 / crf-max=0.0 / crf-min=0.0 / ipratio=1.40 / pbratio=1.30 / aq-mode=1 / aq-strength=1.00 / cutree / zone-count=0 / no-strict-cbr / qg-size=32 / no-rc-grain / qpmax=69 / qpmin=0 / no-const-vbv / sar=1 / overscan=0 / videoformat=5 / range=0 / colorprim=9 / transfer=16 / colormatrix=9 / chromaloc=1 / chromaloc-top=2 / chromaloc-bottom=2 / display-window=0 / master-display=G(13250,34500)B(7500,3000)R(34000,16000)WP(15635,16450)L(10000000,0) / max-cll=0,0 / min-luma=0 / max-luma=1023 / log2-max-poc-lsb=8 / vui-timing-info / vui-hrd-info / slices=1 / no-opt-qp-pps / no-opt-ref-list-length-pps / no-multi-pass-opt-rps / scenecut-bias=0.05 / no-opt-cu-delta-qp / no-aq-motion / hdr / hdr-opt / no-dhdr10-opt / analysis-reuse-level=5 / scale-factor=0 / refine-intra=0 / refine-inter=0 / refine-mv=0 / no-limit-sao / ctu-info=0 / no-lowpass-dct / refine-mv-type=0 / copy-pic=1
Default : Yes
Forced : No
Color range : Limited
Color primaries : BT.2020
Transfer characteristics : PQ
Matrix coefficients : BT.2020 non-constant
Mastering display color primaries : R: x=0.680000 y=0.320000, G: x=0.265000 y=0.690000, B: x=0.150000 y=0.060000, White point: x=0.312700 y=0.329000
Mastering display luminance : min: 0.0000 cd/m2, max: 1000.0000 cd/m2

Audio #1
ID : 2
Format : TrueHD
Format profile : TrueHD+Atmos / TrueHD
Codec ID : A_TRUEHD
Duration : 2 h 21 min
Bit rate mode : Variable
Bit rate : 5 475 kb/s
Maximum bit rate : 5 997 kb/s
Channel(s) : Object Based / 8 channels
Channel positions : Object Based / Front: L C R, Side: L R, Back: L R, LFE
Sampling rate : / 48.0 kHz
Frame rate : 1 200.000 FPS (40 SPF)
Compression mode : Lossless
Stream size : 5.42 GiB (27%)
Language : English
Default : Yes
Forced : No

Audio #2
ID : 3
Format : AC-3
Format/Info : Audio Coding 3
Codec ID : A_AC3
Duration : 2 h 21 min
Bit rate mode : Constant
Bit rate : 640 kb/s
Channel(s) : 6 channels
Channel positions : Front: L C R, Side: L R, LFE
Sampling rate : 48.0 kHz
Frame rate : 31.250 FPS (1536 SPF)
Bit depth : 16 bits
Compression mode : Lossy
Stream size : 648 MiB (3%)
Language : English
Service kind : Complete Main
Default : No
Forced : No

Audio #3
ID : 4
Format : AC-3
Format/Info : Audio Coding 3
Codec ID : A_AC3
Duration : 2 h 21 min
Bit rate mode : Constant
Bit rate : 224 kb/s
Channel(s) : 2 channels
Channel positions : Front: L R
Sampling rate : 48.0 kHz
Frame rate : 31.250 FPS (1536 SPF)
Bit depth : 16 bits
Compression mode : Lossy
Stream size : 227 MiB (1%)
Title : Commentary with director/producer Ridley Scott, writer Andy Weir, screenwriter/executive producer Drew Goddard
Language : English
Service kind : Complete Main
Default : No
Forced : No

Text #1
ID : 5
Format : PGS
Muxing mode : zlib
Codec ID : S_HDMV/PGS
Codec ID/Info : Picture based subtitle format used on BDs/HD-DVDs
Duration : 1 h 51 min
Bit rate : 206 b/s
Count of elements : 78
Stream size : 169 KiB (0%)
Title : Forced
Language : English
Default : Yes
Forced : No

Text #2
ID : 6
Format : PGS
Muxing mode : zlib
Codec ID : S_HDMV/PGS
Codec ID/Info : Picture based subtitle format used on BDs/HD-DVDs
Duration : 2 h 18 min
Bit rate : 40.6 kb/s
Count of elements : 4294
Stream size : 40.1 MiB (0%)
Title : SDH
Language : English
Default : No
Forced : No

Text #3
ID : 7
Format : PGS
Muxing mode : zlib
Codec ID : S_HDMV/PGS
Codec ID/Info : Picture based subtitle format used on BDs/HD-DVDs
Duration : 2 h 21 min
Bit rate : 32.3 kb/s
Count of elements : 3326
Stream size : 32.6 MiB (0%)
Language : Spanish
Default : No
Forced : No

Text #4
ID : 8
Format : PGS
Muxing mode : zlib
Codec ID : S_HDMV/PGS
Codec ID/Info : Picture based subtitle format used on BDs/HD-DVDs
Duration : 2 h 21 min
Bit rate : 34.7 kb/s
Count of elements : 3466
Stream size : 35.1 MiB (0%)
Language : French
Default : No
Forced : No

Text #5
ID : 9
Format : PGS
Muxing mode : zlib
Codec ID : S_HDMV/PGS
Codec ID/Info : Picture based subtitle format used on BDs/HD-DVDs
Duration : 2 h 17 min
Bit rate : 77.8 kb/s
Count of elements : 5244
Stream size : 76.8 MiB (0%)
Title : Commentary
Language : English
Default : No
Forced : No

Text #6
ID : 10
Format : PGS
Muxing mode : zlib
Codec ID : S_HDMV/PGS
Codec ID/Info : Picture based subtitle format used on BDs/HD-DVDs
Duration : 2 h 21 min
Bit rate : 64.2 kb/s
Count of elements : 5044
Stream size : 64.9 MiB (0%)
Title : Commentary
Language : Spanish
Default : No
Forced : No

Text #7
ID : 11
Format : PGS
Muxing mode : zlib
Codec ID : S_HDMV/PGS
Codec ID/Info : Picture based subtitle format used on BDs/HD-DVDs
Duration : 2 h 21 min
Bit rate : 59.6 kb/s
Count of elements : 5043
Stream size : 60.2 MiB (0%)
Title : Commentary
Language : French
Default : No
Forced : No

Menu
00:00:00.000 : en:00:00:00.000
00:03:22.285 : en:00:03:22.285
00:10:08.983 : en:00:10:08.983
00:15:24.590 : en:00:15:24.590
00:18:25.187 : en:00:18:25.187
00:21:34.376 : en:00:21:34.376
00:24:28.092 : en:00:24:28.092
00:28:52.689 : en:00:28:52.689
00:31:36.645 : en:00:31:36.645
00:34:21.101 : en:00:34:21.101
00:39:13.434 : en:00:39:13.434
00:41:21.771 : en:00:41:21.771
00:46:23.531 : en:00:46:23.531
00:49:25.087 : en:00:49:25.087
00:56:15.747 : en:00:56:15.747
00:59:40.493 : en:00:59:40.493
01:02:23.823 : en:01:02:23.823
01:06:53.134 : en:01:06:53.134
01:09:52.980 : en:01:09:52.980
01:13:51.302 : en:01:13:51.302
01:18:38.255 : en:01:18:38.255
01:22:52.467 : en:01:22:52.467
01:30:41.269 : en:01:30:41.269
01:37:30.094 : en:01:37:30.094
01:43:31.997 : en:01:43:31.997
01:46:16.286 : en:01:46:16.286
01:50:18.737 : en:01:50:18.737
01:54:07.966 : en:01:54:07.966
01:57:49.312 : en:01:57:49.312
02:04:41.682 : en:02:04:41.682
02:11:05.733 : en:02:11:05.733
02:13:28.792 : en:02:13:28.792

Download

download 4k hdr movies

You bought a premium on Takefile. Contact the TakeFile support team, they will increase your traffic up to 512 gb every 48 hours.

download 4k hdr movies

The Martian 4K 2015 Ultra HD 2160p


Watch a movie trailer - The Martian 4K 2015 Ultra HD 2160p
Comments and Feedback
Add your comment:
Your name:
Your E-Mail:
Enter the two words shown in the image: *