Select movie Search movie Close search My Account

Mission: Impossible 4K 1996 Ultra HD 2160p

Mission: Impossible 4K 1996 Ultra HD 2160p
BDRemux / BDRip
Country: USA
Time: 1h 50min
IMDB: 7.1
Director: Brian De Palma
Actors: Tom Cruise, Jon Voight Jon Voi, Henry Czerny, Jean Reno, Ving Rhames, Kristin Scott Thomas, Vanessa Redgrave, Ingeborga Dapkunaite, Valentina Yakunina, Marek Vasut, Nathan Osgood, John McLaughlin, Rolf Saxon, Karel Dobr

Story Movie

Mission: Impossible 4K 1996 Ultra HD 2160p
Film Mission 4k movie download size Impossible UHD begins with aarav in an unpleasant situation, one of the CIA agents himself becomes a suspect. Ethan Hunt understands that he was framed and there is a mole in the organization. From the team of Ethan, several people die, in the death of whom he is suspected. And in order to regain his honorable name in order to avenge the dead friend, he begins his own investigation. Only time is not on his side, and only willpower will help him find a real culprit in the death of his comrades. Download Mission Impossible II 2000 4K movie.

Review 4K Movie

"Mission: Impossible" UHD is a project with a very long history. Not as old as the old-good Bond, of course, but still. The series with the same name pleased viewers as much as eight "Emmy" and three "Golden Globes". Therefore, a remake in the mid-nineties, when the Bond was rolled into some kind of Brosnan's farce, and Jason Bourne still did not smell, is a good idea.

The first director of the franchise was Bryan de Palma, then an experienced and versatile director who knows how to create tension where necessary. Actually, the genre of espionage thriller for Palm was a novelty, so the creation of the first part of the franchise is in some way an experiment.

And, he was a success. "Mission: Impossible" Ultra HD 4k movie download size does not give cloying Bond, does not try to play on the field of seriousness and subconscious intrigue, but simply honestly entertains the traditional for spy movies plot about catching "mole". Brian de Palme, and, to no lesser extent, the actors managed to create a literate film, in which the minimum of action scenes, all leaves in a tense atmosphere, interesting dialogues and Tom Cruise. By the way, he did not become a hostage to the image, that for the actor any of the franchises in general achievement.

Of course, the first part looks silly, especially in the few episodes with the action, and the very fulfillment of this ill-fated mission, but this film with Cruz is still quite watchable, even with interest.

Mediainfo

movie BDRemux D : 1
Format : HEVC
Format/Info : High Efficiency Video Coding
Commercial name : HDR10
Format profile : Main 10@L5.1@High
Codec ID : V_MPEGH/ISO/HEVC
Duration : 1 h 50 min
Bit rate : 56.5 Mb/s
Width : 3 840 pixels
Height : 2 160 pixels
Display aspect ratio : 16:9
Frame rate mode : Constant
Frame rate : 23.976 (24000/1001) FPS
Color space : YUV
Chroma subsampling : 4:2:0 (Type 2)
Bit depth : 10 bits
Bits/(Pixel*Frame) : 0.284
Stream size : 43.5 GiB (79%)
Title : Mission.Impossible.1996.2160p.BluRay.REMUX.HEVC.TrueHD.5.1
Default : Yes
Forced : No
Color range : Limited
Color primaries : BT.2020
Transfer characteristics : PQ
Matrix coefficients : BT.2020 non-constant
Mastering display color primaries : Display P3
Mastering display luminance : min: 0.0001 cd/m2, max: 1000 cd/m2

Video #2
ID : 2
Format : HEVC
Format/Info : High Efficiency Video Coding
Commercial name : HDR10
Format profile : Main 10@L5.1@High
Codec ID : V_MPEGH/ISO/HEVC
Duration : 1 h 50 min
Bit rate : 6 342 kb/s
Width : 1 920 pixels
Height : 1 080 pixels
Display aspect ratio : 16:9
Frame rate mode : Constant
Frame rate : 23.976 (24000/1001) FPS
Color space : YUV
Chroma subsampling : 4:2:0 (Type 2)
Bit depth : 10 bits
Bits/(Pixel*Frame) : 0.128
Stream size : 4.88 GiB (9%)
Title : Mission.Impossible.1996.2160p.BluRay.REMUX.HEVC.TrueHD.5.1
Default : No
Forced : No
Color range : Limited
Color primaries : BT.2020
Transfer characteristics : PQ
Matrix coefficients : BT.2020 non-constant
Mastering display color primaries : Display P3
Mastering display luminance : min: 0.0001 cd/m2, max: 1000 cd/m2

Audio #1
ID : 3
Format : TrueHD
Codec ID : A_TRUEHD
Duration : 1 h 50 min
Bit rate mode : Variable
Bit rate : 3 365 kb/s
Maximum bit rate : 4 890 kb/s
Channel(s) : 6 channels
Channel positions : Front: L C R, Side: L R, LFE
Sampling rate : 48.0 kHz
Frame rate : 1 200.000 FPS (40 SPF)
Compression mode : Lossless
Delay relative to video : 32 ms
Stream size : 2.59 GiB (5%)
Title : Mission.Impossible.1996.2160p.BluRay.REMUX.HEVC.TrueHD.5.1
Language : English
Default : Yes
Forced : No

Audio #2
ID : 4
Format : AC-3
Format/Info : Audio Coding 3
Codec ID : A_AC3
Duration : 1 h 50 min
Bit rate mode : Constant
Bit rate : 640 kb/s
Channel(s) : 6 channels
Channel positions : Front: L C R, Side: L R, LFE
Sampling rate : 48.0 kHz
Frame rate : 31.250 FPS (1536 SPF)
Bit depth : 16 bits
Compression mode : Lossy
Delay relative to video : 31 ms
Stream size : 505 MiB (1%)
Title : Mission.Impossible.1996.2160p.BluRay.REMUX.HEVC.TrueHD.5.1
Language : English
Service kind : Complete Main
Default : No
Forced : No

Audio #3
ID : 5
Format : AC-3
Format/Info : Audio Coding 3
Codec ID : A_AC3
Duration : 1 h 50 min
Bit rate mode : Constant
Bit rate : 640 kb/s
Channel(s) : 6 channels
Channel positions : Front: L C R, Side: L R, LFE
Sampling rate : 48.0 kHz
Frame rate : 31.250 FPS (1536 SPF)
Bit depth : 16 bits
Compression mode : Lossy
Stream size : 505 MiB (1%)
Title : Mission.Impossible.1996.2160p.BluRay.REMUX.HEVC.TrueHD.5.1
Language : English
Service kind : Complete Main
Default : No
Forced : No

Audio #4
ID : 6
Format : AC-3
Format/Info : Audio Coding 3
Codec ID : A_AC3
Duration : 1 h 50 min
Bit rate mode : Constant
Bit rate : 640 kb/s
Channel(s) : 6 channels
Channel positions : Front: L C R, Side: L R, LFE
Sampling rate : 48.0 kHz
Frame rate : 31.250 FPS (1536 SPF)
Bit depth : 16 bits
Compression mode : Lossy
Delay relative to video : 250 ms
Stream size : 505 MiB (1%)
Title : Mission.Impossible.1996.2160p.BluRay.REMUX.HEVC.TrueHD.5.1
Language : German
Service kind : Complete Main
Default : No
Forced : No

Audio #5
ID : 7
Format : AC-3
Format/Info : Audio Coding 3
Codec ID : A_AC3
Duration : 1 h 50 min
Bit rate mode : Constant
Bit rate : 640 kb/s
Channel(s) : 6 channels
Channel positions : Front: L C R, Side: L R, LFE
Sampling rate : 48.0 kHz
Frame rate : 31.250 FPS (1536 SPF)
Bit depth : 16 bits
Compression mode : Lossy
Stream size : 505 MiB (1%)
Title : Mission.Impossible.1996.2160p.BluRay.REMUX.HEVC.TrueHD.5.1
Language : Spanish
Service kind : Complete Main
Default : No
Forced : No

Audio #6
ID : 8
Format : AC-3
Format/Info : Audio Coding 3
Codec ID : A_AC3
Duration : 1 h 50 min
Bit rate mode : Constant
Bit rate : 640 kb/s
Channel(s) : 6 channels
Channel positions : Front: L C R, Side: L R, LFE
Sampling rate : 48.0 kHz
Frame rate : 31.250 FPS (1536 SPF)
Bit depth : 16 bits
Compression mode : Lossy
Delay relative to video : 250 ms
Stream size : 505 MiB (1%)
Title : Mission.Impossible.1996.2160p.BluRay.REMUX.HEVC.TrueHD.5.1
Language : Spanish
Service kind : Complete Main
Default : No
Forced : No

Audio #7
ID : 9
Format : AC-3
Format/Info : Audio Coding 3
Codec ID : A_AC3
Duration : 1 h 50 min
Bit rate mode : Constant
Bit rate : 640 kb/s
Channel(s) : 6 channels
Channel positions : Front: L C R, Side: L R, LFE
Sampling rate : 48.0 kHz
Frame rate : 31.250 FPS (1536 SPF)
Bit depth : 16 bits
Compression mode : Lossy
Stream size : 505 MiB (1%)
Title : Mission.Impossible.1996.2160p.BluRay.REMUX.HEVC.TrueHD.5.1
Language : French
Service kind : Complete Main
Default : No
Forced : No

Audio #8
ID : 10
Format : AC-3
Format/Info : Audio Coding 3
Codec ID : A_AC3
Duration : 1 h 50 min
Bit rate mode : Constant
Bit rate : 640 kb/s
Channel(s) : 6 channels
Channel positions : Front: L C R, Side: L R, LFE
Sampling rate : 48.0 kHz
Frame rate : 31.250 FPS (1536 SPF)
Bit depth : 16 bits
Compression mode : Lossy
Stream size : 505 MiB (1%)
Title : Mission.Impossible.1996.2160p.BluRay.REMUX.HEVC.TrueHD.5.1
Language : Italian
Service kind : Complete Main
Default : No
Forced : No

Audio #9
ID : 11
Format : AC-3
Format/Info : Audio Coding 3
Codec ID : A_AC3
Duration : 1 h 50 min
Bit rate mode : Constant
Bit rate : 640 kb/s
Channel(s) : 6 channels
Channel positions : Front: L C R, Side: L R, LFE
Sampling rate : 48.0 kHz
Frame rate : 31.250 FPS (1536 SPF)
Bit depth : 16 bits
Compression mode : Lossy
Delay relative to video : 250 ms
Stream size : 505 MiB (1%)
Title : Mission.Impossible.1996.2160p.BluRay.REMUX.HEVC.TrueHD.5.1
Language : Japanese
Service kind : Complete Main
Default : No
Forced : No

Audio #10
ID : 12
Format : AC-3
Format/Info : Audio Coding 3
Codec ID : A_AC3
Duration : 1 h 50 min
Bit rate mode : Constant
Bit rate : 224 kb/s
Channel(s) : 2 channels
Channel positions : Front: L R
Sampling rate : 48.0 kHz
Frame rate : 31.250 FPS (1536 SPF)
Bit depth : 16 bits
Compression mode : Lossy
Stream size : 177 MiB (0%)
Title : Mission.Impossible.1996.2160p.BluRay.REMUX.HEVC.TrueHD.5.1
Language : Portuguese
Service kind : Complete Main
Default : No
Forced : No

Text #1
ID : 13
Format : PGS
Muxing mode : zlib
Codec ID : S_HDMV/PGS
Codec ID/Info : Picture based subtitle format used on BDs/HD-DVDs
Duration : 1 h 45 min
Bit rate : 27.6 kb/s
Count of elements : 2206
Stream size : 20.8 MiB (0%)
Title : English-PGS
Language : English
Default : Yes
Forced : No

Text #2
ID : 14
Format : PGS
Muxing mode : zlib
Codec ID : S_HDMV/PGS
Codec ID/Info : Picture based subtitle format used on BDs/HD-DVDs
Duration : 1 h 45 min
Bit rate : 24.5 kb/s
Count of elements : 1904
Stream size : 18.5 MiB (0%)
Title : English-SDH-PGS
Language : English
Default : No
Forced : No

Text #3
ID : 15
Format : PGS
Muxing mode : zlib
Codec ID : S_HDMV/PGS
Codec ID/Info : Picture based subtitle format used on BDs/HD-DVDs
Duration : 1 h 49 min
Bit rate : 19.0 kb/s
Count of elements : 1260
Stream size : 14.9 MiB (0%)
Title : Danish-PGS
Language : Danish
Default : No
Forced : No

Text #4
ID : 16
Format : PGS
Muxing mode : zlib
Codec ID : S_HDMV/PGS
Codec ID/Info : Picture based subtitle format used on BDs/HD-DVDs
Duration : 1 h 45 min
Bit rate : 23.8 kb/s
Count of elements : 2010
Stream size : 18.0 MiB (0%)
Title : German-PGS
Language : German
Default : No
Forced : No

Text #5
ID : 17
Format : PGS
Muxing mode : zlib
Codec ID : S_HDMV/PGS
Codec ID/Info : Picture based subtitle format used on BDs/HD-DVDs
Duration : 1 h 49 min
Bit rate : 19.0 kb/s
Count of elements : 1266
Stream size : 14.9 MiB (0%)
Title : Spanish-PGS
Language : Spanish
Default : No
Forced : No

Text #6
ID : 18
Format : PGS
Muxing mode : zlib
Codec ID : S_HDMV/PGS
Codec ID/Info : Picture based subtitle format used on BDs/HD-DVDs
Duration : 1 h 45 min
Bit rate : 22.3 kb/s
Count of elements : 1826
Stream size : 16.8 MiB (0%)
Title : Spanish-PGS
Language : Spanish
Default : No
Forced : No

Text #7
ID : 19
Format : PGS
Muxing mode : zlib
Codec ID : S_HDMV/PGS
Codec ID/Info : Picture based subtitle format used on BDs/HD-DVDs
Duration : 1 h 49 min
Bit rate : 24.1 kb/s
Count of elements : 2008
Stream size : 18.9 MiB (0%)
Title : French-PGS
Language : French
Default : No
Forced : No

Text #8
ID : 20
Format : PGS
Muxing mode : zlib
Codec ID : S_HDMV/PGS
Codec ID/Info : Picture based subtitle format used on BDs/HD-DVDs
Duration : 1 h 49 min
Bit rate : 20.4 kb/s
Count of elements : 1322
Stream size : 16.0 MiB (0%)
Title : Italian-PGS
Language : Italian
Default : No
Forced : No

Text #9
ID : 21
Format : PGS
Muxing mode : zlib
Codec ID : S_HDMV/PGS
Codec ID/Info : Picture based subtitle format used on BDs/HD-DVDs
Duration : 1 h 45 min
Bit rate : 17.1 kb/s
Count of elements : 1808
Stream size : 12.9 MiB (0%)
Title : Japanese-PGS
Language : Japanese
Default : No
Forced : No

Text #10
ID : 22
Format : PGS
Muxing mode : zlib
Codec ID : S_HDMV/PGS
Codec ID/Info : Picture based subtitle format used on BDs/HD-DVDs
Duration : 1 h 49 min
Bit rate : 17.7 kb/s
Count of elements : 1286
Stream size : 13.9 MiB (0%)
Title : Dutch-PGS
Language : Dutch
Default : No
Forced : No

Text #11
ID : 23
Format : PGS
Muxing mode : zlib
Codec ID : S_HDMV/PGS
Codec ID/Info : Picture based subtitle format used on BDs/HD-DVDs
Duration : 1 h 49 min
Bit rate : 19.5 kb/s
Count of elements : 1244
Stream size : 15.3 MiB (0%)
Title : Norwegian-PGS
Language : Norwegian
Default : No
Forced : No

Text #12
ID : 24
Format : PGS
Muxing mode : zlib
Codec ID : S_HDMV/PGS
Codec ID/Info : Picture based subtitle format used on BDs/HD-DVDs
Duration : 1 h 49 min
Bit rate : 20.2 kb/s
Count of elements : 1784
Stream size : 15.9 MiB (0%)
Title : Portuguese-PGS
Language : Portuguese
Default : No
Forced : No

Text #13
ID : 25
Format : PGS
Muxing mode : zlib
Codec ID : S_HDMV/PGS
Codec ID/Info : Picture based subtitle format used on BDs/HD-DVDs
Duration : 1 h 49 min
Bit rate : 17.7 kb/s
Count of elements : 1364
Stream size : 13.9 MiB (0%)
Title : Finnish-PGS
Language : Finnish
Default : No
Forced : No

Text #14
ID : 26
Format : PGS
Muxing mode : zlib
Codec ID : S_HDMV/PGS
Codec ID/Info : Picture based subtitle format used on BDs/HD-DVDs
Duration : 1 h 49 min
Bit rate : 18.4 kb/s
Count of elements : 1144
Stream size : 14.4 MiB (0%)
Title : Swedish-PGS
Language : Swedish
Default : No
Forced : No

Text #15
ID : 27
Format : PGS
Muxing mode : zlib
Codec ID : S_HDMV/PGS
Codec ID/Info : Picture based subtitle format used on BDs/HD-DVDs
Duration : 1 h 31 min
Bit rate : 664 b/s
Count of elements : 92
Stream size : 443 KiB (0%)
Title : Japanese-PGS
Language : Japanese
Default : No
Forced : No

Menu
00:00:00.000 : en:Chapter 1
00:03:01.222 : en:Chapter 2
00:10:44.727 : en:Chapter 3
00:26:43.810 : en:Chapter 4
00:32:21.481 : en:Chapter 5
00:39:50.388 : en:Chapter 6
00:49:39.351 : en:Chapter 7
00:55:45.800 : en:Chapter 8
01:12:25.924 : en:Chapter 9
01:18:34.668 : en:Chapter 10
01:28:14.539 : en:Chapter 11
01:38:06.881 : en:Chapter 12
01:44:02.986 : en:Chapter 13
movie BDRip Video
ID : 1
Format : HEVC
Format/Info : High Efficiency Video Coding
Commercial name : HDR10
Format profile : Main 10@L5.1@High
Codec ID : V_MPEGH/ISO/HEVC
Duration : 1 h 50 min
Width : 3 840 pixels
Height : 1 600 pixels
Display aspect ratio : 2.40:1
Frame rate mode : Constant
Frame rate : 23.976 (24000/1001) FPS
Color space : YUV
Chroma subsampling : 4:2:0 (Type 2)
Bit depth : 10 bits
Writing library : x265 2.8+10-703eade86b53:[Windows][GCC 8.1.0][64 bit] 10bit
Encoding settings : cpuid=1176575 / frame-threads=5 / numa-pools=36 / wpp / no-pmode / no-pme / no-psnr / no-ssim / log-level=2 / input-csp=1 / input-res=3840x1600 / interlace=0 / total-frames=158552 / level-idc=51 / high-tier=1 / uhd-bd=0 / ref=4 / no-allow-non-conformance / repeat-headers / annexb / aud / hrd / info / hash=0 / no-temporal-layers / no-open-gop / min-keyint=24 / keyint=240 / gop-lookahead=0 / bframes=4 / b-adapt=2 / b-pyramid / bframe-bias=0 / rc-lookahead=25 / lookahead-slices=4 / scenecut=40 / radl=0 / no-intra-refresh / ctu=64 / min-cu-size=8 / rect / no-amp / max-tu-size=32 / tu-inter-depth=1 / tu-intra-depth=1 / limit-tu=0 / rdoq-level=2 / dynamic-rd=0.00 / no-ssim-rd / signhide / no-tskip / nr-intra=0 / nr-inter=0 / no-constrained-intra / no-strong-intra-smoothing / max-merge=3 / limit-refs=3 / limit-modes / me=3 / subme=3 / merange=57 / temporal-mvp / weightp / no-weightb / no-analyze-src-pics / deblock=-3:-3 / no-sao / no-sao-non-deblock / rd=4 / no-early-skip / rskip / no-fast-intra / no-tskip-fast / no-cu-lossless / no-b-intra / no-splitrd-skip / rdpenalty=0 / psy-rd=2.00 / psy-rdoq=1.00 / no-rd-refine / no-lossless / cbqpoffs=0 / crqpoffs=0 / rc=crf / crf=19.0 / qcomp=0.60 / qpstep=4 / stats-write=0 / stats-read=0 / vbv-maxrate=160000 / vbv-bufsize=160000 / vbv-init=0.9 / crf-max=0.0 / crf-min=0.0 / ipratio=1.40 / pbratio=1.30 / aq-mode=1 / aq-strength=1.00 / cutree / zone-count=0 / no-strict-cbr / qg-size=32 / no-rc-grain / qpmax=69 / qpmin=0 / no-const-vbv / sar=1 / overscan=0 / videoformat=5 / range=0 / colorprim=9 / transfer=16 / colormatrix=9 / chromaloc=1 / chromaloc-top=2 / chromaloc-bottom=2 / display-window=0 / master-display=G(13250,34500)B(7500,3000)R(34000,16000)WP(15635,16450)L(10000000,1) / max-cll=0,0 / min-luma=0 / max-luma=1023 / log2-max-poc-lsb=8 / vui-timing-info / vui-hrd-info / slices=1 / no-opt-qp-pps / no-opt-ref-list-length-pps / no-multi-pass-opt-rps / scenecut-bias=0.05 / no-opt-cu-delta-qp / no-aq-motion / hdr / hdr-opt / no-dhdr10-opt / no-idr-recovery-sei / analysis-reuse-level=5 / scale-factor=0 / refine-intra=0 / refine-inter=0 / refine-mv=0 / no-limit-sao / ctu-info=0 / no-lowpass-dct / refine-mv-type=0 / copy-pic=1 / max-ausize-factor=1.0 / no-dynamic-refine / no-single-sei
Default : Yes
Forced : No
Color range : Limited
Color primaries : BT.2020
Transfer characteristics : PQ
Matrix coefficients : BT.2020 non-constant
Statistics Tags Issue : no_variable_data 1970-01-01 00:00:00 / no_variable_data 2010-02-22 21:41:29
FromStats_BitRate : 38397044
FromStats_Duration : 01:50:12.940000000
FromStats_FrameCount : 158552
FromStats_StreamSize : 31739668871
Mastering display color primaries : Display P3
Mastering display luminance : min: 0.0001 cd/m2, max: 1000 cd/m2

Audio #1
ID : 2
Format : TrueHD
Codec ID : A_TRUEHD
Duration : 1 h 50 min
Bit rate mode : Variable
Maximum bit rate : 4 890 kb/s
Channel(s) : 6 channels
Channel positions : Front: L C R, Side: L R, LFE
Sampling rate : 48.0 kHz
Frame rate : 1 200.000 FPS (40 SPF)
Compression mode : Lossless
Language : English
Default : Yes
Forced : No
Statistics Tags Issue : no_variable_data 1970-01-01 00:00:00 / no_variable_data 2010-02-22 21:41:29
FromStats_BitRate : 3365310
FromStats_Duration : 01:50:12.941000000
FromStats_FrameCount : 7935529
FromStats_StreamSize : 2781824676

Audio #2
ID : 3
Format : AC-3
Format/Info : Audio Coding 3
Codec ID : A_AC3
Duration : 1 h 50 min
Bit rate mode : Constant
Bit rate : 640 kb/s
Channel(s) : 6 channels
Channel positions : Front: L C R, Side: L R, LFE
Sampling rate : 48.0 kHz
Frame rate : 31.250 FPS (1536 SPF)
Bit depth : 16 bits
Compression mode : Lossy
Stream size : 505 MiB (2%)
Language : English
Service kind : Complete Main
Default : No
Forced : No
Statistics Tags Issue : no_variable_data 1970-01-01 00:00:00 / no_variable_data 2010-02-22 21:41:29
FromStats_BitRate : 640000
FromStats_Duration : 01:50:12.960000000
FromStats_FrameCount : 206655
FromStats_StreamSize : 529036800

Text #1
ID : 4
Format : UTF-8
Codec ID : S_TEXT/UTF8
Codec ID/Info : UTF-8 Plain Text
Title : Forced SRT
Language : English
Default : Yes
Forced : Yes
Statistics Tags Issue : no_variable_data 1970-01-01 00:00:00 / no_variable_data 2010-02-22 21:41:29
FromStats_BitRate : 31
FromStats_Duration : 00:01:30.340000000
FromStats_FrameCount : 20
FromStats_StreamSize : 355

Text #2
ID : 5
Format : PGS
Muxing mode : zlib
Codec ID : S_HDMV/PGS
Codec ID/Info : Picture based subtitle format used on BDs/HD-DVDs
Title : Forced
Language : English
Default : No
Forced : No
Statistics Tags Issue : no_variable_data 1970-01-01 00:00:00 / no_variable_data 2010-02-22 21:41:29
FromStats_BitRate : 19248
FromStats_Duration : 00:01:30.340000000
FromStats_FrameCount : 40
FromStats_StreamSize : 217360

Text #3
ID : 6
Format : UTF-8
Codec ID : S_TEXT/UTF8
Codec ID/Info : UTF-8 Plain Text
Title : Stripped SRT
Language : English
Default : No
Forced : No
Statistics Tags Issue : no_variable_data 1970-01-01 00:00:00 / no_variable_data 2010-02-22 21:41:29
FromStats_BitRate : 41
FromStats_Duration : 01:45:27.279000000
FromStats_FrameCount : 966
FromStats_StreamSize : 32745

Text #4
ID : 7
Format : UTF-8
Codec ID : S_TEXT/UTF8
Codec ID/Info : UTF-8 Plain Text
Title : Full SRT
Language : English
Default : No
Forced : No
Statistics Tags Issue : no_variable_data 1970-01-01 00:00:00 / no_variable_data 2010-02-22 21:41:29
FromStats_BitRate : 41
FromStats_Duration : 01:45:27.279000000
FromStats_FrameCount : 952
FromStats_StreamSize : 32534

Text #5
ID : 8
Format : PGS
Muxing mode : zlib
Codec ID : S_HDMV/PGS
Codec ID/Info : Picture based subtitle format used on BDs/HD-DVDs
Title : Full
Language : English
Default : No
Forced : No
Statistics Tags Issue : no_variable_data 1970-01-01 00:00:00 / no_variable_data 2010-02-22 21:41:29
FromStats_BitRate : 24508
FromStats_Duration : 01:45:27.279000000
FromStats_FrameCount : 1904
FromStats_StreamSize : 19383984

Text #6
ID : 9
Format : UTF-8
Codec ID : S_TEXT/UTF8
Codec ID/Info : UTF-8 Plain Text
Title : SDH SRT
Language : English
Default : No
Forced : No
Statistics Tags Issue : no_variable_data 1970-01-01 00:00:00 / no_variable_data 2010-02-22 21:41:29
FromStats_BitRate : 44
FromStats_Duration : 01:45:28.655000000
FromStats_FrameCount : 1103
FromStats_StreamSize : 35591

Text #7
ID : 10
Format : PGS
Muxing mode : zlib
Codec ID : S_HDMV/PGS
Codec ID/Info : Picture based subtitle format used on BDs/HD-DVDs
Title : SDH
Language : English
Default : No
Forced : No
Statistics Tags Issue : no_variable_data 1970-01-01 00:00:00 / no_variable_data 2010-02-22 21:41:29
FromStats_BitRate : 27601
FromStats_Duration : 01:45:28.656000000
FromStats_FrameCount : 2206
FromStats_StreamSize : 21834771

Text #8
ID : 11
Format : PGS
Muxing mode : zlib
Codec ID : S_HDMV/PGS
Codec ID/Info : Picture based subtitle format used on BDs/HD-DVDs
Language : French
Default : No
Forced : No
Statistics Tags Issue : no_variable_data 1970-01-01 00:00:00 / no_variable_data 2010-02-22 21:41:29
FromStats_BitRate : 24126
FromStats_Duration : 01:49:47.038000000
FromStats_FrameCount : 2008
FromStats_StreamSize : 19865554

Text #9
ID : 12
Format : PGS
Muxing mode : zlib
Codec ID : S_HDMV/PGS
Codec ID/Info : Picture based subtitle format used on BDs/HD-DVDs
Language : Spanish
Default : No
Forced : No
Statistics Tags Issue : no_variable_data 1970-01-01 00:00:00 / no_variable_data 2010-02-22 21:41:29
FromStats_BitRate : 19009
FromStats_Duration : 01:49:47.080000000
FromStats_FrameCount : 1266
FromStats_StreamSize : 15652391

Text #10
ID : 13
Format : PGS
Muxing mode : zlib
Codec ID : S_HDMV/PGS
Codec ID/Info : Picture based subtitle format used on BDs/HD-DVDs
Language : Spanish
Default : No
Forced : No
Statistics Tags Issue : no_variable_data 1970-01-01 00:00:00 / no_variable_data 2010-02-22 21:41:29
FromStats_BitRate : 22286
FromStats_Duration : 01:45:27.613000000
FromStats_FrameCount : 1826
FromStats_StreamSize : 17627154

Text #11
ID : 14
Format : PGS
Muxing mode : zlib
Codec ID : S_HDMV/PGS
Codec ID/Info : Picture based subtitle format used on BDs/HD-DVDs
Language : Portuguese
Default : No
Forced : No
Statistics Tags Issue : no_variable_data 1970-01-01 00:00:00 / no_variable_data 2010-02-22 21:41:29
FromStats_BitRate : 20217
FromStats_Duration : 01:49:47.038000000
FromStats_FrameCount : 1784
FromStats_StreamSize : 16646939

Text #12
ID : 15
Format : PGS
Muxing mode : zlib
Codec ID : S_HDMV/PGS
Codec ID/Info : Picture based subtitle format used on BDs/HD-DVDs
Language : Italian
Default : No
Forced : No
Statistics Tags Issue : no_variable_data 1970-01-01 00:00:00 / no_variable_data 2010-02-22 21:41:29
FromStats_BitRate : 20358
FromStats_Duration : 01:49:47.080000000
FromStats_FrameCount : 1322
FromStats_StreamSize : 16763142

Text #13
ID : 16
Format : PGS
Muxing mode : zlib
Codec ID : S_HDMV/PGS
Codec ID/Info : Picture based subtitle format used on BDs/HD-DVDs
Language : German
Default : No
Forced : No
Statistics Tags Issue : no_variable_data 1970-01-01 00:00:00 / no_variable_data 2010-02-22 21:41:29
FromStats_BitRate : 23827
FromStats_Duration : 01:45:27.654000000
FromStats_FrameCount : 2010
FromStats_StreamSize : 18846906

Text #14
ID : 17
Format : PGS
Muxing mode : zlib
Codec ID : S_HDMV/PGS
Codec ID/Info : Picture based subtitle format used on BDs/HD-DVDs
Language : Dutch
Default : No
Forced : No
Statistics Tags Issue : no_variable_data 1970-01-01 00:00:00 / no_variable_data 2010-02-22 21:41:29
FromStats_BitRate : 17719
FromStats_Duration : 01:49:47.080000000
FromStats_FrameCount : 1286
FromStats_StreamSize : 14589661

Text #15
ID : 18
Format : PGS
Muxing mode : zlib
Codec ID : S_HDMV/PGS
Codec ID/Info : Picture based subtitle format used on BDs/HD-DVDs
Language : Swedish
Default : No
Forced : No
Statistics Tags Issue : no_variable_data 1970-01-01 00:00:00 / no_variable_data 2010-02-22 21:41:29
FromStats_BitRate : 18368
FromStats_Duration : 01:49:47.080000000
FromStats_FrameCount : 1144
FromStats_StreamSize : 15124528

Text #16
ID : 19
Format : PGS
Muxing mode : zlib
Codec ID : S_HDMV/PGS
Codec ID/Info : Picture based subtitle format used on BDs/HD-DVDs
Language : Norwegian
Default : No
Forced : No
Statistics Tags Issue : no_variable_data 1970-01-01 00:00:00 / no_variable_data 2010-02-22 21:41:29
FromStats_BitRate : 19472
FromStats_Duration : 01:49:46.997000000
FromStats_FrameCount : 1244
FromStats_StreamSize : 16033432

Text #17
ID : 20
Format : PGS
Muxing mode : zlib
Codec ID : S_HDMV/PGS
Codec ID/Info : Picture based subtitle format used on BDs/HD-DVDs
Language : Danish
Default : No
Forced : No
Statistics Tags Issue : no_variable_data 1970-01-01 00:00:00 / no_variable_data 2010-02-22 21:41:29
FromStats_BitRate : 19029
FromStats_Duration : 01:49:47.080000000
FromStats_FrameCount : 1260
FromStats_StreamSize : 15668371

Text #18
ID : 21
Format : PGS
Muxing mode : zlib
Codec ID : S_HDMV/PGS
Codec ID/Info : Picture based subtitle format used on BDs/HD-DVDs
Language : Finnish
Default : No
Forced : No
Statistics Tags Issue : no_variable_data 1970-01-01 00:00:00 / no_variable_data 2010-02-22 21:41:29
FromStats_BitRate : 17693
FromStats_Duration : 01:49:50.959000000
FromStats_FrameCount : 1364
FromStats_StreamSize : 14577174

Text #19
ID : 22
Format : PGS
Muxing mode : zlib
Codec ID : S_HDMV/PGS
Codec ID/Info : Picture based subtitle format used on BDs/HD-DVDs
Language : Japanese
Default : No
Forced : No
Statistics Tags Issue : no_variable_data 1970-01-01 00:00:00 / no_variable_data 2010-02-22 21:41:29
FromStats_BitRate : 17089
FromStats_Duration : 01:45:31.909000000
FromStats_FrameCount : 1808
FromStats_StreamSize : 13526221

Menu
00:00:00.000 : en:00:00:00.000
00:03:01.223 : en:00:03:01.223
00:10:44.727 : en:00:10:44.727
00:26:43.811 : en:00:26:43.811
00:32:21.481 : en:00:32:21.481
00:39:50.388 : en:00:39:50.388
00:49:39.351 : en:00:49:39.351
00:55:45.801 : en:00:55:45.801
01:12:25.925 : en:01:12:25.925
01:18:34.668 : en:01:18:34.668
01:28:14.539 : en:01:28:14.539
01:38:06.881 : en:01:38:06.881
01:44:02.987 : en:01:44:02.987

Download

download 4k hdr movies download 4k hdr movies

Watch a movie trailer - Mission: Impossible 4K 1996 Ultra HD 2160p
Comments and Feedback
  1. - 0 +
    Jimm  пишет:
    25 August 2018 12:18
    Thank you! It fantastic 4K movie!
Add your comment:
Your name:
Your E-Mail:
Code:
reload, if the code cannot be seen
Enter code: