Select movie Search movie Close search My Account

Coco 4K 2017 Ultra HD 2160p

Coco 4K 2017 Ultra HD 2160p
BDRemux / BDRip
Country: USA
Time: 1h 45min
IMDB: 8.5
Director: Lee Unkrich, Adrian Molina (co-director)
Actors: Anthony Gonzalez, Gael Garca Bernal, Benjamin Bratt, Alanna Ubach, Renee Victor, Jaime Camil, Alfonso Arau, Herbert Siguenza, Gabriel Iglesias, Lombardo Boyar, Ana Ofelia Murgua, Natalia Cordova-Buckley, Selene Luna, Edward James, Sofa Espinosa.

Story Movie

Coco 4K 2017 Ultra HD 2160p
The movie Coco where can i download 4k movies is about a 12 year old boy who secretly dreams of becoming a singer. But his family is against this and generally negatively relates to music and everything that is associated with it. But this does not stop the guy from dreaming. And one day he finds himself in the world of the dead, where he will communicate with the former famous singer and even be able to make friends with him.

Review 4K Movie

"Coco" UHD - an incredibly touching cartoon, which affects a large number of very important and vital topics.

The narrative unfolds around a boy named Miguel, who has a great passion for music, but lives in a family that does not tolerate it. This is a story about how to overcome difficulties, and how to follow the call of your heart.

Pixar once again created a work that will appeal to both children and adults. The first film will teach you how to love your loved ones and follow your dream, and the second will show that a child in life should have a choice that will not be imposed on him by anyone other than himself. And this is only the tip of the iceberg from the number of topics that somehow "Coco" where can i download 4k movies affects.

Very pleased with the story, which is replete with a lot of bright characters. But what surprised most of all, is that there are unexpected turns in the tape that really surprise, at the expense of which at first glance a pretty classic story fires to the end and really surprises with its scenario work.

"Coco" Ultra HD is simply required to view absolutely everything, regardless of age. Pixar once again proved that they are the best at making really high-quality and filled with a lot of deep thoughts animated works, in which the history is always brought to the fore.

Mediainfo

movie BDRemux
Video
ID : 1
Format : HEVC
Format/Info : High Efficiency Video Coding
Format profile : Main 10@L5.1@High
Codec ID : V_MPEGH/ISO/HEVC
Duration : 1 h 45 min
Bit rate : 46.1 Mb/s
Width : 3 840 pixels
Height : 2 160 pixels
Display aspect ratio : 16:9
Frame rate mode : Constant
Frame rate : 23.976 (23976/1000) FPS
Original frame rate : 23.976 (24000/1001) FPS
Color space : YUV
Chroma subsampling : 4:2:0 (Type 2)
Bit depth : 10 bits
Bits/(Pixel*Frame) : 0.232
Stream size : 33.8 GiB (80%)
Title : Coco.2017.2160p.BluRay.REMUX.HEVC.TrueHD.7.1.Atmos
Writing library : ATEME Titan File 3.8.12 (4.8.12.0)
Default : Yes
Forced : No
Color range : Limited
Color primaries : BT.2020
Transfer characteristics : PQ
Matrix coefficients : BT.2020 non-constant
Mastering display color primaries : Display P3
Mastering display luminance : min: 0.0000 cd/m2, max: 1000 cd/m2

Audio #1
ID : 2
Format : TrueHD
Format profile : TrueHD+Atmos / TrueHD
Codec ID : A_TRUEHD
Duration : 1 h 45 min
Bit rate mode : Variable
Bit rate : 6 433 kb/s
Maximum bit rate : 8 217 kb/s
Channel(s) : Object Based / 8 channels
Channel positions : Object Based / Front: L C R, Side: L R, Back: L R, LFE
Sampling rate : / 48.0 kHz
Frame rate : 1 200.000 FPS (40 SPF)
Compression mode : Lossless
Delay relative to video : 32 ms
Stream size : 4.72 GiB (11%)
Title : Coco.2017.2160p.BluRay.REMUX.HEVC.TrueHD.7.1.Atmos
Language : English
Default : Yes
Forced : No

Audio #2
ID : 3
Format : AC-3
Format/Info : Audio Coding 3
Codec ID : A_AC3
Duration : 1 h 45 min
Bit rate mode : Constant
Bit rate : 640 kb/s
Channel(s) : 6 channels
Channel positions : Front: L C R, Side: L R, LFE
Sampling rate : 48.0 kHz
Frame rate : 31.250 FPS (1536 SPF)
Bit depth : 16 bits
Compression mode : Lossy
Delay relative to video : 31 ms
Stream size : 481 MiB (1%)
Title : Coco.2017.2160p.BluRay.REMUX.HEVC.TrueHD.7.1.Atmos
Language : English
Service kind : Complete Main
Default : No
Forced : No

Audio #3
ID : 4
Format : E-AC-3
Format/Info : Enhanced Audio Coding 3
Codec ID : A_EAC3
Duration : 1 h 45 min
Bit rate mode : Constant
Bit rate : 500 b/s
Channel(s) : 6 channels
Channel positions : Front: L C R, Side: L R, LFE
Sampling rate : 48.0 kHz
Frame rate : 187.500 FPS (256 SPF)
Compression mode : Lossy
Stream size : 769 MiB (2%)
Title : Coco.2017.2160p.BluRay.REMUX.HEVC.TrueHD.7.1.Atmos
Language : English
Service kind : Complete Main
Default : No
Forced : No

Audio #4
ID : 5
Format : AC-3
Format/Info : Audio Coding 3
Codec ID : A_AC3
Duration : 1 h 45 min
Bit rate mode : Constant
Bit rate : 640 kb/s
Channel(s) : 6 channels
Channel positions : Front: L C R, Side: L R, LFE
Sampling rate : 48.0 kHz
Frame rate : 31.250 FPS (1536 SPF)
Bit depth : 16 bits
Compression mode : Lossy
Stream size : 481 MiB (1%)
Title : Coco.2017.2160p.BluRay.REMUX.HEVC.TrueHD.7.1.Atmos
Language : English
Service kind : Complete Main
Default : No
Forced : No

Audio #5
ID : 6
Format : AC-3
Format/Info : Audio Coding 3
Codec ID : A_AC3
Duration : 1 h 45 min
Bit rate mode : Constant
Bit rate : 320 kb/s
Channel(s) : 2 channels
Channel positions : Front: L R
Sampling rate : 48.0 kHz
Frame rate : 31.250 FPS (1536 SPF)
Bit depth : 16 bits
Compression mode : Lossy
Stream size : 240 MiB (1%)
Title : Coco.2017.2160p.BluRay.REMUX.HEVC.TrueHD.7.1.Atmos
Language : English
Service kind : Complete Main
Default : No
Forced : No

Audio #6
ID : 7
Format : AC-3
Format/Info : Audio Coding 3
Codec ID : A_AC3
Duration : 1 h 45 min
Bit rate mode : Constant
Bit rate : 320 kb/s
Channel(s) : 2 channels
Channel positions : Front: L R
Sampling rate : 48.0 kHz
Frame rate : 31.250 FPS (1536 SPF)
Bit depth : 16 bits
Compression mode : Lossy
Stream size : 240 MiB (1%)
Title : Coco.2017.2160p.BluRay.REMUX.HEVC.TrueHD.7.1.Atmos
Language : English
Service kind : Complete Main
Default : No
Forced : No

Audio #7
ID : 8
Format : E-AC-3
Format/Info : Enhanced Audio Coding 3
Codec ID : A_EAC3
Duration : 1 h 45 min
Bit rate mode : Constant
Bit rate : 500 b/s
Channel(s) : 6 channels
Channel positions : Front: L C R, Side: L R, LFE
Sampling rate : 48.0 kHz
Frame rate : 187.500 FPS (256 SPF)
Compression mode : Lossy
Stream size : 769 MiB (2%)
Title : Coco.2017.2160p.BluRay.REMUX.HEVC.TrueHD.7.1.Atmos
Language : French
Service kind : Complete Main
Default : No
Forced : No

Audio #8
ID : 9
Format : E-AC-3
Format/Info : Enhanced Audio Coding 3
Codec ID : A_EAC3
Duration : 1 h 45 min
Bit rate mode : Constant
Bit rate : 500 b/s
Channel(s) : 6 channels
Channel positions : Front: L C R, Side: L R, LFE
Sampling rate : 48.0 kHz
Frame rate : 187.500 FPS (256 SPF)
Compression mode : Lossy
Stream size : 769 MiB (2%)
Title : Coco.2017.2160p.BluRay.REMUX.HEVC.TrueHD.7.1.Atmos
Language : Spanish
Service kind : Complete Main
Default : No
Forced : No

Text #1
ID : 10
Format : PGS
Muxing mode : zlib
Codec ID : S_HDMV/PGS
Codec ID/Info : Picture based subtitle format used on BDs/HD-DVDs
Duration : 1 h 44 min
Bit rate : 44.8 kb/s
Count of elements : 3426
Stream size : 33.4 MiB (0%)
Title : English-PGS
Language : English
Default : Yes
Forced : No

Text #2
ID : 11
Format : PGS
Muxing mode : zlib
Codec ID : S_HDMV/PGS
Codec ID/Info : Picture based subtitle format used on BDs/HD-DVDs
Duration : 1 h 44 min
Bit rate : 36.8 kb/s
Count of elements : 2366
Stream size : 27.5 MiB (0%)
Title : French-PGS
Language : French
Default : No
Forced : No

Text #3
ID : 12
Format : PGS
Muxing mode : zlib
Codec ID : S_HDMV/PGS
Codec ID/Info : Picture based subtitle format used on BDs/HD-DVDs
Duration : 1 h 44 min
Bit rate : 34.9 kb/s
Count of elements : 2242
Stream size : 26.0 MiB (0%)
Title : Spanish-PGS
Language : Spanish
Default : No
Forced : No

Menu
00:00:00.000 : en:Chapter 1
00:06:40.191 : en:Chapter 2
00:08:41.520 : en:Chapter 3
00:11:13.589 : en:Chapter 4
00:14:20.317 : en:Chapter 5
00:17:06.942 : en:Chapter 6
00:18:20.932 : en:Chapter 7
00:22:05.991 : en:Chapter 8
00:24:19.958 : en:Chapter 9
00:27:44.829 : en:Chapter 10
00:29:07.912 : en:Chapter 11
00:32:15.308 : en:Chapter 12
00:35:18.407 : en:Chapter 13
00:41:25.524 : en:Chapter 14
00:47:04.696 : en:Chapter 15
00:50:54.175 : en:Chapter 16
00:54:23.885 : en:Chapter 17
00:56:45.026 : en:Chapter 18
01:01:42.615 : en:Chapter 19
01:03:28.137 : en:Chapter 20
01:08:58.216 : en:Chapter 21
01:15:17.262 : en:Chapter 22
01:18:56.773 : en:Chapter 23
01:21:31.761 : en:Chapter 24
01:24:31.816 : en:Chapter 25
01:28:23.464 : en:Chapter 26
01:33:14.755 : en:Chapter 27
01:36:10.472 : en:Chapter 28
movie BDRip DISC INFO:

Disc Title: Coco.2017.2160p.BluRay.HEVC.TrueHD.7.1.Atmos-WhiteRhino
Disc Size: 66,218,713,261 bytes
Protection: AACS2
BD-Java: Yes
Extras: Ultra HD
BDInfo: 0.5.8.7 (compatible layout created by DVDFab 10.0.7.9)

PLAYLIST REPORT:

Name: 00800.MPLS
Length: 1:45:02.003 (h:m:s.ms)
Size: 48,585,068,544 bytes
Total Bitrate: 61.68 Mbps

VIDEO:

Codec Bitrate Description
----- ------- -----------
MPEG-H HEVC Video 46118 kbps 2160p / 23.976 fps / 16:9 / Main 10 Profile 5.1 High / 4:2:0 / 10 bits / HDR / BT.2020 /

AUDIO:

Codec Language Bitrate Description
----- -------- ------- -----------
Dolby Atmos/TrueHD Audio English 7074 kbps 7.1-Atmos / 48 kHz / 7074 kbps / 24-bit (AC3 Core: 5.1 / 48 kHz / 640 kbps)
Dolby Digital Plus Audio English 1024 kbps 7.1 / 48 kHz / 1024 kbps
Dolby Digital Audio English 640 kbps 5.1 / 48 kHz / 640 kbps
Dolby Digital Audio English 320 kbps 2.0 / 48 kHz / 320 kbps
Dolby Digital Audio English 320 kbps 2.0 / 48 kHz / 320 kbps
Dolby Digital Plus Audio French 1024 kbps 7.1 / 48 kHz / 1024 kbps
Dolby Digital Plus Audio Spanish 1024 kbps 7.1 / 48 kHz / 1024 kbps

SUBTITLES:

Codec Language Bitrate Description
----- -------- ------- -----------
Presentation Graphics English 44.499 kbps
Presentation Graphics French 36.579 kbps
Presentation Graphics Spanish 34.615 kbps

Download

download 4k hdr movies download 4k hdr movies

Watch a movie trailer - Coco 4K 2017 Ultra HD 2160p
Comments and Feedback
Add your comment:
Your name:
Your E-Mail:
Code:
reload, if the code cannot be seen
Enter code: