Select movie Search movie Close search My Account

Jurassic World: Fallen Kingdom 4K 2018 Ultra HD 2160p

Jurassic World: Fallen Kingdom 4K 2018 Ultra HD 2160p
BDRemux / BDRip
Country: USA
Time: 2h 8min
IMDB: 6.4
Director: J.A. Bayona
Actors: Chris Pratt, Bryce Dallas Howard, Rafe Spall, Justice Smith, Daniella Pineda, James Cromwell, Toby Jones, Ted Levine Ted, Jeff Goldblum, BD Wong, Geraldine Chaplin, Isabella Sermon, Robert Emms, Peter Jason, Kevin Layne

Story Movie

Jurassic World: Fallen Kingdom 4K 2018 Ultra HD 2160p
We again enjoy the animals and wildlife plants in the movie Jurassic World Fallen Kingdom 4K download. But this time the director decides to awaken the long-fallen volcano. the eruption of which can erase from the face of the island all that is so carefully guarded by scientists. But what steps they will take and will be able to preserve nature, you can find out when watching the movie.

Review 4K Movie

I believe that "Jurassic World: Fallen Kingdom" should be seen as the continuation of the World, not of Park: let the three park parts for dinosaurs stand on a separate shelf, and the World will soon also receive a continuation in the form of a third part, and I hope the final one. There are several reasons for this.

Let's start with the plot - this film Jurassic World Fallen Kingdom 4K download is a direct continuation of a very decent World of the Jurassic period. But this can hardly be called a full-fledged continuation, since the development of events is minimal, the scenery only changes. Yes, watching the dinosaurs was great, the graphics were beyond praise, but the story holes turned the second part of the World into a kind of patchwork quilt: the action will begin on the island, but no, let's return to the city, back to the island, and back to the mainland it's time. What?

The film turned out to be more cruel and gloomy, rather than adventure and alive. It started with a volcano, ended with a human thirst for profit. And the scene with the most peace-loving herbivorous brachiosaurus really choked with tears and did not let go for long (impressionable people, fasten!), And even then the audience began to understand that no happy ends would make them smile after what they had seen.

Most of the heroes of the previous film, unfortunately, removed, left Claire and Owen, they made a bet. It's only their relations that have been lowered, I suspect a merciless force of erection in this. It is a pity, because the exchange of jokes in this pair was the merit of the first part, and here such humor oh, as was not enough.

Pluses of the film are dinosaurs. I belong to the generation that grew up in the Jurassic Park, Dinosaur Dink, Earth Before Time, and I had every chance of becoming a paleontologist colleague of Ross Geller from Friends. Therefore, films about dinosaurs - one of my favorites even now. I enjoyed watching scenes with lizards and I can not put this film a low score.

I just hope that for the third part of the script writers will write a thoughtful ending of history and at least somehow rehabilitate people: let today's children grow on good films, and more adult topics let them better bypass them for the time being.

Mediainfo

movie BDRemux Video #1
ID : 1
Format : HEVC
Format/Info : High Efficiency Video Coding
Commercial name : HDR10
Format profile : Main 10@L5.1@High
Codec ID : V_MPEGH/ISO/HEVC
Duration : 2 h 8 min
Bit rate : 44.3 Mb/s
Width : 3 840 pixels
Height : 2 160 pixels
Display aspect ratio : 16:9
Frame rate mode : Constant
Frame rate : 23.976 (24000/1001) FPS
Color space : YUV
Chroma subsampling : 4:2:0 (Type 2)
Bit depth : 10 bits
Bits/(Pixel*Frame) : 0.223
Stream size : 39.7 GiB (77%)
Title : Jurassic.World.Fallen.Kingdom.2018.2160p.BluRay.REMUX.HEVC.DTS-X.7.1
Default : Yes
Forced : No
Color range : Limited
Color primaries : BT.2020
Transfer characteristics : PQ
Matrix coefficients : BT.2020 non-constant
Mastering display color primaries : Display P3
Mastering display luminance : min: 0.0001 cd/m2, max: 1000 cd/m2
Maximum Content Light Level : 1000 cd/m2
Maximum Frame-Average Light Level : 153 cd/m2

Video #2
ID : 2
Format : HEVC
Format/Info : High Efficiency Video Coding
Commercial name : HDR10
Format profile : Main 10@L5.1@High
Codec ID : V_MPEGH/ISO/HEVC
Duration : 2 h 8 min
Bit rate : 5 162 kb/s
Width : 1 920 pixels
Height : 1 080 pixels
Display aspect ratio : 16:9
Frame rate mode : Constant
Frame rate : 23.976 (24000/1001) FPS
Color space : YUV
Chroma subsampling : 4:2:0 (Type 2)
Bit depth : 10 bits
Bits/(Pixel*Frame) : 0.104
Stream size : 4.63 GiB (9%)
Title : Jurassic.World.Fallen.Kingdom.2018.2160p.BluRay.REMUX.HEVC.DTS-X.7.1
Default : No
Forced : No
Color range : Limited
Color primaries : BT.2020
Transfer characteristics : PQ
Matrix coefficients : BT.2020 non-constant
Mastering display color primaries : Display P3
Mastering display luminance : min: 0.0001 cd/m2, max: 1000 cd/m2

Audio #1
ID : 3
Format : DTS
Format/Info : Digital Theater Systems
Format profile : X / MA / Core
Codec ID : A_DTS
Duration : 2 h 8 min
Bit rate mode : Variable / Variable / Constant
Bit rate : 4 231 kb/s / 4 231 kb/s / 1 509 kb/s
Channel(s) : Object Based / 8 channels / 6 channels
Channel positions : Object Based / Front: L C R, Side: L R, Back: L R, LFE / Front: L C R, Side: L R, LFE
Sampling rate : / 48.0 kHz / 48.0 kHz
Frame rate : 93.750 FPS (512 SPF)
Bit depth : / 24 bits / 24 bits
Compression mode : / Lossless / Lossy
Stream size : 3.79 GiB (7%)
Title : Jurassic.World.Fallen.Kingdom.2018.2160p.BluRay.REMUX.HEVC.DTS-X.7.1
Language : English
Default : Yes
Forced : No

Audio #2
ID : 4
Format : DTS
Format/Info : Digital Theater Systems
Format profile : HRA / Core
Codec ID : A_DTS
Duration : 2 h 8 min
Bit rate mode : Constant
Bit rate : 2 046 kb/s / 1 509 kb/s
Channel(s) : 8 channels / 6 channels
Channel positions : Front: L C R, Side: L R, Back: L R, LFE / Front: L C R, Side: L R, LFE
Sampling rate : 48.0 kHz
Frame rate : 93.750 FPS (512 SPF)
Bit depth : 24 bits
Compression mode : Lossy
Stream size : 1.83 GiB (4%)
Title : Jurassic.World.Fallen.Kingdom.2018.2160p.BluRay.REMUX.HEVC.DTS-X.7.1
Language : Spanish
Default : No
Forced : No

Audio #3
ID : 5
Format : DTS
Format/Info : Digital Theater Systems
Format profile : HRA / Core
Codec ID : A_DTS
Duration : 2 h 8 min
Bit rate mode : Constant
Bit rate : 2 046 kb/s / 1 509 kb/s
Channel(s) : 8 channels / 6 channels
Channel positions : Front: L C R, Side: L R, Back: L R, LFE / Front: L C R, Side: L R, LFE
Sampling rate : 48.0 kHz
Frame rate : 93.750 FPS (512 SPF)
Bit depth : 24 bits
Compression mode : Lossy
Stream size : 1.83 GiB (4%)
Title : Jurassic.World.Fallen.Kingdom.2018.2160p.BluRay.REMUX.HEVC.DTS-X.7.1
Language : French
Default : No
Forced : No

Text #1
ID : 6
Format : PGS
Muxing mode : zlib
Codec ID : S_HDMV/PGS
Codec ID/Info : Picture based subtitle format used on BDs/HD-DVDs
Duration : 2 h 7 min
Bit rate : 34.7 kb/s
Count of elements : 3540
Stream size : 31.5 MiB (0%)
Title : Engish-PGS
Language : English
Default : Yes
Forced : No

Text #2
ID : 7
Format : PGS
Muxing mode : zlib
Codec ID : S_HDMV/PGS
Codec ID/Info : Picture based subtitle format used on BDs/HD-DVDs
Duration : 2 h 6 min
Bit rate : 25.1 kb/s
Count of elements : 2590
Stream size : 22.7 MiB (0%)
Title : Spanish-PGS
Language : Spanish
Default : No
Forced : No

Text #3
ID : 8
Format : PGS
Muxing mode : zlib
Codec ID : S_HDMV/PGS
Codec ID/Info : Picture based subtitle format used on BDs/HD-DVDs
Duration : 2 h 6 min
Bit rate : 23.6 kb/s
Count of elements : 2592
Stream size : 21.4 MiB (0%)
Title : French-PGS
Language : French
Default : No
Forced : No

Text #4
ID : 9
Format : PGS
Muxing mode : zlib
Codec ID : S_HDMV/PGS
Codec ID/Info : Picture based subtitle format used on BDs/HD-DVDs
Duration : 2 h 6 min
Bit rate : 191 b/s
Count of elements : 20
Stream size : 178 KiB (0%)
Title : Spanish-FORCED-PGS
Language : Spanish
Default : No
Forced : No

Text #5
ID : 10
Format : PGS
Muxing mode : zlib
Codec ID : S_HDMV/PGS
Codec ID/Info : Picture based subtitle format used on BDs/HD-DVDs
Duration : 2 h 6 min
Bit rate : 639 b/s
Count of elements : 60
Stream size : 593 KiB (0%)
Title : French-FORCED-PGS
Language : French
Default : No
Forced : No

Menu
00:00:00.000 : :Chapter 1
00:07:13.224 : :Chapter 2
00:12:01.554 : :Chapter 3
00:17:17.745 : :Chapter 4
00:21:17.192 : :Chapter 5
00:28:49.811 : :Chapter 6
00:35:04.685 : :Chapter 7
00:40:51.574 : :Chapter 8
00:46:32.498 : :Chapter 9
00:52:04.996 : :Chapter 10
01:00:59.197 : :Chapter 11
01:06:50.256 : :Chapter 12
01:11:07.638 : :Chapter 13
01:17:21.094 : :Chapter 14
01:26:55.210 : :Chapter 15
01:33:01.492 : :Chapter 16
01:42:55.878 : :Chapter 17
01:50:01.553 : :Chapter 18
01:54:56.222 : :Chapter 19
01:58:37.985 : :Chapter 20
movie BDRip Video
ID : 1
Format : HEVC
Format/Info : High Efficiency Video Coding
Commercial name : HDR10
Format profile : Main 10@L5.1@High
Codec ID : V_MPEGH/ISO/HEVC
Duration : 2 h 8 min
Bit rate : 6 914 kb/s
Width : 3 840 pixels
Height : 1 608 pixels
Display aspect ratio : 2.40:1
Frame rate mode : Constant
Frame rate : 23.976 (24000/1001) FPS
Color space : YUV
Chroma subsampling : 4:2:0 (Type 2)
Bit depth : 10 bits
Bits/(Pixel*Frame) : 0.047
Stream size : 6.20 GiB (62%)
Writing library : x265 2.8+66-88ee12651e30:[Windows][GCC 6.3.0][64 bit] 10bit
Encoding settings : cpuid=1111039 / frame-threads=4 / numa-pools=20 / wpp / no-pmode / no-pme / no-psnr / no-ssim / log-level=2 / input-csp=1 / input-res=3840x1608 / interlace=0 / total-frames=184560 / level-idc=51 / high-tier=1 / uhd-bd=0 / ref=4 / no-allow-non-conformance / repeat-headers / annexb / aud / hrd / info / hash=0 / no-temporal-layers / no-open-gop / min-keyint=1 / keyint=24 / gop-lookahead=0 / bframes=4 / b-adapt=2 / b-pyramid / bframe-bias=0 / rc-lookahead=25 / lookahead-slices=4 / scenecut=40 / radl=0 / no-intra-refresh / ctu=64 / min-cu-size=8 / rect / no-amp / max-tu-size=32 / tu-inter-depth=1 / tu-intra-depth=1 / limit-tu=0 / rdoq-level=2 / dynamic-rd=0.00 / no-ssim-rd / signhide / no-tskip / nr-intra=0 / nr-inter=0 / no-constrained-intra / no-strong-intra-smoothing / max-merge=3 / limit-refs=3 / limit-modes / me=3 / subme=3 / merange=57 / temporal-mvp / weightp / no-weightb / no-analyze-src-pics / deblock=-3:-3 / no-sao / no-sao-non-deblock / rd=4 / no-early-skip / rskip / no-fast-intra / no-tskip-fast / no-cu-lossless / no-b-intra / no-splitrd-skip / rdpenalty=0 / psy-rd=2.00 / psy-rdoq=1.00 / no-rd-refine / no-lossless / cbqpoffs=0 / crqpoffs=0 / rc=crf / crf=17.0 / qcomp=0.60 / qpstep=4 / stats-write=0 / stats-read=0 / vbv-maxrate=160000 / vbv-bufsize=160000 / vbv-init=0.9 / crf-max=0.0 / crf-min=0.0 / ipratio=1.40 / pbratio=1.30 / aq-mode=1 / aq-strength=1.00 / cutree / zone-count=0 / no-strict-cbr / qg-size=32 / no-rc-grain / qpmax=69 / qpmin=0 / no-const-vbv / sar=1 / overscan=0 / videoformat=5 / range=0 / colorprim=9 / transfer=16 / colormatrix=9 / chromaloc=1 / chromaloc-top=2 / chromaloc-bottom=2 / display-window=0 / master-display=G(13250,34500)B(7500,3000)R(34000,16000)WP(15635,16450)L(10000000,1) / max-cll=1000,153 / min-luma=0 / max-luma=1023 / log2-max-poc-lsb=8 / vui-timing-info / vui-hrd-info / slices=1 / no-opt-qp-pps / no-opt-ref-list-length-pps / no-multi-pass-opt-rps / scenecut-bias=0.05 / no-opt-cu-delta-qp / no-aq-motion / hdr / hdr-opt / no-dhdr10-opt / no-idr-recovery-sei / analysis-reuse-level=5 / scale-factor=0 / refine-intra=0 / refine-inter=0 / refine-mv=0 / no-limit-sao / ctu-info=0 / no-lowpass-dct / refine-mv-type=0 / copy-pic=1 / max-ausize-factor=1.0 / no-dynamic-refine / no-single-sei
Default : Yes
Forced : No
Color range : Limited
Color primaries : BT.2020
Transfer characteristics : PQ
Matrix coefficients : BT.2020 non-constant
Mastering display color primaries : Display P3
Mastering display luminance : min: 0.0001 cd/m2, max: 1000 cd/m2
Maximum Content Light Level : 1000 cd/m2
Maximum Frame-Average Light Level : 153 cd/m2

Audio
ID : 2
Format : DTS
Format/Info : Digital Theater Systems
Format profile : X / MA / Core
Codec ID : A_DTS
Duration : 2 h 8 min
Bit rate mode : Variable / Variable / Constant
Bit rate : 4 231 kb/s / 4 231 kb/s / 1 509 kb/s
Channel(s) : Object Based / 8 channels / 6 channels
Channel positions : Object Based / Front: L C R, Side: L R, Back: L R, LFE / Front: L C R, Side: L R, LFE
Sampling rate : / 48.0 kHz / 48.0 kHz
Frame rate : 93.750 FPS (512 SPF)
Bit depth : / 24 bits / 24 bits
Compression mode : / Lossless / Lossy
Stream size : 3.79 GiB (38%)
Language : English
Default : Yes
Forced : No

Text #1
ID : 3
Format : PGS
Muxing mode : zlib
Codec ID : S_HDMV/PGS
Codec ID/Info : Picture based subtitle format used on BDs/HD-DVDs
Duration : 2 h 7 min
Bit rate : 34.7 kb/s
Count of elements : 3540
Stream size : 31.5 MiB (0%)
Language : English
Default : No
Forced : No

Text #2
ID : 4
Format : PGS
Muxing mode : zlib
Codec ID : S_HDMV/PGS
Codec ID/Info : Picture based subtitle format used on BDs/HD-DVDs
Duration : 2 h 6 min
Bit rate : 25.1 kb/s
Count of elements : 2590
Stream size : 22.7 MiB (0%)
Language : Spanish
Default : No
Forced : No

Text #3
ID : 5
Format : PGS
Muxing mode : zlib
Codec ID : S_HDMV/PGS
Codec ID/Info : Picture based subtitle format used on BDs/HD-DVDs
Duration : 2 h 6 min
Bit rate : 23.6 kb/s
Count of elements : 2592
Stream size : 21.4 MiB (0%)
Language : French
Default : No
Forced : No

Menu
00:00:00.000 : :00:00:00.000
00:07:13.224 : :00:07:13.224
00:12:01.554 : :00:12:01.554
00:17:17.745 : :00:17:17.745
00:21:17.193 : :00:21:17.193
00:28:49.811 : :00:28:49.811
00:35:04.686 : :00:35:04.686
00:40:51.574 : :00:40:51.574
00:46:32.498 : :00:46:32.498
00:52:04.997 : :00:52:04.997
01:00:59.197 : :01:00:59.197
01:06:50.256 : :01:06:50.256
01:11:07.638 : :01:11:07.638
01:17:21.095 : :01:17:21.095
01:26:55.210 : :01:26:55.210
01:33:01.493 : :01:33:01.493
01:42:55.878 : :01:42:55.878
01:50:01.553 : :01:50:01.553
01:54:56.223 : :01:54:56.223
01:58:37.986 : :01:58:37.986

Download

download 4k hdr movies download 4k hdr movies

Watch a movie trailer - Jurassic World: Fallen Kingdom 4K 2018 Ultra HD 2160p
Comments and Feedback
Add your comment:
Your name:
Your E-Mail:
Code:
reload, if the code cannot be seen
Enter code: