Select movie Search movie Close search My Account

Jurassic Park 3 4K 2001 Ultra HD 2160p

Jurassic Park 3 4K 2001 Ultra HD 2160p
BDRemux / BDRip
Country: USA
Time: 1h 32min
IMDB: 5.9
Director: Joe Johnston
Actors: Sam Neill, William H. Macy, T?a Leoni, Alessandro Nivola, Trevor Morgan, Michael Jeter, John Diehl, Bruce A. Young, Laura Dern, Taylor Nichols, Mark Harelik, Julio Oscar, Blake Michael Bryan, Sarah Danielle Madison, Linda Park

Story Movie

Jurassic Park 3 4K 2001 Ultra HD 2160p
Известный палеонтолог решается совершить облет острова, на котором были большие животные из древнего мира. Но уже на самом подлёте их неожиданно атаковал спинозавр. Им приходится приземлиться, но нет возможности вернуться домой. Именно так начинается третья часть фильма Jurassic Park 4K collection movies, и профессор будет вынужден снова изучать динозавров.

Review 4K Movie

Jurassic Park 4K collection movies was shot by Joe Johnson, the second director of the first part of "Park ...", his film was much better than the second part.

If the authors of the second part could not come up with a coherent plot, the authors of the third part did not come up with a bad plot, in order to return to the island with dinosaurs again, it turned out to be distinct, dynamic and not straightforward.

Special effects look better than in the sequel. If in "PYuP2" dinosaurs were like huge rubber toys, then in 3 parts they look like real toothy monsters.

I also liked that the director did not stretch the film for 2 hours, as it was with Spielberg, because watching how dinosaurs chase people 2 hours is tedious, but here the actions happen quite quickly and dynamically, you do not have time to fall asleep.

The only thing that did not like the 3 parts, is that the movie has few secondary characters. Once the dinosaurs have dealt with them, and this happened quite quickly, the dinosaurs just have to run after the main characters and frighten them, but apart from the running around the authors of the trickle came up with several fascinating action scenes. For example, I liked the chic, but not so large, as in Peter Jackson's King Kong, the "gladiator" fight between Tyrannosaurus and Spinoza, looks amazing.

Another small plus of 3 parts is that the authors did not hesitate to show the murders, they occur in front of the viewer, and not somewhere behind the screen, as it was in the second part.

Conclusion: "Jurassic Park 3" Uhd is much better than "Jurassic Park 2" Ultra HD.

Mediainfo

movie BDRemux Video
ID : 1
Format : HEVC
Format/Info : High Efficiency Video Coding
Commercial name : HDR10
Format profile : Main 10@L5.1@High
Codec ID : V_MPEGH/ISO/HEVC
Duration : 1 h 32 min
Bit rate : 73.4 Mb/s
Width : 3 840 pixels
Height : 2 160 pixels
Display aspect ratio : 16:9
Frame rate mode : Constant
Frame rate : 23.976 (24000/1001) FPS
Color space : YUV
Chroma subsampling : 4:2:0 (Type 2)
Bit depth : 10 bits
Bits/(Pixel*Frame) : 0.369
Stream size : 47.2 GiB (89%)
Writing library : ATEME Titan File 3.8.14 (4.8.14.0)
Default : Yes
Forced : No
Color range : Limited
Color primaries : BT.2020
Transfer characteristics : PQ
Matrix coefficients : BT.2020 non-constant
Mastering display color primaries : Display P3
Mastering display luminance : min: 0.0050 cd/m2, max: 1000 cd/m2
Maximum Content Light Level : 915 cd/m2
Maximum Frame-Average Light Level : 70 cd/m2

Audio #1
ID : 2
Format : DTS
Format/Info : Digital Theater Systems
Format profile : X / MA / Core
Codec ID : A_DTS
Duration : 1 h 32 min
Bit rate mode : Variable / Variable / Constant
Bit rate : 5 352 kb/s / 5 352 kb/s / 1 509 kb/s
Channel(s) : Object Based / 8 channels / 6 channels
Channel positions : Object Based / Front: L C R, Side: L R, Back: L R, LFE / Front: L C R, Side: L R, LFE
Sampling rate : / 48.0 kHz / 48.0 kHz
Frame rate : 93.750 FPS (512 SPF)
Bit depth : / 24 bits / 24 bits
Compression mode : / Lossless / Lossy
Stream size : 3.45 GiB (7%)
Language : English
Default : Yes
Forced : No

Audio #2
ID : 3
Format : DTS
Format/Info : Digital Theater Systems
Codec ID : A_DTS
Duration : 1 h 32 min
Bit rate mode : Constant
Bit rate : 768 kb/s
Channel(s) : 6 channels
Channel positions : Front: L C R, Side: L R, LFE
Sampling rate : 48.0 kHz
Frame rate : 93.750 FPS (512 SPF)
Bit depth : 24 bits
Compression mode : Lossy
Stream size : 506 MiB (1%)
Language : French
Default : No
Forced : No

Audio #3
ID : 4
Format : DTS
Format/Info : Digital Theater Systems
Codec ID : A_DTS
Duration : 1 h 32 min
Bit rate mode : Constant
Bit rate : 768 kb/s
Channel(s) : 6 channels
Channel positions : Front: L C R, Side: L R, LFE
Sampling rate : 48.0 kHz
Frame rate : 93.750 FPS (512 SPF)
Bit depth : 24 bits
Compression mode : Lossy
Stream size : 506 MiB (1%)
Language : Russian
Default : No
Forced : No

Audio #4
ID : 5
Format : DTS
Format/Info : Digital Theater Systems
Codec ID : A_DTS
Duration : 1 h 32 min
Bit rate mode : Constant
Bit rate : 768 kb/s
Channel(s) : 6 channels
Channel positions : Front: L C R, Side: L R, LFE
Sampling rate : 48.0 kHz
Frame rate : 93.750 FPS (512 SPF)
Bit depth : 24 bits
Compression mode : Lossy
Stream size : 506 MiB (1%)
Language : Czech
Default : No
Forced : No

Audio #5
ID : 6
Format : DTS
Format/Info : Digital Theater Systems
Codec ID : A_DTS
Duration : 1 h 32 min
Bit rate mode : Constant
Bit rate : 768 kb/s
Channel(s) : 6 channels
Channel positions : Front: L C R, Side: L R, LFE
Sampling rate : 48.0 kHz
Frame rate : 93.750 FPS (512 SPF)
Bit depth : 24 bits
Compression mode : Lossy
Stream size : 506 MiB (1%)
Language : Polish
Default : No
Forced : No

Audio #6
ID : 7
Format : AC-3
Format/Info : Audio Coding 3
Codec ID : A_AC3
Duration : 1 h 32 min
Bit rate mode : Constant
Bit rate : 192 kb/s
Channel(s) : 2 channels
Channel positions : Front: L R
Sampling rate : 48.0 kHz
Frame rate : 31.250 FPS (1536 SPF)
Bit depth : 16 bits
Compression mode : Lossy
Stream size : 127 MiB (0%)
Language : English
Service kind : Complete Main
Default : No
Forced : No

Text #1
ID : 8
Format : PGS
Muxing mode : zlib
Codec ID : S_HDMV/PGS
Codec ID/Info : Picture based subtitle format used on BDs/HD-DVDs
Duration : 1 h 22 min
Bit rate : 29.1 kb/s
Count of elements : 1896
Stream size : 17.2 MiB (0%)
Language : English
Default : Yes
Forced : No

Text #2
ID : 9
Format : PGS
Muxing mode : zlib
Codec ID : S_HDMV/PGS
Codec ID/Info : Picture based subtitle format used on BDs/HD-DVDs
Duration : 1 h 31 min
Bit rate : 19.4 kb/s
Count of elements : 1584
Stream size : 12.7 MiB (0%)
Language : French
Default : No
Forced : No

Text #3
ID : 10
Format : PGS
Muxing mode : zlib
Codec ID : S_HDMV/PGS
Codec ID/Info : Picture based subtitle format used on BDs/HD-DVDs
Duration : 1 h 22 min
Bit rate : 24.7 kb/s
Count of elements : 1512
Stream size : 14.6 MiB (0%)
Language : Dutch
Default : No
Forced : No

Text #4
ID : 11
Format : PGS
Muxing mode : zlib
Codec ID : S_HDMV/PGS
Codec ID/Info : Picture based subtitle format used on BDs/HD-DVDs
Duration : 1 h 22 min
Bit rate : 24.2 kb/s
Count of elements : 1572
Stream size : 14.4 MiB (0%)
Language : Danish
Default : No
Forced : No

Text #5
ID : 12
Format : PGS
Muxing mode : zlib
Codec ID : S_HDMV/PGS
Codec ID/Info : Picture based subtitle format used on BDs/HD-DVDs
Duration : 1 h 22 min
Bit rate : 24.3 kb/s
Count of elements : 1576
Stream size : 14.4 MiB (0%)
Language : Finnish
Default : No
Forced : No

Text #6
ID : 13
Format : PGS
Muxing mode : zlib
Codec ID : S_HDMV/PGS
Codec ID/Info : Picture based subtitle format used on BDs/HD-DVDs
Duration : 1 h 22 min
Bit rate : 23.2 kb/s
Count of elements : 1546
Stream size : 13.8 MiB (0%)
Language : Norwegian
Default : No
Forced : No

Text #7
ID : 14
Format : PGS
Muxing mode : zlib
Codec ID : S_HDMV/PGS
Codec ID/Info : Picture based subtitle format used on BDs/HD-DVDs
Duration : 1 h 22 min
Bit rate : 22.6 kb/s
Count of elements : 1520
Stream size : 13.4 MiB (0%)
Language : Swedish
Default : No
Forced : No

Text #8
ID : 15
Format : PGS
Muxing mode : zlib
Codec ID : S_HDMV/PGS
Codec ID/Info : Picture based subtitle format used on BDs/HD-DVDs
Duration : 1 h 22 min
Bit rate : 22.7 kb/s
Count of elements : 1570
Stream size : 13.4 MiB (0%)
Language : Czech
Default : No
Forced : No

Text #9
ID : 16
Format : PGS
Muxing mode : zlib
Codec ID : S_HDMV/PGS
Codec ID/Info : Picture based subtitle format used on BDs/HD-DVDs
Duration : 1 h 22 min
Bit rate : 24.7 kb/s
Count of elements : 1570
Stream size : 14.6 MiB (0%)
Language : Polish
Default : No
Forced : No

Text #10
ID : 17
Format : PGS
Muxing mode : zlib
Codec ID : S_HDMV/PGS
Codec ID/Info : Picture based subtitle format used on BDs/HD-DVDs
Duration : 1 h 22 min
Bit rate : 19.9 kb/s
Count of elements : 1574
Stream size : 11.8 MiB (0%)
Language : Chinese
Default : No
Forced : No

Text #11
ID : 18
Format : PGS
Muxing mode : zlib
Codec ID : S_HDMV/PGS
Codec ID/Info : Picture based subtitle format used on BDs/HD-DVDs
Duration : 1 h 23 min
Bit rate : 18.9 kb/s
Count of elements : 1580
Stream size : 11.4 MiB (0%)
Language : Chinese
Default : No
Forced : No

Text #12
ID : 19
Format : PGS
Muxing mode : zlib
Codec ID : S_HDMV/PGS
Codec ID/Info : Picture based subtitle format used on BDs/HD-DVDs
Duration : 1 h 31 min
Bit rate : 15.4 kb/s
Count of elements : 1574
Stream size : 10.1 MiB (0%)
Language : Korean
Default : No
Forced : No

Text #13
ID : 20
Format : PGS
Muxing mode : zlib
Codec ID : S_HDMV/PGS
Codec ID/Info : Picture based subtitle format used on BDs/HD-DVDs
Duration : 1 h 22 min
Bit rate : 27.4 kb/s
Count of elements : 1574
Stream size : 16.3 MiB (0%)
Language : Greek
Default : No
Forced : No

Text #14
ID : 21
Format : PGS
Muxing mode : zlib
Codec ID : S_HDMV/PGS
Codec ID/Info : Picture based subtitle format used on BDs/HD-DVDs
Duration : 1 h 22 min
Bit rate : 21.3 kb/s
Count of elements : 1572
Stream size : 12.6 MiB (0%)
Language : Romanian
Default : No
Forced : No

Text #15
ID : 22
Format : PGS
Muxing mode : zlib
Codec ID : S_HDMV/PGS
Codec ID/Info : Picture based subtitle format used on BDs/HD-DVDs
Duration : 1 h 28 min
Bit rate : 69.7 kb/s
Count of elements : 2878
Stream size : 43.9 MiB (0%)
Language : English
Default : No
Forced : No

Text #16
ID : 23
Format : PGS
Muxing mode : zlib
Codec ID : S_HDMV/PGS
Codec ID/Info : Picture based subtitle format used on BDs/HD-DVDs
Duration : 1 h 32 min
Bit rate : 59.4 kb/s
Count of elements : 2832
Stream size : 39.1 MiB (0%)
Language : French
Default : No
Forced : No

Text #17
ID : 24
Format : PGS
Muxing mode : zlib
Codec ID : S_HDMV/PGS
Codec ID/Info : Picture based subtitle format used on BDs/HD-DVDs
Duration : 1 h 31 min
Bit rate : 134 b/s
Count of elements : 12
Stream size : 90.3 KiB (0%)
Language : French
Default : No
Forced : No

Text #18
ID : 25
Format : PGS
Muxing mode : zlib
Codec ID : S_HDMV/PGS
Codec ID/Info : Picture based subtitle format used on BDs/HD-DVDs
Duration : 41 min 19 s
Bit rate : 333 b/s
Count of elements : 10
Stream size : 101 KiB (0%)
Language : Russian
Default : No
Forced : No

Text #19
ID : 26
Format : PGS
Muxing mode : zlib
Codec ID : S_HDMV/PGS
Codec ID/Info : Picture based subtitle format used on BDs/HD-DVDs
Duration : 11 min 21 s
Bit rate : 1 070 b/s
Count of elements : 8
Stream size : 89.1 KiB (0%)
Language : Czech
Default : No
Forced : No

Menu
00:00:00.000 : en:Chapter 1
00:04:10.833 : en:Chapter 2
00:12:42.762 : en:Chapter 3
00:17:25.836 : en:Chapter 4
00:19:55.777 : en:Chapter 5
00:26:26.334 : en:Chapter 6
00:27:34.736 : en:Chapter 7
00:32:36.871 : en:Chapter 8
00:36:12.086 : en:Chapter 9
00:40:11.033 : en:Chapter 10
00:44:31.251 : en:Chapter 11
00:53:05.557 : en:Chapter 12
00:56:47.654 : en:Chapter 13
00:58:54.614 : en:Chapter 14
01:02:59.734 : en:Chapter 15
01:11:43.799 : en:Chapter 16
01:14:52.362 : en:Chapter 17
01:18:43.260 : en:Chapter 18
01:21:28.842 : en:Chapter 19
01:24:27.270 : en:Chapter 20
movie BDRip Video
ID : 1
Format : HEVC
Format/Info : High Efficiency Video Coding
Commercial name : HDR10
Format profile : Main 10@L5.1@High
Codec ID : V_MPEGH/ISO/HEVC
Duration : 1 h 32 min
Width : 3 840 pixels
Height : 2 076 pixels
Display aspect ratio : 1.85:1
Frame rate mode : Constant
Frame rate : 23.976 (24000/1001) FPS
Color space : YUV
Chroma subsampling : 4:2:0 (Type 2)
Bit depth : 10 bits
Writing library : x265 2.6+4-f7498acb3874:[Windows][GCC 7.2.0][64 bit] 10bit
Encoding settings : cpuid=1050111 / frame-threads=3 / numa-pools=8 / wpp / no-pmode / no-pme / no-psnr / no-ssim / log-level=2 / input-csp=1 / input-res=3840x2076 / interlace=0 / total-frames=132620 / level-idc=51 / high-tier=1 / uhd-bd=0 / ref=4 / no-allow-non-conformance / repeat-headers / annexb / aud / hrd / info / hash=0 / no-temporal-layers / no-open-gop / min-keyint=24 / keyint=240 / bframes=4 / b-adapt=2 / b-pyramid / bframe-bias=0 / rc-lookahead=25 / lookahead-slices=4 / scenecut=40 / no-intra-refresh / ctu=64 / min-cu-size=8 / rect / no-amp / max-tu-size=32 / tu-inter-depth=1 / tu-intra-depth=1 / limit-tu=0 / rdoq-level=2 / dynamic-rd=0.00 / no-ssim-rd / signhide / no-tskip / nr-intra=0 / nr-inter=0 / no-constrained-intra / no-strong-intra-smoothing / max-merge=3 / limit-refs=3 / limit-modes / me=3 / subme=3 / merange=57 / temporal-mvp / weightp / no-weightb / no-analyze-src-pics / deblock=-3:-3 / no-sao / no-sao-non-deblock / rd=4 / no-early-skip / rskip / no-fast-intra / no-tskip-fast / no-cu-lossless / no-b-intra / no-splitrd-skip / rdpenalty=0 / psy-rd=2.00 / psy-rdoq=1.00 / no-rd-refine / analysis-reuse-mode=0 / no-lossless / cbqpoffs=0 / crqpoffs=0 / rc=crf / crf=17.0 / qcomp=0.60 / qpstep=4 / stats-write=0 / stats-read=0 / vbv-maxrate=160000 / vbv-bufsize=160000 / vbv-init=0.9 / crf-max=0.0 / crf-min=0.0 / ipratio=1.40 / pbratio=1.30 / aq-mode=1 / aq-strength=1.00 / cutree / zone-count=0 / no-strict-cbr / qg-size=32 / no-rc-grain / qpmax=69 / qpmin=0 / no-const-vbv / sar=1 / overscan=0 / videoformat=5 / range=0 / colorprim=9 / transfer=16 / colormatrix=9 / chromaloc=1 / chromaloc-top=2 / chromaloc-bottom=2 / display-window=0 / master-display=G(13250,34500)B(7500,3000)R(34000,16000)WP(15635,16450)L(10000000,50) / max-cll=915,70 / min-luma=0 / max-luma=1023 / log2-max-poc-lsb=8 / vui-timing-info / vui-hrd-info / slices=1 / opt-qp-pps / opt-ref-list-length-pps / no-multi-pass-opt-rps / scenecut-bias=0.05 / no-opt-cu-delta-qp / no-aq-motion / hdr / hdr-opt / no-dhdr10-opt / analysis-reuse-level=5 / scale-factor=0 / refine-intra=0 / refine-inter=0 / refine-mv=0 / no-limit-sao / ctu-info=0 / no-lowpass-dct / refine-mv-type=0 / copy-pic=1
Default : Yes
Forced : No
Color range : Limited
Color primaries : BT.2020
Transfer characteristics : PQ
Matrix coefficients : BT.2020 non-constant
Statistics Tags Issue : no_variable_data 1970-01-01 00:00:00 / no_variable_data 2010-02-22 21:41:29
FromStats_BitRate : 21161817
FromStats_Duration : 01:32:11.359000000
FromStats_FrameCount : 132620
FromStats_StreamSize : 14631701445
Mastering display color primaries : Display P3
Mastering display luminance : min: 0.0050 cd/m2, max: 1000 cd/m2
Maximum Content Light Level : 915 cd/m2
Maximum Frame-Average Light Level : 70 cd/m2

Audio #1
ID : 2
Format : DTS
Format/Info : Digital Theater Systems
Format profile : X / MA / Core
Codec ID : A_DTS
Bit rate mode : Variable / Variable / Constant
Bit rate : Unknown / Unknown / 1 509 kb/s
Channel(s) : Object Based / 8 channels / 6 channels
Channel positions : Object Based / Front: L C R, Side: L R, Back: L R, LFE / Front: L C R, Side: L R, LFE
Sampling rate : / 48.0 kHz / 48.0 kHz
Frame rate : 93.750 FPS (512 SPF)
Bit depth : / 24 bits / 24 bits
Compression mode : / Lossless / Lossy
Title : Atmos 7.1
Language : English
Default : Yes
Forced : No
Statistics Tags Issue : no_variable_data 1970-01-01 00:00:00 / no_variable_data 2010-02-22 21:41:29
FromStats_BitRate : 5350438
FromStats_Duration : 01:32:13.003000000
FromStats_FrameCount : 518719
FromStats_StreamSize : 3700498768

Audio #2
ID : 3
Format : AC-3
Format/Info : Audio Coding 3
Codec ID : A_AC3
Duration : 1 h 32 min
Bit rate mode : Constant
Bit rate : 192 kb/s
Channel(s) : 2 channels
Channel positions : Front: L R
Sampling rate : 48.0 kHz
Frame rate : 31.250 FPS (1536 SPF)
Bit depth : 16 bits
Compression mode : Lossy
Stream size : 127 MiB (1%)
Title : Commentary with the special F/X team Stan Winston, John Rosengrant, Dan Taylor and Michael Lantieri
Language : English
Service kind : Complete Main
Default : No
Forced : No
Statistics Tags Issue : no_variable_data 1970-01-01 00:00:00 / no_variable_data 2010-02-22 21:41:29
FromStats_BitRate : 192000
FromStats_Duration : 01:32:13.024000000
FromStats_FrameCount : 172907
FromStats_StreamSize : 132792576

Text #1
ID : 4
Format : UTF-8
Codec ID : S_TEXT/UTF8
Codec ID/Info : UTF-8 Plain Text
Title : Stripped SRT (not positioned)
Language : English
Default : No
Forced : No
Statistics Tags Issue : no_variable_data 1970-01-01 00:00:00 / no_variable_data 2010-02-22 21:41:29
FromStats_BitRate : 40
FromStats_Duration : 01:22:30.279000000
FromStats_FrameCount : 834
FromStats_StreamSize : 25192

Text #2
ID : 5
Format : UTF-8
Codec ID : S_TEXT/UTF8
Codec ID/Info : UTF-8 Plain Text
Title : SDH SRT (not positioned)
Language : English
Default : No
Forced : No
Statistics Tags Issue : no_variable_data 1970-01-01 00:00:00 / no_variable_data 2010-02-22 21:41:29
FromStats_BitRate : 43
FromStats_Duration : 01:22:48.714000000
FromStats_FrameCount : 948
FromStats_StreamSize : 27245

Text #3
ID : 6
Format : PGS
Muxing mode : zlib
Codec ID : S_HDMV/PGS
Codec ID/Info : Picture based subtitle format used on BDs/HD-DVDs
Title : SDH
Language : English
Default : No
Forced : No
Statistics Tags Issue : no_variable_data 1970-01-01 00:00:00 / no_variable_data 2010-02-22 21:41:29
FromStats_BitRate : 29091
FromStats_Duration : 01:22:48.714000000
FromStats_FrameCount : 1896
FromStats_StreamSize : 18068551

Text #4
ID : 7
Format : PGS
Muxing mode : zlib
Codec ID : S_HDMV/PGS
Codec ID/Info : Picture based subtitle format used on BDs/HD-DVDs
Title : Commentary with the special F/X team Stan Winston, John Rosengrant, Dan Taylor and Michael Lantieri
Language : English
Default : No
Forced : No
Statistics Tags Issue : no_variable_data 1970-01-01 00:00:00 / no_variable_data 2010-02-22 21:41:29
FromStats_BitRate : 69659
FromStats_Duration : 01:28:00.859000000
FromStats_FrameCount : 2878
FromStats_StreamSize : 45982795

Text #5
ID : 8
Format : PGS
Muxing mode : zlib
Codec ID : S_HDMV/PGS
Codec ID/Info : Picture based subtitle format used on BDs/HD-DVDs
Language : French
Default : No
Forced : No
Statistics Tags Issue : no_variable_data 1970-01-01 00:00:00 / no_variable_data 2010-02-22 21:41:29
FromStats_BitRate : 19423
FromStats_Duration : 01:31:25.230000000
FromStats_FrameCount : 1584
FromStats_StreamSize : 13317677

Text #6
ID : 9
Format : PGS
Muxing mode : zlib
Codec ID : S_HDMV/PGS
Codec ID/Info : Picture based subtitle format used on BDs/HD-DVDs
Title : Commentary with the special F/X team Stan Winston, John Rosengrant, Dan Taylor and Michael Lantieri
Language : French
Default : No
Forced : No
Statistics Tags Issue : no_variable_data 1970-01-01 00:00:00 / no_variable_data 2010-02-22 21:41:29
FromStats_BitRate : 134
FromStats_Duration : 01:31:25.230000000
FromStats_FrameCount : 12
FromStats_StreamSize : 92478

Text #7
ID : 10
Format : PGS
Muxing mode : zlib
Codec ID : S_HDMV/PGS
Codec ID/Info : Picture based subtitle format used on BDs/HD-DVDs
Language : Dutch
Default : No
Forced : No
Statistics Tags Issue : no_variable_data 1970-01-01 00:00:00 / no_variable_data 2010-02-22 21:41:29
FromStats_BitRate : 24662
FromStats_Duration : 01:22:56.514000000
FromStats_FrameCount : 1512
FromStats_StreamSize : 15341967

Text #8
ID : 11
Format : PGS
Muxing mode : zlib
Codec ID : S_HDMV/PGS
Codec ID/Info : Picture based subtitle format used on BDs/HD-DVDs
Language : Swedish
Default : No
Forced : No
Statistics Tags Issue : no_variable_data 1970-01-01 00:00:00 / no_variable_data 2010-02-22 21:41:29
FromStats_BitRate : 22625
FromStats_Duration : 01:22:56.055000000
FromStats_FrameCount : 1520
FromStats_StreamSize : 14073142

Text #9
ID : 12
Format : PGS
Muxing mode : zlib
Codec ID : S_HDMV/PGS
Codec ID/Info : Picture based subtitle format used on BDs/HD-DVDs
Language : Norwegian
Default : No
Forced : No
Statistics Tags Issue : no_variable_data 1970-01-01 00:00:00 / no_variable_data 2010-02-22 21:41:29
FromStats_BitRate : 23211
FromStats_Duration : 01:22:56.180000000
FromStats_FrameCount : 1546
FromStats_StreamSize : 14437845

Text #10
ID : 13
Format : PGS
Muxing mode : zlib
Codec ID : S_HDMV/PGS
Codec ID/Info : Picture based subtitle format used on BDs/HD-DVDs
Language : Danish
Default : No
Forced : No
Statistics Tags Issue : no_variable_data 1970-01-01 00:00:00 / no_variable_data 2010-02-22 21:41:29
FromStats_BitRate : 24217
FromStats_Duration : 01:22:56.222000000
FromStats_FrameCount : 1572
FromStats_StreamSize : 15064164

Text #11
ID : 14
Format : PGS
Muxing mode : zlib
Codec ID : S_HDMV/PGS
Codec ID/Info : Picture based subtitle format used on BDs/HD-DVDs
Language : Finnish
Default : No
Forced : No
Statistics Tags Issue : no_variable_data 1970-01-01 00:00:00 / no_variable_data 2010-02-22 21:41:29
FromStats_BitRate : 24339
FromStats_Duration : 01:22:56.055000000
FromStats_FrameCount : 1576
FromStats_StreamSize : 15139411

Text #12
ID : 15
Format : PGS
Muxing mode : zlib
Codec ID : S_HDMV/PGS
Codec ID/Info : Picture based subtitle format used on BDs/HD-DVDs
Language : Czech
Default : No
Forced : No
Statistics Tags Issue : no_variable_data 1970-01-01 00:00:00 / no_variable_data 2010-02-22 21:41:29
FromStats_BitRate : 22660
FromStats_Duration : 01:22:56.305000000
FromStats_FrameCount : 1570
FromStats_StreamSize : 14095486

Text #13
ID : 16
Format : PGS
Muxing mode : zlib
Codec ID : S_HDMV/PGS
Codec ID/Info : Picture based subtitle format used on BDs/HD-DVDs
Language : Polish
Default : No
Forced : No
Statistics Tags Issue : no_variable_data 1970-01-01 00:00:00 / no_variable_data 2010-02-22 21:41:29
FromStats_BitRate : 24679
FromStats_Duration : 01:22:56.430000000
FromStats_FrameCount : 1570
FromStats_StreamSize : 15352025

Text #14
ID : 17
Format : PGS
Muxing mode : zlib
Codec ID : S_HDMV/PGS
Codec ID/Info : Picture based subtitle format used on BDs/HD-DVDs
Language : Romanian
Default : No
Forced : No
Statistics Tags Issue : no_variable_data 1970-01-01 00:00:00 / no_variable_data 2010-02-22 21:41:29
FromStats_BitRate : 21277
FromStats_Duration : 01:22:56.055000000
FromStats_FrameCount : 1572
FromStats_StreamSize : 13234491

Text #15
ID : 18
Format : PGS
Muxing mode : zlib
Codec ID : S_HDMV/PGS
Codec ID/Info : Picture based subtitle format used on BDs/HD-DVDs
Language : Greek
Default : No
Forced : No
Statistics Tags Issue : no_variable_data 1970-01-01 00:00:00 / no_variable_data 2010-02-22 21:41:29
FromStats_BitRate : 27398
FromStats_Duration : 01:22:57.389000000
FromStats_FrameCount : 1574
FromStats_StreamSize : 17046520

Text #16
ID : 19
Format : PGS
Muxing mode : zlib
Codec ID : S_HDMV/PGS
Codec ID/Info : Picture based subtitle format used on BDs/HD-DVDs
Language : Chinese
Default : No
Forced : No
Statistics Tags Issue : no_variable_data 1970-01-01 00:00:00 / no_variable_data 2010-02-22 21:41:29
FromStats_BitRate : 19859
FromStats_Duration : 01:22:56.055000000
FromStats_FrameCount : 1574
FromStats_StreamSize : 12352981

Text #17
ID : 20
Format : PGS
Muxing mode : zlib
Codec ID : S_HDMV/PGS
Codec ID/Info : Picture based subtitle format used on BDs/HD-DVDs
Language : Chinese
Default : No
Forced : No
Statistics Tags Issue : no_variable_data 1970-01-01 00:00:00 / no_variable_data 2010-02-22 21:41:29
FromStats_BitRate : 18906
FromStats_Duration : 01:23:59.868000000
FromStats_FrameCount : 1580
FromStats_StreamSize : 11910482

Text #18
ID : 21
Format : PGS
Muxing mode : zlib
Codec ID : S_HDMV/PGS
Codec ID/Info : Picture based subtitle format used on BDs/HD-DVDs
Language : Korean
Default : No
Forced : No
Statistics Tags Issue : no_variable_data 1970-01-01 00:00:00 / no_variable_data 2010-02-22 21:41:29
FromStats_BitRate : 15384
FromStats_Duration : 01:31:32.446000000
FromStats_FrameCount : 1574
FromStats_StreamSize : 10562210

Menu
00:00:00.000 : en:00:00:00.000
00:04:10.834 : en:00:04:10.834
00:12:42.762 : en:00:12:42.762
00:17:25.836 : en:00:17:25.836
00:19:55.778 : en:00:19:55.778
00:26:26.335 : en:00:26:26.335
00:27:34.736 : en:00:27:34.736
00:32:36.872 : en:00:32:36.872
00:36:12.087 : en:00:36:12.087
00:40:11.034 : en:00:40:11.034
00:44:31.252 : en:00:44:31.252
00:53:05.557 : en:00:53:05.557
00:56:47.654 : en:00:56:47.654
00:58:54.614 : en:00:58:54.614
01:02:59.734 : en:01:02:59.734
01:11:43.799 : en:01:11:43.799
01:14:52.363 : en:01:14:52.363
01:18:43.260 : en:01:18:43.260
01:21:28.842 : en:01:21:28.842
01:24:27.271 : en:01:24:27.271

Download

download 4k hdr movies download 4k hdr movies

Watch a movie trailer - Jurassic Park 3 4K 2001 Ultra HD 2160p
Comments and Feedback
Add your comment:
Your name:
Your E-Mail:
Code:
reload, if the code cannot be seen
Enter code: