Select movie Search movie Close search My Account

Thor Ragnarok 4K 2017 Ultra HD 2160p

Thor Ragnarok 4K 2017 Ultra HD 2160p
BDRemux / BDRip
Country: USA
Time: 2h 10min
IMDB: 8.00
Director: Taika Waititi
Actors: Chris Hemsworth, Tom Hiddleston, Cate Blanchett, Idris Elba, Jeff Goldblum, Tessa Thompson, Karl Urban, Mark Ruffalo, Anthony Hopkins, Benedict Cumberbatch, Taika Waititi, Rachel House, Clancy Brown, Tadanobu Asano, Ray Stevenson

Story Movie

Thor Ragnarok 4K 2017 Ultra HD 2160p
In the film Thor Ragnarok amazon 4k movies, the main character returns to his hometown of Asgard. He immediately discovers that the reign of his brother Loki, who seized the throne, leads only to chaos. And on the throne claims Ragnarok, who can destroy the rest of it. But the return of Thor to his native land will be foreshadowed by the beginning of a new, but last battle for Asgard.

Review 4K Movie

"Thor Ragnarok" amazon 4k movies is a fantastic buddie-comedy comedy framed by a well-placed action movie. This is the seventeenth film of the movie Marvel, the third and final film of the trilogy about the "golden-haired son of Odin, the master of thunder - the Torah". And the first superhero kinokomiks New Zealand director and comedian, with a very memorable, difficultly inclined and unusual name - Taika Vaititi.

The plot continues the events of the "Law" two years ago. Having failed in his quest for infinity stones, Thor (Chris Hemsworth) returns to Asgard, where his brother Loki (Tom Hiddleston) dominates the throne, whose actions led to the approach of an inexorably tragic event for all Asgardians - Ragnaroku. The ruin of everything or simply - the end of the world. At the same time, the elder sister of Thora and Loki and the goddess of death, Hela, are inspired to escape prison imprisonment, inspired by the desire to seize power in Asgard and regain her former power over nine worlds, simultaneously destroying all who will stand in her way. To solve the "family" problems, the Torah will have to resort to the help of an old friend from work - the Hulk and collect his team of "revenge", that would end face to face with his older sister, even more dangerous opponent - the fiery demon Surtur and save Asgard from impending doom. Preliminarily plunged into no less fascinating adventures on the planet Sakaar, becoming a participant in gladiatorial battles under the patronage of An Dvost Gast or Grandmaster - the narcissist, imperious and arrogant ruler of the planet.

"Thor Ragnarok" UHD is an endless stream of verbal and event action. But the flow is completely unbalanced. In the course of viewing, an obsessive impression is created that the director does not always fully understand the direction in which he wants to direct his picture. On the one hand, the ongoing global events have a sublime drama and seriousness. On the other hand, a world that opens to the viewer of an amazing beauty, full of charismatic characters and comical situations, can not help but generate a regular buffoonery. And the whole film is saturated with such a contradiction. It is evident that being primarily a comedian, Vaititi tried to bring as much humor to the tape, humor as appropriate, and sometimes not very, crazy and frankly stupid, making laugh in the voice or causing bewilderment. If he had full creative freedom, the film would have sharks with machine guns, and maybe even bears with Kalashnikov assault rifles at the ready, soaking sparkling Hochma right and left. Even when Vaititi tries to create a drama, in the end he still gets a comedy. Indeed, in the case of this tape, the dramatic component is not the main one for the director, but rather serves as an occasion for creating another comical situation. And, in fact, I can not say that this is very bad. Definitely, moments, the film still lacks seriousness. Sometimes jokes arise when you do not expect them at all, for example, in the middle of an exalted monologue about domination in the universe or during a fierce battle. But this film differs from the two previous films of the trilogy. If the first pictures were serious epics about the indestructible god of thunder, then Ragnarok turns Torus into a crazy series of Rick and Morty, making his characters phantasmagoric freaks with an idiot and creating, with overflowing not always appropriate humor, but so bright and a memorable world.

Action in the tape is not something that would be very much, but the one that is - looks incredible. Especially memorable opening and closing scenes of "showdown" Torah with the armies of the same dumb under Immigrant Song group Led Zeppelin. Aesthetic pleasure for the eyes and ears. On the quality of the picture as a whole, there is not much to say. Everything looks insanely beautiful and extremely mesmerizing, as it usually happens in the movies Marvel.

The only, really, serious minus can be called another disposable, absurdly merged antagonist tape. Hella, performed by Keith Blanchett, does not reveal in the course of the story and does not have a well-defined prehistory. She just wants to take over the world, because it's so necessary. Simply because it is evil, and someone must necessarily act in opposition to the protagonist. She is beautiful, attractive, dangerous, but nothing more. The rest of the characters look more than appropriate. Many open up on the other hand or expand their images, the same Thor and the Hulk example. Very pleased with the cameo, Wall Lee and Doctor Strange. Separately, I would like to single out the character of Jeff Goldblum - Grandmaster: bright, let him too undiscovered to the end, but still causing great interest in his behavior and pitch. All acting works, both first and second plan are at the highest possible level, which only allow to reach the scenario-genre framework. It can be seen that the actors simply enjoyed their work.

"Thor Ragnarok" Ultra HD - ambiguous, but from this no less than a delectable film. With all his small, but still shortcomings, he still fully copes with the task at hand - entertain the viewer. This movie should be regarded as a light comedy thriller, designed only to brighten up the routine of gray everyday life and for two hours to draw you into its infinitely unbridled and amazing world. Let Marvel and did not manage to create the best movie kirovselennoy, but to make the best movie trilogy they could, of course.

Mediainfo

movie BDRemux Video
ID : 1
Format : HEVC
Format/Info : High Efficiency Video Coding
Format profile : Main 10@L5.1@High
Codec ID : V_MPEGH/ISO/HEVC
Duration : 2 h 10 min
Bit rate : 49.2 Mb/s
Width : 3 840 pixels
Height : 2 160 pixels
Display aspect ratio : 16:9
Frame rate mode : Constant
Frame rate : 23.976 (24000/1001) FPS
Color space : YUV
Chroma subsampling : 4:2:0 (Type 2)
Bit depth : 10 bits
Bits/(Pixel*Frame) : 0.248
Stream size : 44.9 GiB (77%)
Title : Thor.Ragnarok.2017.2160p.BluRay.REMUX.HEVC.DTS-HD.MA.TrueHD.7.1.Atmos
Writing library : ATEME Titan File 3.8.13 (4.8.13.0)
Default : Yes
Forced : No
Color range : Limited
Color primaries : BT.2020
Transfer characteristics : PQ
Matrix coefficients : BT.2020 non-constant
Mastering display color primaries : Display P3
Mastering display luminance : min: 0.0000 cd/m2, max: 1000 cd/m2

Audio #1
ID : 2
Format : TrueHD
Format profile : TrueHD+Atmos / TrueHD
Codec ID : A_TRUEHD
Duration : 2 h 10 min
Bit rate mode : Variable
Bit rate : 4 051 kb/s
Maximum bit rate : 5 889 kb/s
Channel(s) : Object Based / 8 channels
Channel positions : Object Based / Front: L C R, Side: L R, Back: L R, LFE
Sampling rate : / 48.0 kHz
Frame rate : 1 200.000 FPS (40 SPF)
Compression mode : Lossless
Delay relative to video : 32 ms
Stream size : 3.69 GiB (6%)
Title : Thor.Ragnarok.2017.2160p.BluRay.REMUX.HEVC.DTS-HD.MA.TrueHD.7.1.Atmos
Language : English
Default : Yes
Forced : No

Audio #2
ID : 3
Format : DTS
Format/Info : Digital Theater Systems
Format profile : MA / Core
Codec ID : A_DTS
Duration : 2 h 10 min
Bit rate mode : Variable / Constant
Bit rate : 3 549 kb/s / 1 509 kb/s
Channel(s) : 8 channels / 6 channels
Channel positions : Front: L C R, Side: L R, Back: L R, LFE / Front: L C R, Side: L R, LFE
Sampling rate : 48.0 kHz
Frame rate : 93.750 FPS (512 SPF)
Bit depth : 24 bits
Compression mode : Lossless / Lossy
Stream size : 3.24 GiB (6%)
Title : Thor.Ragnarok.2017.2160p.BluRay.REMUX.HEVC.DTS-HD.MA.TrueHD.7.1.Atmos
Language : English
Default : No
Forced : No

Audio #3
ID : 4
Format : AC-3
Format/Info : Audio Coding 3
Codec ID : A_AC3
Duration : 2 h 10 min
Bit rate mode : Constant
Bit rate : 640 kb/s
Channel(s) : 6 channels
Channel positions : Front: L C R, Side: L R, LFE
Sampling rate : 48.0 kHz
Frame rate : 31.250 FPS (1536 SPF)
Bit depth : 16 bits
Compression mode : Lossy
Delay relative to video : 31 ms
Stream size : 597 MiB (1%)
Title : Thor.Ragnarok.2017.2160p.BluRay.REMUX.HEVC.DTS-HD.MA.TrueHD.7.1.Atmos
Language : English
Service kind : Complete Main
Default : No
Forced : No

Audio #4
ID : 5
Format : E-AC-3
Format/Info : Enhanced Audio Coding 3
Codec ID : A_EAC3
Duration : 2 h 10 min
Bit rate mode : Constant
Bit rate : 500 b/s
Channel(s) : 6 channels
Channel positions : Front: L C R, Side: L R, LFE
Sampling rate : 48.0 kHz
Frame rate : 187.500 FPS (256 SPF)
Compression mode : Lossy
Stream size : 956 MiB (2%)
Title : Thor.Ragnarok.2017.2160p.BluRay.REMUX.HEVC.DTS-HD.MA.TrueHD.7.1.Atmos
Language : English
Service kind : Complete Main
Default : No
Forced : No

Audio #5
ID : 6
Format : AC-3
Format/Info : Audio Coding 3
Codec ID : A_AC3
Duration : 2 h 10 min
Bit rate mode : Constant
Bit rate : 320 kb/s
Channel(s) : 2 channels
Channel positions : Front: L R
Sampling rate : 48.0 kHz
Frame rate : 31.250 FPS (1536 SPF)
Bit depth : 16 bits
Compression mode : Lossy
Stream size : 299 MiB (1%)
Title : Thor.Ragnarok.2017.2160p.BluRay.REMUX.HEVC.DTS-HD.MA.TrueHD.7.1.Atmos
Language : English
Service kind : Complete Main
Default : No
Forced : No

Audio #6
ID : 7
Format : AC-3
Format/Info : Audio Coding 3
Codec ID : A_AC3
Duration : 2 h 10 min
Bit rate mode : Constant
Bit rate : 640 kb/s
Channel(s) : 6 channels
Channel positions : Front: L C R, Side: L R, LFE
Sampling rate : 48.0 kHz
Frame rate : 31.250 FPS (1536 SPF)
Bit depth : 16 bits
Compression mode : Lossy
Stream size : 597 MiB (1%)
Title : Thor.Ragnarok.2017.2160p.BluRay.REMUX.HEVC.DTS-HD.MA.TrueHD.7.1.Atmos
Language : French
Service kind : Complete Main
Default : No
Forced : No

Audio #7
ID : 8
Format : E-AC-3
Format/Info : Enhanced Audio Coding 3
Codec ID : A_EAC3
Duration : 2 h 10 min
Bit rate mode : Constant
Bit rate : 500 b/s
Channel(s) : 6 channels
Channel positions : Front: L C R, Side: L R, LFE
Sampling rate : 48.0 kHz
Frame rate : 187.500 FPS (256 SPF)
Compression mode : Lossy
Stream size : 956 MiB (2%)
Title : Thor.Ragnarok.2017.2160p.BluRay.REMUX.HEVC.DTS-HD.MA.TrueHD.7.1.Atmos
Language : Spanish
Service kind : Complete Main
Default : No
Forced : No

Audio #8
ID : 9
Format : E-AC-3
Format/Info : Enhanced Audio Coding 3
Codec ID : A_EAC3
Duration : 2 h 10 min
Bit rate mode : Constant
Bit rate : 500 b/s
Channel(s) : 6 channels
Channel positions : Front: L C R, Side: L R, LFE
Sampling rate : 48.0 kHz
Frame rate : 187.500 FPS (256 SPF)
Compression mode : Lossy
Stream size : 956 MiB (2%)
Title : Thor.Ragnarok.2017.2160p.BluRay.REMUX.HEVC.DTS-HD.MA.TrueHD.7.1.Atmos
Language : French
Service kind : Complete Main
Default : No
Forced : No

Audio #9
ID : 10
Format : E-AC-3
Format/Info : Enhanced Audio Coding 3
Codec ID : A_EAC3
Duration : 2 h 10 min
Bit rate mode : Constant
Bit rate : 500 b/s
Channel(s) : 6 channels
Channel positions : Front: L C R, Side: L R, LFE
Sampling rate : 48.0 kHz
Frame rate : 187.500 FPS (256 SPF)
Compression mode : Lossy
Stream size : 956 MiB (2%)
Title : Thor.Ragnarok.2017.2160p.BluRay.REMUX.HEVC.DTS-HD.MA.TrueHD.7.1.Atmos
Language : German
Service kind : Complete Main
Default : No
Forced : No

Audio #10
ID : 11
Format : E-AC-3
Format/Info : Enhanced Audio Coding 3
Codec ID : A_EAC3
Duration : 2 h 10 min
Bit rate mode : Constant
Bit rate : 500 b/s
Channel(s) : 6 channels
Channel positions : Front: L C R, Side: L R, LFE
Sampling rate : 48.0 kHz
Frame rate : 187.500 FPS (256 SPF)
Compression mode : Lossy
Stream size : 956 MiB (2%)
Title : Thor.Ragnarok.2017.2160p.BluRay.REMUX.HEVC.DTS-HD.MA.TrueHD.7.1.Atmos
Language : Japanese
Service kind : Complete Main
Default : No
Forced : No

Text #1
ID : 12
Format : PGS
Muxing mode : zlib
Codec ID : S_HDMV/PGS
Codec ID/Info : Picture based subtitle format used on BDs/HD-DVDs
Duration : 2 h 10 min
Bit rate : 37.9 kb/s
Count of elements : 4164
Stream size : 35.3 MiB (0%)
Title : English-PGS
Language : English
Default : Yes
Forced : No

Text #2
ID : 13
Format : PGS
Muxing mode : zlib
Codec ID : S_HDMV/PGS
Codec ID/Info : Picture based subtitle format used on BDs/HD-DVDs
Duration : 2 h 9 min
Bit rate : 30.4 kb/s
Count of elements : 3184
Stream size : 28.2 MiB (0%)
Title : French-PGS
Language : French
Default : No
Forced : No

Text #3
ID : 14
Format : PGS
Muxing mode : zlib
Codec ID : S_HDMV/PGS
Codec ID/Info : Picture based subtitle format used on BDs/HD-DVDs
Duration : 2 h 9 min
Bit rate : 31.3 kb/s
Count of elements : 3144
Stream size : 29.0 MiB (0%)
Title : Spanish-PGS
Language : Spanish
Default : No
Forced : No

Text #4
ID : 15
Format : PGS
Muxing mode : zlib
Codec ID : S_HDMV/PGS
Codec ID/Info : Picture based subtitle format used on BDs/HD-DVDs
Duration : 2 h 9 min
Bit rate : 18.3 kb/s
Count of elements : 3138
Stream size : 17.0 MiB (0%)
Title : Chinese-PGS
Language : Chinese
Default : No
Forced : No

Text #5
ID : 16
Format : PGS
Muxing mode : zlib
Codec ID : S_HDMV/PGS
Codec ID/Info : Picture based subtitle format used on BDs/HD-DVDs
Duration : 2 h 9 min
Bit rate : 26.3 kb/s
Count of elements : 3128
Stream size : 24.4 MiB (0%)
Title : French-PGS
Language : French
Default : No
Forced : No

Text #6
ID : 17
Format : PGS
Muxing mode : zlib
Codec ID : S_HDMV/PGS
Codec ID/Info : Picture based subtitle format used on BDs/HD-DVDs
Duration : 2 h 9 min
Bit rate : 33.3 kb/s
Count of elements : 3134
Stream size : 30.8 MiB (0%)
Title : German-PGS
Language : German
Default : No
Forced : No

Text #7
ID : 18
Format : PGS
Muxing mode : zlib
Codec ID : S_HDMV/PGS
Codec ID/Info : Picture based subtitle format used on BDs/HD-DVDs
Duration : 2 h 9 min
Bit rate : 22.1 kb/s
Count of elements : 2958
Stream size : 20.4 MiB (0%)
Title : Japanese-PGS
Language : Japanese
Default : No
Forced : No

Text #8
ID : 19
Format : PGS
Muxing mode : zlib
Codec ID : S_HDMV/PGS
Codec ID/Info : Picture based subtitle format used on BDs/HD-DVDs
Duration : 2 h 9 min
Bit rate : 15.9 kb/s
Count of elements : 3112
Stream size : 14.7 MiB (0%)
Title : Korean-PGS
Language : Korean
Default : No
Forced : No

Text #9
ID : 20
Format : PGS
Muxing mode : zlib
Codec ID : S_HDMV/PGS
Codec ID/Info : Picture based subtitle format used on BDs/HD-DVDs
Duration : 2 h 9 min
Bit rate : 21.0 kb/s
Count of elements : 3245
Stream size : 19.4 MiB (0%)
Title : Chinese-PGS
Language : Chinese
Default : No
Forced : No

Text #10
ID : 21
Format : PGS
Muxing mode : zlib
Codec ID : S_HDMV/PGS
Codec ID/Info : Picture based subtitle format used on BDs/HD-DVDs
Duration : 2 h 10 min
Bit rate : 293 b/s
Count of elements : 48
Stream size : 280 KiB (0%)
Title : French-FORCED-PGS
Language : French
Default : No
Forced : No

Text #11
ID : 22
Format : PGS
Muxing mode : zlib
Codec ID : S_HDMV/PGS
Codec ID/Info : Picture based subtitle format used on BDs/HD-DVDs
Duration : 2 h 10 min
Bit rate : 70 b/s
Count of elements : 12
Stream size : 67.4 KiB (0%)
Title : Spanish-FORCED-PGS
Language : Spanish
Default : No
Forced : No

Text #12
ID : 23
Format : PGS
Muxing mode : zlib
Codec ID : S_HDMV/PGS
Codec ID/Info : Picture based subtitle format used on BDs/HD-DVDs
Duration : 2 h 10 min
Bit rate : 43 b/s
Count of elements : 10
Stream size : 41.8 KiB (0%)
Title : French-FORCED-PGS
Language : French
Default : No
Forced : No

Text #13
ID : 24
Format : PGS
Muxing mode : zlib
Codec ID : S_HDMV/PGS
Codec ID/Info : Picture based subtitle format used on BDs/HD-DVDs
Duration : 2 h 10 min
Bit rate : 42 b/s
Count of elements : 10
Stream size : 40.6 KiB (0%)
Title : Japanese-FORCED-PGS
Language : Japanese
Default : No
Forced : No

Menu
00:00:00.000 : en:Chapter 1
00:06:20.671 : en:Chapter 2
00:14:11.642 : en:Chapter 3
00:22:12.873 : en:Chapter 4
00:26:43.059 : en:Chapter 5
00:31:29.721 : en:Chapter 6
00:35:03.935 : en:Chapter 7
00:42:49.733 : en:Chapter 8
00:48:31.533 : en:Chapter 9
00:59:38.783 : en:Chapter 10
01:07:57.907 : en:Chapter 11
01:17:30.604 : en:Chapter 12
01:27:25.323 : en:Chapter 13
01:36:08.721 : en:Chapter 14
01:42:35.732 : en:Chapter 15
01:49:19.886 : en:Chapter 16
01:54:57.599 : en:Chapter 17
02:00:37.521 : en:Chapter 18
File size: 58.08 GB

movie BDRip Video
ID : 1
Format : HEVC
Format/Info : High Efficiency Video Coding
Format profile : Main 10@L5.1@High
Codec ID : V_MPEGH/ISO/HEVC
Duration : 2 h 10 min
Width : 3 840 pixels
Height : 1 608 pixels
Display aspect ratio : 2.40:1
Frame rate mode : Constant
Frame rate : 23.976 (24000/1001) FPS
Color space : YUV
Chroma subsampling : 4:2:0 (Type 2)
Bit depth : 10 bits
Writing library : x265 2.6+37-1949157705ce:[Windows][GCC 6.3.0][64 bit] 10bit
Encoding settings : cpuid=1173503 / frame-threads=4 / numa-pools=16 / wpp / no-pmode / no-pme / no-psnr / no-ssim / log-level=2 / input-csp=1 / input-res=3840x1608 / interlace=0 / total-frames=187749 / level-idc=51 / high-tier=1 / uhd-bd=0 / ref=4 / no-allow-non-conformance / repeat-headers / annexb / aud / hrd / info / hash=0 / no-temporal-layers / no-open-gop / min-keyint=24 / keyint=240 / gop-lookahead=0 / bframes=4 / b-adapt=2 / b-pyramid / bframe-bias=0 / rc-lookahead=25 / lookahead-slices=4 / scenecut=40 / radl=0 / no-intra-refresh / ctu=64 / min-cu-size=8 / rect / no-amp / max-tu-size=32 / tu-inter-depth=1 / tu-intra-depth=1 / limit-tu=0 / rdoq-level=2 / dynamic-rd=0.00 / no-ssim-rd / signhide / no-tskip / nr-intra=0 / nr-inter=0 / no-constrained-intra / no-strong-intra-smoothing / max-merge=3 / limit-refs=3 / limit-modes / me=3 / subme=3 / merange=57 / temporal-mvp / weightp / no-weightb / no-analyze-src-pics / deblock=-3:-3 / no-sao / no-sao-non-deblock / rd=4 / no-early-skip / rskip / no-fast-intra / no-tskip-fast / no-cu-lossless / no-b-intra / no-splitrd-skip / rdpenalty=0 / psy-rd=2.00 / psy-rdoq=1.00 / no-rd-refine / no-lossless / cbqpoffs=0 / crqpoffs=0 / rc=crf / crf=17.0 / qcomp=0.60 / qpstep=4 / stats-write=0 / stats-read=0 / vbv-maxrate=160000 / vbv-bufsize=160000 / vbv-init=0.9 / crf-max=0.0 / crf-min=0.0 / ipratio=1.40 / pbratio=1.30 / aq-mode=1 / aq-strength=1.00 / cutree / zone-count=0 / no-strict-cbr / qg-size=32 / no-rc-grain / qpmax=69 / qpmin=0 / no-const-vbv / sar=1 / overscan=0 / videoformat=5 / range=0 / colorprim=9 / transfer=16 / colormatrix=9 / chromaloc=1 / chromaloc-top=2 / chromaloc-bottom=2 / display-window=0 / master-display=G(13250,34500)B(7500,3000)R(34000,16000)WP(15635,16450)L(10000000,0) / max-cll=0,0 / min-luma=0 / max-luma=1023 / log2-max-poc-lsb=8 / vui-timing-info / vui-hrd-info / slices=1 / opt-qp-pps / opt-ref-list-length-pps / no-multi-pass-opt-rps / scenecut-bias=0.05 / no-opt-cu-delta-qp / no-aq-motion / hdr / hdr-opt / no-dhdr10-opt / analysis-reuse-level=5 / scale-factor=0 / refine-intra=0 / refine-inter=0 / refine-mv=0 / no-limit-sao / ctu-info=0 / no-lowpass-dct / refine-mv-type=0 / copy-pic=1
Default : Yes
Forced : No
Color range : Limited
Color primaries : BT.2020
Transfer characteristics : PQ
Matrix coefficients : BT.2020 non-constant
Statistics Tags Issue : no_variable_data 1970-01-01 00:00:00 / no_variable_data 2010-02-22 21:41:29
FromStats_BitRate : 12830459
FromStats_Duration : 02:10:30.698000000
FromStats_FrameCount : 187749
FromStats_StreamSize : 12558932134
Mastering display color primaries : Display P3
Mastering display luminance : min: 0.0000 cd/m2, max: 1000 cd/m2

Audio #1
ID : 2
Format : TrueHD
Format profile : TrueHD+Atmos / TrueHD
Codec ID : A_TRUEHD
Bit rate mode : Variable
Maximum bit rate : 5 889 kb/s
Channel(s) : Object Based / 8 channels
Channel positions : Object Based / Front: L C R, Side: L R, Back: L R, LFE
Sampling rate : / 48.0 kHz
Frame rate : 1 200.000 FPS (40 SPF)
Compression mode : Lossless
Delay relative to video : 1 ms
Title : Atmos
Language : English
Default : Yes
Forced : No
Statistics Tags Issue : no_variable_data 1970-01-01 00:00:00 / no_variable_data 2010-02-22 21:41:29
FromStats_BitRate : 4071850
FromStats_Duration : 02:10:30.701000000
FromStats_FrameCount : 9400086
FromStats_StreamSize : 3985680148

Audio #2
ID : 3
Format : AC-3
Format/Info : Audio Coding 3
Codec ID : A_AC3
Duration : 2 h 10 min
Bit rate mode : Constant
Bit rate : 640 kb/s
Channel(s) : 6 channels
Channel positions : Front: L C R, Side: L R, LFE
Sampling rate : 48.0 kHz
Frame rate : 31.250 FPS (1536 SPF)
Bit depth : 16 bits
Compression mode : Lossy
Delay relative to video : 31 ms
Stream size : 597 MiB (4%)
Title : AC3 5.1
Language : English
Service kind : Complete Main
Default : No
Forced : No
Statistics Tags Issue : no_variable_data 1970-01-01 00:00:00 / no_variable_data 2010-02-22 21:41:29
FromStats_BitRate : 655753
FromStats_Duration : 02:10:30.752000000
FromStats_FrameCount : 247823
FromStats_StreamSize : 641880060

Text #1
ID : 4
Format : UTF-8
Codec ID : S_TEXT/UTF8
Codec ID/Info : UTF-8 Plain Text
Title : Stripped SRT
Language : English
Default : No
Forced : No
Statistics Tags Issue : no_variable_data 1970-01-01 00:00:00 / no_variable_data 2010-02-22 21:41:29
FromStats_BitRate : 51
FromStats_Duration : 02:09:19.364000000
FromStats_FrameCount : 1760
FromStats_StreamSize : 49767

Text #2
ID : 5
Format : UTF-8
Codec ID : S_TEXT/UTF8
Codec ID/Info : UTF-8 Plain Text
Title : SDH SRT
Language : English
Default : No
Forced : No
Statistics Tags Issue : no_variable_data 1970-01-01 00:00:00 / no_variable_data 2010-02-22 21:41:29
FromStats_BitRate : 57
FromStats_Duration : 02:10:11.875000000
FromStats_FrameCount : 2081
FromStats_StreamSize : 56384

Text #3
ID : 6
Format : PGS
Muxing mode : zlib
Codec ID : S_HDMV/PGS
Codec ID/Info : Picture based subtitle format used on BDs/HD-DVDs
Title : SDH
Language : English
Default : No
Forced : No
Statistics Tags Issue : no_variable_data 1970-01-01 00:00:00 / no_variable_data 2010-02-22 21:41:29
FromStats_BitRate : 37873
FromStats_Duration : 02:10:11.875000000
FromStats_FrameCount : 4164
FromStats_StreamSize : 36982594

Text #4
ID : 7
Format : PGS
Muxing mode : zlib
Codec ID : S_HDMV/PGS
Codec ID/Info : Picture based subtitle format used on BDs/HD-DVDs
Title : CA
Language : French
Default : No
Forced : No
Statistics Tags Issue : no_variable_data 1970-01-01 00:00:00 / no_variable_data 2010-02-22 21:41:29
FromStats_BitRate : 30430
FromStats_Duration : 02:09:29.291000000
FromStats_FrameCount : 3184
FromStats_StreamSize : 29552464

Text #5
ID : 8
Format : PGS
Muxing mode : zlib
Codec ID : S_HDMV/PGS
Codec ID/Info : Picture based subtitle format used on BDs/HD-DVDs
Title : EU
Language : French
Default : No
Forced : No
Statistics Tags Issue : no_variable_data 1970-01-01 00:00:00 / no_variable_data 2010-02-22 21:41:29
FromStats_BitRate : 26292
FromStats_Duration : 02:09:28.958000000
FromStats_FrameCount : 3128
FromStats_StreamSize : 25532838

Text #6
ID : 9
Format : PGS
Muxing mode : zlib
Codec ID : S_HDMV/PGS
Codec ID/Info : Picture based subtitle format used on BDs/HD-DVDs
Language : Spanish
Default : No
Forced : No
Statistics Tags Issue : no_variable_data 1970-01-01 00:00:00 / no_variable_data 2010-02-22 21:41:29
FromStats_BitRate : 31302
FromStats_Duration : 02:09:29.207000000
FromStats_FrameCount : 3144
FromStats_StreamSize : 30399050

Text #7
ID : 10
Format : PGS
Muxing mode : zlib
Codec ID : S_HDMV/PGS
Codec ID/Info : Picture based subtitle format used on BDs/HD-DVDs
Language : German
Default : No
Forced : No
Statistics Tags Issue : no_variable_data 1970-01-01 00:00:00 / no_variable_data 2010-02-22 21:41:29
FromStats_BitRate : 33262
FromStats_Duration : 02:09:29.041000000
FromStats_FrameCount : 3134
FromStats_StreamSize : 32302458

Text #8
ID : 11
Format : PGS
Muxing mode : zlib
Codec ID : S_HDMV/PGS
Codec ID/Info : Picture based subtitle format used on BDs/HD-DVDs
Language : Japanese
Default : No
Forced : No
Statistics Tags Issue : no_variable_data 1970-01-01 00:00:00 / no_variable_data 2010-02-22 21:41:29
FromStats_BitRate : 22054
FromStats_Duration : 02:09:32.919000000
FromStats_FrameCount : 2958
FromStats_StreamSize : 21428288

Text #9
ID : 12
Format : PGS
Muxing mode : zlib
Codec ID : S_HDMV/PGS
Codec ID/Info : Picture based subtitle format used on BDs/HD-DVDs
Language : Chinese
Default : No
Forced : No
Statistics Tags Issue : no_variable_data 1970-01-01 00:00:00 / no_variable_data 2010-02-22 21:41:29
FromStats_BitRate : 18338
FromStats_Duration : 02:09:28.999000000
FromStats_FrameCount : 3138
FromStats_StreamSize : 17808825

Text #10
ID : 13
Format : PGS
Muxing mode : zlib
Codec ID : S_HDMV/PGS
Codec ID/Info : Picture based subtitle format used on BDs/HD-DVDs
Language : Chinese
Default : No
Forced : No
FromStats_BitRate : 4071850
FromStats_Duration : 02:10:30.701000000
FromStats_FrameCount : 9400086
FromStats_StreamSize : 3985680148

Text #11
ID : 14
Format : PGS
Muxing mode : zlib
Codec ID : S_HDMV/PGS
Codec ID/Info : Picture based subtitle format used on BDs/HD-DVDs
Language : Korean
Default : No
Forced : No
FromStats_BitRate : 655753
FromStats_Duration : 02:10:30.752000000
FromStats_FrameCount : 247823
FromStats_StreamSize : 641880060

Menu
00:00:00.000 : en:Chapter 1
00:06:20.671 : en:Chapter 2
00:14:11.642 : en:Chapter 3
00:22:12.873 : en:Chapter 4
00:26:43.059 : en:Chapter 5
00:31:29.721 : en:Chapter 6
00:35:03.935 : en:Chapter 7
00:42:49.733 : en:Chapter 8
00:48:31.533 : en:Chapter 9
00:59:38.783 : en:Chapter 10
01:07:57.907 : en:Chapter 11
01:17:30.604 : en:Chapter 12
01:27:25.323 : en:Chapter 13
01:36:08.721 : en:Chapter 14
01:42:35.732 : en:Chapter 15
01:49:19.886 : en:Chapter 16
01:54:57.599 : en:Chapter 17
02:00:37.521 : en:Chapter 18

Download

download 4k hdr movies download 4k hdr movies

Watch a movie trailer - Thor Ragnarok 4K 2017 Ultra HD 2160p
Comments and Feedback
Add your comment:
Your name:
Your E-Mail:
Code:
reload, if the code cannot be seen
Enter code: