Select movie Search movie Close search My Account

Incredibles 2 4K 2018 Ultra HD 2160p

Incredibles 2 4K 2018 Ultra HD 2160p
BDRemux / BDRip
Country: USA
Time: 1h 58min
IMDB: 7.9
Director: Brad Bird
Actors: Craig T. Nelson, Holly Hunter, Sarah Vowell, Huck Milner, Catherine Keener, Eli Fucile, Bob Odenkirk, Samuel L. Jackson, Michael Bird, Sophia Bush, Brad Bird, Phil LaMarr, Isabella Rossellini, Adam Gates, Jonathan Banks

Story Movie

Incredibles 2 4K 2018 Ultra HD 2160p
The Incredibles 2 4k movies is a great family movie, clearly inferior to part 1 in the context of the story that the film wants to tell us, but at the same time the viewer is captivated by wonderful adventures with Elasty, domestic and life family situations, as well as great action, amazing humor and superhero theme. You should not kick a cartoon for feminist overtones, such questions should be raised, perhaps the cartoon is not the most suitable place for them, but Bred Bird was able to solve this problem very carefully and clearly. So, pay more attention to relations in the Parr family than to the search for "hidden propaganda of feminism."

Review 4K Movie

Let me mark right away: The Incredibles 4k movies (2004) for me is a reference in the genre of family cinema. Fascinating, colorful, bright, in a sense, innovative (one of the first 3-dimensional cartoons where the main characters are people), this cartoon was for all ages, with humor for both children and adults, and for, it would seem, uncomplicated superhero themes were serious topics and questions. One of the best cartoons from the legendary studio Pixar has definitely fallen in love with me for all this. To say that I was waiting for the second part - to say nothing. Back in my childhood, when I first saw THAN the Incredibles 2 UHD ended, I was waiting for the continuation. But over the years, looking at the economic fraud and principles of the Disney Corporation, the expectation of Part 2 was clouded by a little apprehension.

But the second part, thank God, came out (14 years later) and the main question: were the expectations fulfilled? Rather yes than no. I liked the cartoon, but there are a number of complaints that I just cannot help but pay attention to, and I still wonder why the vast majority do not see all these jambs in this cartoon.

The first thing that bore me the most was, of course, the story. There is nothing original, surprising, it does not feel the same novelty, as it was with the first Incredibles. I agree, 14 years have passed, and the times are changing. But, what prevented the creators of FOR THE SAME 14 years to write a really strong script, which was the first part? It is very sad to realize that cartoons are less and less created based on strong scripts and stories. But before that, an Oscar nomination for the best original script for cartoons (especially Pixar studios) was quite an ordinary thing. The same first part had such a nomination. In general, all this is sad. The Incredibles 2 Ulyta HD almost doesn’t hide frank plot holes that can be noticed even at the first viewing (just count how many opportunities children have to take off points from other superheroes). The team of the same super superficial caricatures, created also to cover the plot holes. Almost every one of them has 1-2 replicas of everything. Of all the 5-6 characters, only the Void is remembered by the appearance and manner of communication. Also not without a bad villain who deciphers after 30 minutes, and his motivation is copied from the Syndrome from 1 part. Even with the story of the Incredibles 2 you can draw a lot of parallels with the original source, which is also not very good, but almost everyone closes their eyes to a clear similarity! But not less than the feminist 8 friends of Ocean, only the lazy did not sling mud at copying 11 of Ocean's friends. But it is so thinking out loud ...

Speaking of feminism, it’s enough in the film and you know, this is a great example of how to talk about such an issue as sexism in society in an elegant and unobtrusive way. It is the bias towards Elastika, her sincere conversations with a new girlfriend on the topic “men rule this world”, the display of the Parr family headed by Mr. Exceptional, who is trying to cope with children alone - all is an example of how to raise such problems! Anyone can grasp the essence of the awkward situation when the breadwinner of the family is a woman. Well, life moments, such as solving examples in mathematics with parents, who have already forgotten the school curriculum - the cherry on the cake. Definitely the creators have done a great job to achieve such a plausible effect. Personally, many family situations from this film were familiar to me.

What else got me very strong in this movie was strained so this is exactly family. No, don't throw stones at me. The Incredibles 2 is the same family movie, as the first part, they have succeeded equally in this. The question is how this family component is shown. If you are waiting for revelations right before the final battle, adult hints (yes, we all remember that scene with Elastica), shocking actions from seemingly good characters, then you should forget about all this before watching part 2. The incredibles of 2004 showed first of all FAMILY superheroes in an extreme situation that threatens their lives. From this, the tone of the original is more mature for me than the sequel. The family in the first part is shown primarily by individuals who will be a mountain for each other. Mr. Exceptional is afraid of losing his family once again, Elastic can not let him go alone, Violet feels insecure because she could not create a force field when it was required of her to protect her mother and brother. And there were still a lot of such revelations in the first part, the second one shows us the family component of the main star of this film (no, not Elastic) - Jack-jack. The scenes with him are simply amazing, for me this is one of the rare occasions when after seeing a comedy 2 times, I still laughed exactly at the same moments. An episode with a raccoon - it was necessary to see.

Mediainfo

movie BDRemux Video
ID : 1
Format : HEVC
Format/Info : High Efficiency Video Coding
Commercial name : HDR10
Format profile : Main 10@L5.1@High
Codec ID : V_MPEGH/ISO/HEVC
Duration : 1 h 57 min
Bit rate : 41.3 Mb/s
Width : 3 840 pixels
Height : 2 160 pixels
Display aspect ratio : 16:9
Frame rate mode : Constant
Frame rate : 23.976 (23976/1000) FPS
Original frame rate : 23.976 (24000/1001) FPS
Color space : YUV
Chroma subsampling : 4:2:0 (Type 2)
Bit depth : 10 bits
Bits/(Pixel*Frame) : 0.208
Stream size : 34.0 GiB (77%)
Title : Incredibles.2.2018.2160p.BluRay.REMUX.HEVC.TrueHD.7.1.Atmos
Writing library : ATEME Titan File 3.8.16 (4.8.16.0)
Default : Yes
Forced : No
Color range : Limited
Color primaries : BT.2020
Transfer characteristics : PQ
Matrix coefficients : BT.2020 non-constant
Mastering display color primaries : Display P3
Mastering display luminance : min: 0.0000 cd/m2, max: 1000 cd/m2

Audio #1
ID : 2
Format : MLP FBA 16-ch
Format/Info : Meridian Lossless Packing FBA with 16-channel presentation
Commercial name : Dolby TrueHD with Dolby Atmos
Codec ID : A_TRUEHD
Duration : 1 h 57 min
Bit rate mode : Variable
Bit rate : 7 004 kb/s
Maximum bit rate : 8 580 kb/s
Channel(s) : 8 channels
Channel layout : L R C LFE Ls Rs Lb Rb
Sampling rate : 48.0 kHz
Frame rate : 1 200.000 FPS (40 SPF)
Compression mode : Lossless
Stream size : 5.77 GiB (13%)
Title : Incredibles.2.2018.2160p.BluRay.REMUX.HEVC.DTS-HD.MA.TrueHD.7.1.Atmos
Language : English
Default : Yes
Forced : No
Number of dynamic objects : 13
Bed channel count : 1 channel
Bed channel configuration : LFE

Audio #2
ID : 3
Format : AC-3
Format/Info : Audio Coding 3
Commercial name : Dolby Digital
Codec ID : A_AC3
Duration : 1 h 57 min
Bit rate mode : Constant
Bit rate : 640 kb/s
Channel(s) : 6 channels
Channel layout : L R C LFE Ls Rs
Sampling rate : 48.0 kHz
Frame rate : 31.250 FPS (1536 SPF)
Bit depth : 16 bits
Compression mode : Lossy
Stream size : 540 MiB (1%)
Title : Incredibles.2.2018.2160p.BluRay.REMUX.HEVC.TrueHD.7.1.Atmos
Language : English
Service kind : Complete Main
Default : No
Forced : No

Audio #3
ID : 4
Format : E-AC-3
Format/Info : Enhanced AC-3
Commercial name : Dolby Digital Plus
Format profile : Blu-ray Disc
Codec ID : A_EAC3
Duration : 1 h 57 min
Bit rate mode : Constant
Bit rate : 1 024 kb/s
Channel(s) : 8 channels
Channel layout : L R C LFE Ls Rs Lb Rb
Sampling rate : 48.0 kHz
Frame rate : 31.250 FPS (1536 SPF)
Compression mode : Lossy
Stream size : 863 MiB (2%)
Title : Incredibles.2.2018.2160p.BluRay.REMUX.HEVC.TrueHD.7.1.Atmos
Language : English
Service kind : Complete Main
Default : No
Forced : No

Audio #4
ID : 5
Format : AC-3
Format/Info : Audio Coding 3
Commercial name : Dolby Digital
Codec ID : A_AC3
Duration : 1 h 57 min
Bit rate mode : Constant
Bit rate : 640 kb/s
Channel(s) : 6 channels
Channel layout : L R C LFE Ls Rs
Sampling rate : 48.0 kHz
Frame rate : 31.250 FPS (1536 SPF)
Bit depth : 16 bits
Compression mode : Lossy
Stream size : 540 MiB (1%)
Title : Incredibles.2.2018.2160p.BluRay.REMUX.HEVC.TrueHD.7.1.Atmos
Language : English
Service kind : Complete Main
Default : No
Forced : No

Audio #5
ID : 6
Format : AC-3
Format/Info : Audio Coding 3
Commercial name : Dolby Digital
Codec ID : A_AC3
Duration : 1 h 57 min
Bit rate mode : Constant
Bit rate : 320 kb/s
Channel(s) : 2 channels
Channel layout : L R
Sampling rate : 48.0 kHz
Frame rate : 31.250 FPS (1536 SPF)
Bit depth : 16 bits
Compression mode : Lossy
Stream size : 270 MiB (1%)
Title : Incredibles.2.2018.2160p.BluRay.REMUX.HEVC.TrueHD.7.1.Atmos
Language : English
Service kind : Complete Main
Default : No
Forced : No

Audio #6
ID : 7
Format : AC-3
Format/Info : Audio Coding 3
Commercial name : Dolby Digital
Codec ID : A_AC3
Duration : 1 h 57 min
Bit rate mode : Constant
Bit rate : 320 kb/s
Channel(s) : 2 channels
Channel layout : L R
Sampling rate : 48.0 kHz
Frame rate : 31.250 FPS (1536 SPF)
Bit depth : 16 bits
Compression mode : Lossy
Stream size : 270 MiB (1%)
Title : Incredibles.2.2018.2160p.BluRay.REMUX.HEVC.TrueHD.7.1.Atmos
Language : English
Service kind : Complete Main
Default : No
Forced : No

Audio #7
ID : 8
Format : E-AC-3
Format/Info : Enhanced AC-3
Commercial name : Dolby Digital Plus
Format profile : Blu-ray Disc
Codec ID : A_EAC3
Duration : 1 h 57 min
Bit rate mode : Constant
Bit rate : 1 024 kb/s
Channel(s) : 8 channels
Channel layout : L R C LFE Ls Rs Lb Rb
Sampling rate : 48.0 kHz
Frame rate : 31.250 FPS (1536 SPF)
Compression mode : Lossy
Stream size : 863 MiB (2%)
Title : Incredibles.2.2018.2160p.BluRay.REMUX.HEVC.TrueHD.7.1.Atmos
Language : French
Service kind : Complete Main
Default : No
Forced : No

Audio #8
ID : 9
Format : E-AC-3
Format/Info : Enhanced AC-3
Commercial name : Dolby Digital Plus
Format profile : Blu-ray Disc
Codec ID : A_EAC3
Duration : 1 h 57 min
Bit rate mode : Constant
Bit rate : 1 024 kb/s
Channel(s) : 8 channels
Channel layout : L R C LFE Ls Rs Lb Rb
Sampling rate : 48.0 kHz
Frame rate : 31.250 FPS (1536 SPF)
Compression mode : Lossy
Stream size : 863 MiB (2%)
Title : Incredibles.2.2018.2160p.BluRay.REMUX.HEVC.TrueHD.7.1.Atmos
Language : Spanish
Service kind : Complete Main
Default : No
Forced : No

Text #1
ID : 10
Format : PGS
Muxing mode : zlib
Codec ID : S_HDMV/PGS
Codec ID/Info : Picture based subtitle format used on BDs/HD-DVDs
Duration : 1 h 57 min
Bit rate : 51.2 kb/s
Count of elements : 4636
Stream size : 42.9 MiB (0%)
Title : English-PGS
Language : English
Default : Yes
Forced : No

Text #2
ID : 11
Format : PGS
Muxing mode : zlib
Codec ID : S_HDMV/PGS
Codec ID/Info : Picture based subtitle format used on BDs/HD-DVDs
Duration : 1 h 57 min
Bit rate : 36.1 kb/s
Count of elements : 3522
Stream size : 30.2 MiB (0%)
Title : French-PGS
Language : French
Default : No
Forced : No

Text #3
ID : 12
Format : PGS
Muxing mode : zlib
Codec ID : S_HDMV/PGS
Codec ID/Info : Picture based subtitle format used on BDs/HD-DVDs
Duration : 1 h 57 min
Bit rate : 39.6 kb/s
Count of elements : 3522
Stream size : 33.2 MiB (0%)
Title : Spanish-PGS
Language : Spanish
Default : No
Forced : No

Menu
00:00:00.000 : :Chapter 1
00:03:22.327 : :Chapter 2
00:08:53.616 : :Chapter 3
00:09:36.784 : :Chapter 4
00:13:38.275 : :Chapter 5
00:15:44.735 : :Chapter 6
00:21:19.736 : :Chapter 7
00:23:28.281 : :Chapter 8
00:27:08.793 : :Chapter 9
00:28:59.570 : :Chapter 10
00:35:10.900 : :Chapter 11
00:39:07.845 : :Chapter 12
00:42:43.894 : :Chapter 13
00:43:42.411 : :Chapter 14
00:47:35.352 : :Chapter 15
00:48:53.888 : :Chapter 16
00:54:15.585 : :Chapter 17
00:56:16.038 : :Chapter 18
01:00:58.696 : :Chapter 19
01:02:01.884 : :Chapter 20
01:06:55.510 : :Chapter 21
01:09:18.236 : :Chapter 22
01:11:28.200 : :Chapter 23
01:12:37.686 : :Chapter 24
01:14:39.265 : :Chapter 25
01:18:00.967 : :Chapter 26
01:20:32.535 : :Chapter 27
01:25:01.929 : :Chapter 28
01:27:59.440 : :Chapter 29
01:31:53.924 : :Chapter 30
01:33:26.433 : :Chapter 31
01:36:25.237 : :Chapter 32
01:37:45.191 : :Chapter 33
01:43:56.896 : :Chapter 34
01:45:35.912 : :Chapter 35
01:47:30.901 : :Chapter 36
movie BDRip Video
ID : 1
Format : HEVC
Format/Info : High Efficiency Video Coding
Commercial name : HDR10
Format profile : Main 10@L5.1@High
Codec ID : V_MPEGH/ISO/HEVC
Duration : 1 h 57 min
Bit rate : 8 795 kb/s
Width : 3 840 pixels
Height : 1 608 pixels
Display aspect ratio : 2.40:1
Frame rate mode : Constant
Frame rate : 23.976 (24000/1001) FPS
Color space : YUV
Chroma subsampling : 4:2:0 (Type 2)
Bit depth : 10 bits
Bits/(Pixel*Frame) : 0.059
Stream size : 7.24 GiB (53%)
Writing library : x265 2.8+58-d17bc7714ed2:[Windows][GCC 8.2.0][64 bit] 10bit
Encoding settings : cpuid=1111039 / frame-threads=5 / numa-pools=36 / wpp / no-pmode / no-pme / no-psnr / no-ssim / log-level=2 / input-csp=1 / input-res=3840x1608 / interlace=0 / total-frames=169514 / level-idc=51 / high-tier=1 / uhd-bd=0 / ref=4 / no-allow-non-conformance / repeat-headers / annexb / aud / hrd / info / hash=0 / no-temporal-layers / no-open-gop / min-keyint=24 / keyint=240 / gop-lookahead=0 / bframes=4 / b-adapt=2 / b-pyramid / bframe-bias=0 / rc-lookahead=25 / lookahead-slices=4 / scenecut=40 / radl=0 / no-intra-refresh / ctu=64 / min-cu-size=8 / rect / no-amp / max-tu-size=32 / tu-inter-depth=1 / tu-intra-depth=1 / limit-tu=0 / rdoq-level=2 / dynamic-rd=0.00 / no-ssim-rd / signhide / no-tskip / nr-intra=0 / nr-inter=0 / no-constrained-intra / no-strong-intra-smoothing / max-merge=3 / limit-refs=3 / limit-modes / me=3 / subme=3 / merange=57 / temporal-mvp / weightp / no-weightb / no-analyze-src-pics / deblock=-3:-3 / no-sao / no-sao-non-deblock / rd=4 / no-early-skip / rskip / no-fast-intra / no-tskip-fast / no-cu-lossless / no-b-intra / no-splitrd-skip / rdpenalty=0 / psy-rd=2.00 / psy-rdoq=1.00 / no-rd-refine / no-lossless / cbqpoffs=0 / crqpoffs=0 / rc=crf / crf=17.0 / qcomp=0.60 / qpstep=4 / stats-write=0 / stats-read=0 / vbv-maxrate=160000 / vbv-bufsize=160000 / vbv-init=0.9 / crf-max=0.0 / crf-min=0.0 / ipratio=1.40 / pbratio=1.30 / aq-mode=1 / aq-strength=1.00 / cutree / zone-count=0 / no-strict-cbr / qg-size=32 / no-rc-grain / qpmax=69 / qpmin=0 / no-const-vbv / sar=1 / overscan=0 / videoformat=5 / range=0 / colorprim=9 / transfer=16 / colormatrix=9 / chromaloc=1 / chromaloc-top=2 / chromaloc-bottom=2 / display-window=0 / master-display=G(13250,34500)B(7500,3000)R(34000,16000)WP(15635,16450)L(10000000,0) / max-cll=0,0 / min-luma=0 / max-luma=1023 / log2-max-poc-lsb=8 / vui-timing-info / vui-hrd-info / slices=1 / no-opt-qp-pps / no-opt-ref-list-length-pps / no-multi-pass-opt-rps / scenecut-bias=0.05 / no-opt-cu-delta-qp / no-aq-motion / hdr / hdr-opt / no-dhdr10-opt / no-idr-recovery-sei / analysis-reuse-level=5 / scale-factor=0 / refine-intra=0 / refine-inter=0 / refine-mv=0 / no-limit-sao / ctu-info=0 / no-lowpass-dct / refine-mv-type=0 / copy-pic=1 / max-ausize-factor=1.0 / no-dynamic-refine / no-single-sei
Default : Yes
Forced : No
Color range : Limited
Color primaries : BT.2020
Transfer characteristics : PQ
Matrix coefficients : BT.2020 non-constant
Mastering display color primaries : Display P3
Mastering display luminance : min: 0.0000 cd/m2, max: 1000 cd/m2

Audio #1
ID : 2
Format : MLP FBA 16-ch
Format/Info : Meridian Lossless Packing FBA with 16-channel presentation
Commercial name : Dolby TrueHD with Dolby Atmos
Codec ID : A_TRUEHD
Duration : 1 h 57 min
Bit rate mode : Variable
Bit rate : 7 005 kb/s
Maximum bit rate : 8 580 kb/s
Channel(s) : 8 channels
Channel layout : L R C LFE Ls Rs Lb Rb
Sampling rate : 48.0 kHz
Frame rate : 1 200.000 FPS (40 SPF)
Compression mode : Lossless
Stream size : 5.77 GiB (42%)
Title : Atmos 7.1
Language : English
Default : Yes
Forced : No
Number of dynamic objects : 13
Bed channel count : 1 channel
Bed channel configuration : LFE

Audio #2
ID : 3
Format : AC-3
Format/Info : Audio Coding 3
Commercial name : Dolby Digital
Codec ID : A_AC3
Duration : 1 h 57 min
Bit rate mode : Constant
Bit rate : 640 kb/s
Channel(s) : 6 channels
Channel layout : L R C LFE Ls Rs
Sampling rate : 48.0 kHz
Frame rate : 31.250 FPS (1536 SPF)
Bit depth : 16 bits
Compression mode : Lossy
Stream size : 539 MiB (4%)
Title : AC-3 5.1
Language : English
Service kind : Complete Main
Default : No
Forced : No

Text #1
ID : 4
Format : UTF-8
Codec ID : S_TEXT/UTF8
Codec ID/Info : UTF-8 Plain Text
Duration : 1 h 54 min
Bit rate : 71 b/s
Count of elements : 2016
Stream size : 60.1 KiB (0%)
Title : Stripped SRT
Language : English
Default : No
Forced : No

Text #2
ID : 5
Format : UTF-8
Codec ID : S_TEXT/UTF8
Codec ID/Info : UTF-8 Plain Text
Duration : 1 h 54 min
Bit rate : 81 b/s
Count of elements : 2316
Stream size : 68.6 KiB (0%)
Title : SDH SRT
Language : English
Default : No
Forced : No

Text #3
ID : 6
Format : PGS
Muxing mode : zlib
Codec ID : S_HDMV/PGS
Codec ID/Info : Picture based subtitle format used on BDs/HD-DVDs
Duration : 1 h 57 min
Bit rate : 51.2 kb/s
Count of elements : 4636
Stream size : 42.9 MiB (0%)
Title : SDH
Language : English
Default : No
Forced : No

Text #4
ID : 7
Format : PGS
Muxing mode : zlib
Codec ID : S_HDMV/PGS
Codec ID/Info : Picture based subtitle format used on BDs/HD-DVDs
Duration : 1 h 57 min
Bit rate : 36.1 kb/s
Count of elements : 3522
Stream size : 30.2 MiB (0%)
Language : French
Default : No
Forced : No

Text #5
ID : 8
Format : PGS
Muxing mode : zlib
Codec ID : S_HDMV/PGS
Codec ID/Info : Picture based subtitle format used on BDs/HD-DVDs
Duration : 1 h 57 min
Bit rate : 39.6 kb/s
Count of elements : 3522
Stream size : 33.2 MiB (0%)
Language : Spanish
Default : No
Forced : No

Menu
00:00:00.000 : :00:00:00.000
00:03:22.327 : :00:03:22.327
00:08:53.616 : :00:08:53.616
00:09:36.784 : :00:09:36.784
00:13:38.276 : :00:13:38.276
00:15:44.735 : :00:15:44.735
00:21:19.737 : :00:21:19.737
00:23:28.282 : :00:23:28.282
00:27:08.794 : :00:27:08.794
00:28:59.571 : :00:28:59.571
00:35:10.900 : :00:35:10.900
00:39:07.845 : :00:39:07.845
00:42:43.894 : :00:42:43.894
00:43:42.411 : :00:43:42.411
00:47:35.352 : :00:47:35.352
00:48:53.889 : :00:48:53.889
00:54:15.585 : :00:54:15.585
00:56:16.039 : :00:56:16.039
01:00:58.696 : :01:00:58.696
01:02:01.884 : :01:02:01.884
01:06:55.511 : :01:06:55.511
01:09:18.237 : :01:09:18.237
01:11:28.200 : :01:11:28.200
01:12:37.686 : :01:12:37.686
01:14:39.266 : :01:14:39.266
01:18:00.967 : :01:18:00.967
01:20:32.536 : :01:20:32.536
01:25:01.930 : :01:25:01.930
01:27:59.440 : :01:27:59.440
01:31:53.924 : :01:31:53.924
01:33:26.434 : :01:33:26.434
01:36:25.237 : :01:36:25.237
01:37:45.192 : :01:37:45.192
01:43:56.897 : :01:43:56.897
01:45:35.912 : :01:45:35.912
01:47:30.902 : :01:47:30.902

Download

download 4k hdr movies download 4k hdr movies

Watch a movie trailer - Incredibles 2 4K 2018 Ultra HD 2160p
Comments and Feedback
Add your comment:
Your name:
Your E-Mail:
Code:
reload, if the code cannot be seen
Enter code: