Select movie Search movie Close search My Account

Hotel Transylvania 3: Summer Vacation 4K 2018 Ultra HD 2160p

Hotel Transylvania 3: Summer Vacation 4K 2018 Ultra HD 2160p
BDRemux / BDRip
Country: USA
Time: 1h 37min
IMDB: 6.3
Director: Genndy Tartakovsky
Actors: Adam Sandler, Andy Samberg, Selena Gomez, Kevin James, Fran Drescher, Steve Buscemi, Molly Shannon, David Spade, Keegan-Michael Key, Jim Gaffigan, Kathryn Hahn, Asher Blinkoff, Chris Parnell, Joe Jonas, Chrissy Teigen

Story Movie

Hotel Transylvania 3: Summer Vacation 4K 2018 Ultra HD 2160p
Hotel Transylvania 3: Summer Vacation UHD- they are with us again, and if it seems to you. that monsters are also on vacation. then you will be greatly mistaken. These bullies can not even live a second without exciting adventures and call their friends for it. The house of the most important monster of Dracula is sent along with all its inhabitants on a trip on a large cruise ship and will not give a quiet life to all its passengers the Hotel Transylvania 3: Summer Vacation download 4k content cartoon.

Review 4K Movie

Speaking about this film, I would like to say that at first it did not interest me at all. Yes, of course the trailer featured such names as Martin Scorsese and Leonardo DiCaprio, who have been working together for a very long time. All their joint films were worthy and worthy of attention. In general, after the rave reviews of my friends, I decided to go Hotel Transylvania 3: Summer Vacation 4k.

After watching the movie, I went out into the street, and my head was empty, only the images from the movie were spinning in my head. On so much, he impressed me! Almost all the components of the film were honed and adjusted to the smallest detail. But of course the director left the main surprise for last. The end of the film is so enchanting and unpredictable that after watching you realize that you have so many questions left and you want to get answers.

But now about the component of the film. The plot is pretty simple. Two US bailiffs are sent to one of the islands in Massachusetts to investigate the disappearance of the patient of the clinic for insane criminals. During the investigation, new and new riddles are opened up before them, the answers to which are not so easy to get Hotel Transylvania 3: Summer Vacation Uitra HD.

The storyline throughout the film twists like a spiral, sometimes not giving answers to what is happening on the screen, but when it reaches its apogee it spins up like a tangle slowly and gradually revealing the truth that lurked behind the shadow of doubt. But not all questions you get answers. And I liked this component the most. So you came out of the cinema and you go home, for example, and everyone thinks about the questions that are spinning and spinning in your head. You so want to know how everything really is. And suddenly you realize that you need to go again, because you so want to know the truth. And besides, going to the cinema in the second, you will be able to watch the movie from the other side, and suddenly there is a completely different meaning behind the various dialogues ...

Speaking of the acting ensemble, I would like to highlight the amazing and very convincing game of Leonardo DiCaprio. He has not once confirmed his status, the status of a serious and ambitious actor, who is not taken for the most simple pictures. In this film, he worked at 100%. After all, he passed the thinnest line between madness and self-control. I would like Hotel Transylvania 3: Summer Vacation download 4k content to say the same about Martin Scorsese. He is already a recognized master who never ceases to amaze us. He's like wine, every year it only gets better. Scorsese stunningly conveyed the atmosphere of the island where our main character was located. There is no peace in his soul, just like on the island. He seems to create an analogy between the mental state of the hero and his environment (sea, wind, etc.). And of course, the dreams of Tedi Daniels deserve special attention. It's just a find. His fears, the pain of anxiety, everything that he has in his subconsciousness pours out into dreams that are so mystical and inexplicable, and sometimes there were places that were terrible.

Camera work just on top. The film itself is not very dynamic, but the work of the operator and the director will not let us get bored.

The soundtrack is great, of course. In places where you need to designate tension moments or turn around to relax the viewer, the composer worked just fine.

As a result, we got a terrific atmospheric psychological thriller, with an unpredictable plot, excellent acting and director's work. This movie will make you squeeze into the chair ......

Mediainfo

movie BDRemux Video
ID : 1
Format : HEVC
Format/Info : High Efficiency Video Coding
Commercial name : HDR10
Format profile : Main 10@L5.1@High
Codec ID : V_MPEGH/ISO/HEVC
Duration : 1 h 37 min
Bit rate : 51.6 Mb/s
Width : 3 840 pixels
Height : 2 160 pixels
Display aspect ratio : 16:9
Frame rate mode : Constant
Frame rate : 23.976 (24000/1001) FPS
Color space : YUV
Chroma subsampling : 4:2:0 (Type 2)
Bit depth : 10 bits
Bits/(Pixel*Frame) : 0.259
Stream size : 35.1 GiB (89%)
Title : Hotel.Transylvania.3.Summer.Vacation.2018.2160p.BluRay.REMUX.HEVC.TrueHD.7.1.Atmos
Default : Yes
Forced : No
Color range : Limited
Color primaries : BT.2020
Transfer characteristics : PQ
Matrix coefficients : BT.2020 non-constant
Mastering display color primaries : Display P3
Mastering display luminance : min: 0.0001 cd/m2, max: 1000 cd/m2
Maximum Content Light Level : 1000 cd/m2
Maximum Frame-Average Light Level : 1000 cd/m2

Audio #1
ID : 2
Format : MLP FBA 16-ch
Format/Info : Meridian Lossless Packing FBA with 16-channel presentation
Commercial name : Dolby TrueHD with Dolby Atmos
Codec ID : A_TRUEHD
Duration : 1 h 37 min
Bit rate mode : Variable
Bit rate : 3 186 kb/s
Maximum bit rate : 4 224 kb/s
Channel(s) : 8 channels
Channel layout : L R C LFE Ls Rs Lb Rb
Sampling rate : 48.0 kHz
Frame rate : 1 200.000 FPS (40 SPF)
Compression mode : Lossless
Stream size : 2.17 GiB (5%)
Title : Hotel.Transylvania.3.Summer.Vacation.2018.2160p.BluRay.REMUX.HEVC.TrueHD.7.1.Atmos
Language : English
Default : Yes
Forced : No
Number of dynamic objects : 11
Bed channel count : 1 channel
Bed channel configuration : LFE

Audio #2
ID : 3
Format : AC-3
Format/Info : Audio Coding 3
Commercial name : Dolby Digital
Codec ID : A_AC3
Duration : 1 h 37 min
Bit rate mode : Constant
Bit rate : 640 kb/s
Channel(s) : 6 channels
Channel layout : L R C LFE Ls Rs
Sampling rate : 48.0 kHz
Frame rate : 31.250 FPS (1536 SPF)
Bit depth : 16 bits
Compression mode : Lossy
Stream size : 446 MiB (1%)
Language : English
Service kind : Complete Main
Default : No
Forced : No

Audio #3
ID : 4
Format : AC-3
Format/Info : Audio Coding 3
Commercial name : Dolby Digital
Codec ID : A_AC3
Duration : 1 h 37 min
Bit rate mode : Constant
Bit rate : 640 kb/s
Channel(s) : 6 channels
Channel layout : L R C LFE Ls Rs
Sampling rate : 48.0 kHz
Frame rate : 31.250 FPS (1536 SPF)
Bit depth : 16 bits
Compression mode : Lossy
Delay relative to video : 15 ms
Stream size : 446 MiB (1%)
Language : English
Service kind : Complete Main
Default : No
Forced : No

Audio #4
ID : 5
Format : AC-3
Format/Info : Audio Coding 3
Commercial name : Dolby Digital
Codec ID : A_AC3
Duration : 1 h 37 min
Bit rate mode : Constant
Bit rate : 640 kb/s
Channel(s) : 6 channels
Channel layout : L R C LFE Ls Rs
Sampling rate : 48.0 kHz
Frame rate : 31.250 FPS (1536 SPF)
Bit depth : 16 bits
Compression mode : Lossy
Delay relative to video : 15 ms
Stream size : 446 MiB (1%)
Language : French
Service kind : Complete Main
Default : No
Forced : No

Audio #5
ID : 6
Format : AC-3
Format/Info : Audio Coding 3
Commercial name : Dolby Digital
Codec ID : A_AC3
Duration : 1 h 37 min
Bit rate mode : Constant
Bit rate : 640 kb/s
Channel(s) : 6 channels
Channel layout : L R C LFE Ls Rs
Sampling rate : 48.0 kHz
Frame rate : 31.250 FPS (1536 SPF)
Bit depth : 16 bits
Compression mode : Lossy
Delay relative to video : 15 ms
Stream size : 446 MiB (1%)
Language : French
Service kind : Complete Main
Default : No
Forced : No

Audio #6
ID : 7
Format : AC-3
Format/Info : Audio Coding 3
Commercial name : Dolby Digital
Codec ID : A_AC3
Duration : 1 h 37 min
Bit rate mode : Constant
Bit rate : 640 kb/s
Channel(s) : 6 channels
Channel layout : L R C LFE Ls Rs
Sampling rate : 48.0 kHz
Frame rate : 31.250 FPS (1536 SPF)
Bit depth : 16 bits
Compression mode : Lossy
Delay relative to video : 15 ms
Stream size : 446 MiB (1%)
Language : Spanish
Service kind : Complete Main
Default : No
Forced : No

Text #1
ID : 8
Format : PGS
Muxing mode : zlib
Codec ID : S_HDMV/PGS
Codec ID/Info : Picture based subtitle format used on BDs/HD-DVDs
Duration : 1 h 30 min
Bit rate : 53.3 kb/s
Count of elements : 3259
Stream size : 34.6 MiB (0%)
Language : English
Default : Yes
Forced : No

Text #2
ID : 9
Format : PGS
Muxing mode : zlib
Codec ID : S_HDMV/PGS
Codec ID/Info : Picture based subtitle format used on BDs/HD-DVDs
Duration : 1 h 26 min
Bit rate : 36.5 kb/s
Count of elements : 2200
Stream size : 22.6 MiB (0%)
Language : English
Default : No
Forced : No

Text #3
ID : 10
Format : PGS
Muxing mode : zlib
Codec ID : S_HDMV/PGS
Codec ID/Info : Picture based subtitle format used on BDs/HD-DVDs
Duration : 1 h 36 min
Bit rate : 31.4 kb/s
Count of elements : 2090
Stream size : 21.8 MiB (0%)
Language : French
Default : No
Forced : No

Text #4
ID : 11
Format : PGS
Muxing mode : zlib
Codec ID : S_HDMV/PGS
Codec ID/Info : Picture based subtitle format used on BDs/HD-DVDs
Duration : 1 h 36 min
Bit rate : 32.2 kb/s
Count of elements : 2006
Stream size : 22.2 MiB (0%)
Language : Spanish
Default : No
Forced : No

Text #5
ID : 12
Format : PGS
Muxing mode : zlib
Codec ID : S_HDMV/PGS
Codec ID/Info : Picture based subtitle format used on BDs/HD-DVDs
Duration : 1 h 36 min
Bit rate : 84 b/s
Count of elements : 8
Stream size : 60.0 KiB (0%)
Language : French
Default : No
Forced : No

Menu
00:00:00.000 : :Chapter 1
00:04:28.935 : :Chapter 2
00:09:34.824 : :Chapter 3
00:16:02.044 : :Chapter 4
00:20:03.076 : :Chapter 5
00:24:34.931 : :Chapter 6
00:31:12.537 : :Chapter 7
00:36:49.206 : :Chapter 8
00:44:04.725 : :Chapter 9
00:49:57.702 : :Chapter 10
00:54:49.744 : :Chapter 11
01:00:34.881 : :Chapter 12
01:06:12.009 : :Chapter 13
01:10:32.269 : :Chapter 14
01:13:46.380 : :Chapter 15
01:24:56.549 : :Chapter 16
movie BDRip Video
ID : 1
Format : HEVC
Format/Info : High Efficiency Video Coding
Commercial name : HDR10
Format profile : Main 10@L5.1@High
Codec ID : V_MPEGH/ISO/HEVC
Duration : 1 h 37 min
Bit rate : 11.0 Mb/s
Width : 3 840 pixels
Height : 2 080 pixels
Display aspect ratio : 1.85:1
Frame rate mode : Constant
Frame rate : 23.976 (24000/1001) FPS
Color space : YUV
Chroma subsampling : 4:2:0 (Type 2)
Bit depth : 10 bits
Bits/(Pixel*Frame) : 0.057
Stream size : 7.48 GiB (73%)
Writing library : x265 2.8+10-703eade86b53:[Windows][MSVC 1914][64 bit] 10bit
Encoding settings : cpuid=1111039 / frame-threads=4 / numa-pools=20 / wpp / no-pmode / no-pme / no-psnr / no-ssim / log-level=2 / input-csp=1 / input-res=3840x2080 / interlace=0 / total-frames=140099 / level-idc=51 / high-tier=1 / uhd-bd=0 / ref=4 / no-allow-non-conformance / repeat-headers / annexb / aud / hrd / info / hash=0 / no-temporal-layers / no-open-gop / min-keyint=1 / keyint=24 / gop-lookahead=0 / bframes=4 / b-adapt=2 / b-pyramid / bframe-bias=0 / rc-lookahead=25 / lookahead-slices=4 / scenecut=40 / radl=0 / no-intra-refresh / ctu=64 / min-cu-size=8 / rect / no-amp / max-tu-size=32 / tu-inter-depth=1 / tu-intra-depth=1 / limit-tu=0 / rdoq-level=2 / dynamic-rd=0.00 / no-ssim-rd / signhide / no-tskip / nr-intra=0 / nr-inter=0 / no-constrained-intra / no-strong-intra-smoothing / max-merge=3 / limit-refs=3 / limit-modes / me=3 / subme=3 / merange=57 / temporal-mvp / weightp / no-weightb / no-analyze-src-pics / deblock=-3:-3 / no-sao / no-sao-non-deblock / rd=4 / no-early-skip / rskip / no-fast-intra / no-tskip-fast / no-cu-lossless / no-b-intra / no-splitrd-skip / rdpenalty=0 / psy-rd=2.00 / psy-rdoq=1.00 / no-rd-refine / no-lossless / cbqpoffs=0 / crqpoffs=0 / rc=crf / crf=17.0 / qcomp=0.60 / qpstep=4 / stats-write=0 / stats-read=0 / vbv-maxrate=160000 / vbv-bufsize=160000 / vbv-init=0.9 / crf-max=0.0 / crf-min=0.0 / ipratio=1.40 / pbratio=1.30 / aq-mode=1 / aq-strength=1.00 / cutree / zone-count=0 / no-strict-cbr / qg-size=32 / no-rc-grain / qpmax=69 / qpmin=0 / no-const-vbv / sar=1 / overscan=0 / videoformat=5 / range=0 / colorprim=9 / transfer=16 / colormatrix=9 / chromaloc=1 / chromaloc-top=2 / chromaloc-bottom=2 / display-window=0 / master-display=G(13250,34500)B(7500,3000)R(34000,16000)WP(15635,16450)L(10000000,1) / max-cll=1000,1000 / min-luma=0 / max-luma=1023 / log2-max-poc-lsb=8 / vui-timing-info / vui-hrd-info / slices=1 / no-opt-qp-pps / no-opt-ref-list-length-pps / no-multi-pass-opt-rps / scenecut-bias=0.05 / no-opt-cu-delta-qp / no-aq-motion / hdr / hdr-opt / no-dhdr10-opt / no-idr-recovery-sei / analysis-reuse-level=5 / scale-factor=0 / refine-intra=0 / refine-inter=0 / refine-mv=0 / no-limit-sao / ctu-info=0 / no-lowpass-dct / refine-mv-type=0 / copy-pic=1 / max-ausize-factor=1.0 / no-dynamic-refine / no-single-sei
Default : Yes
Forced : No
Color range : Limited
Color primaries : BT.2020
Transfer characteristics : PQ
Matrix coefficients : BT.2020 non-constant
Mastering display color primaries : Display P3
Mastering display luminance : min: 0.0001 cd/m2, max: 1000 cd/m2
Maximum Content Light Level : 1000 cd/m2
Maximum Frame-Average Light Level : 1000 cd/m2

Audio #1
ID : 2
Format : MLP FBA 16-ch
Format/Info : Meridian Lossless Packing FBA with 16-channel presentation
Commercial name : Dolby TrueHD with Dolby Atmos
Codec ID : A_TRUEHD
Duration : 1 h 37 min
Bit rate mode : Variable
Bit rate : 3 186 kb/s
Maximum bit rate : 4 224 kb/s
Channel(s) : 8 channels
Channel layout : L R C LFE Ls Rs Lb Rb
Sampling rate : 48.0 kHz
Frame rate : 1 200.000 FPS (40 SPF)
Compression mode : Lossless
Stream size : 2.17 GiB (21%)
Language : English
Default : Yes
Forced : No
Number of dynamic objects : 11
Bed channel count : 1 channel
Bed channel configuration : LFE

Audio #2
ID : 3
Format : AC-3
Format/Info : Audio Coding 3
Commercial name : Dolby Digital
Codec ID : A_AC3
Duration : 1 h 37 min
Bit rate mode : Constant
Bit rate : 640 kb/s
Channel(s) : 6 channels
Channel layout : L R C LFE Ls Rs
Sampling rate : 48.0 kHz
Frame rate : 31.250 FPS (1536 SPF)
Bit depth : 16 bits
Compression mode : Lossy
Stream size : 446 MiB (4%)
Language : English
Service kind : Complete Main
Default : No
Forced : No

Text #1
ID : 4
Format : PGS
Muxing mode : zlib
Codec ID : S_HDMV/PGS
Codec ID/Info : Picture based subtitle format used on BDs/HD-DVDs
Duration : 1 h 30 min
Bit rate : 53.3 kb/s
Count of elements : 3259
Stream size : 34.6 MiB (0%)
Title : English SDH
Language : English
Default : No
Forced : No

Text #2
ID : 5
Format : PGS
Muxing mode : zlib
Codec ID : S_HDMV/PGS
Codec ID/Info : Picture based subtitle format used on BDs/HD-DVDs
Duration : 1 h 26 min
Bit rate : 36.5 kb/s
Count of elements : 2200
Stream size : 22.6 MiB (0%)
Language : English
Default : No
Forced : No

Text #3
ID : 6
Format : PGS
Muxing mode : zlib
Codec ID : S_HDMV/PGS
Codec ID/Info : Picture based subtitle format used on BDs/HD-DVDs
Duration : 1 h 36 min
Bit rate : 31.4 kb/s
Count of elements : 2090
Stream size : 21.8 MiB (0%)
Language : French
Default : No
Forced : No

Text #4
ID : 7
Format : PGS
Muxing mode : zlib
Codec ID : S_HDMV/PGS
Codec ID/Info : Picture based subtitle format used on BDs/HD-DVDs
Duration : 1 h 36 min
Bit rate : 32.2 kb/s
Count of elements : 2006
Stream size : 22.2 MiB (0%)
Language : Spanish
Default : No
Forced : No

Menu
00:00:00.000 : :00:00:00.000
00:04:28.935 : :00:04:28.935
00:09:34.824 : :00:09:34.824
00:16:02.044 : :00:16:02.044
00:20:03.077 : :00:20:03.077
00:24:34.932 : :00:24:34.932
00:31:12.537 : :00:31:12.537
00:36:49.207 : :00:36:49.207
00:44:04.725 : :00:44:04.725
00:49:57.703 : :00:49:57.703
00:54:49.745 : :00:54:49.745
01:00:34.881 : :01:00:34.881
01:06:12.010 : :01:06:12.010
01:10:32.270 : :01:10:32.270
01:13:46.380 : :01:13:46.380
01:24:56.550 : :01:24:56.550

Download

download 4k hdr movies download 4k hdr movies

Watch a movie trailer - Hotel Transylvania 3: Summer Vacation 4K 2018 Ultra HD 2160p
Comments and Feedback
Add your comment:
Your name:
Your E-Mail:
Code:
reload, if the code cannot be seen
Enter code: