Select movie Search movie Close search My Account

The Angry Birds Movie 2 4K 2019 Ultra HD 2160p

The Angry Birds Movie 2 4K 2019 Ultra HD 2160p
BDRemux / BDRip
Country: Finland | USA
Time: 1h 37min
IMDB: 6.4
Director: Thurop Van Orman, John Rice
Actors: Jason Sudeikis, Josh Gad, Leslie Jones, Bill Hader, Rachel Bloom, Awkwafina, Sterling K. Brown, Eugenio Derbez, Tiffany Haddish, Danny McBride, Peter Dinklage, Pete Davidson, Zach Woods, Dove Cameron, Maya Rudolph.

Story Movie

The Angry Birds Movie 2 4K 2019 Ultra HD 2160p

Samsung 4k content download The Angry Birds Movie 2 2160p. The islands of birds and green pigs are in a regime of lazy firefight when they have a new enemy - Zeta, the leader of the inhabitants of the third, ice island. She was sick and tired of living in permafrost, so the villain is developing an insidious plan to capture the neighboring tropical islands. Birds and pigs are united against a sudden threat, and at this time three fluffy chicks, playing on the shore, accidentally send three eggs to the ocean voyage.

Review 4K Movie

Many years ago there was a boom! Rovio released Angry Birds and broke the mobile entertainment market. Every smartphone had this wonderful game. Years passed, new parts of the bird’s hit came out, millions of merchants were sold, and as a result, the feathered boom reached large screens. In 2016, the first part of “Angry Birds in the Movies” was released and was moderately accepted, but overall it was quite inventive, beautiful, and it worked pretty well. Three years later, a second bird flies.

“Angry Birds 2 4K” continues the story of its predecessor. After the events of the first part, the main character of Red is adored by all the inhabitants of the island of birds. Red and his comrades continue the war with touching pigs, but a new enemy is looming on the horizon, to defeat which it is necessary to create an alliance with green pigs. And away we go. Although the characters are worn only the first 15-20 minutes, when the picture is really filled with actions. The beginning of the cartoon is surprisingly peppy, one small event gives way to another, jokes tear the stomachs of small viewers, and the characters interact with a bright environment. But as soon as the eagles (guys from the eagle island, and the island itself, new enemies) appear, the cartoon begins to gradually fade. Because the plot is so maximally clichéd (although there is nothing terrible or surprising), and without the confrontation of birds and pigs, the whole concept collapses.

The war of pigs and birds is at the head of the entire Angry Birds brand (originally it was excellent gameplay, but those were too distant times). Take away from the Star Wars (at one time birds and climbed in there) the confrontation of the Jedi and the Sith, and it will become boring. The authors of Angry Birds 2 2160p did just that. Eagles, along with their purple feminist leader, aren't talking about anything. They are stupid, have no background in the Angry universe, and are also disgustingly designed. The main villain looks like a girl’s pen with feathers, and her minions are indistinguishable gray mattresses (except for the guy with the feather press). But the designers decided to make it even worse and threw all this rabble into gray-blue decorations interspersed with disgustingly caustic turquoise and pink flint-sticks. Such disgusting backdrops in high-budget cartoons pretending to be large gatherings have not been since the last "Ice Age".

Characters remain caricatured clowns as before. But this is quite normal within the genre. They added a couple of cool pigs (one Lebowski cosplay), dumb eagles, and three chicks. Chicks, by the way, could become new stars, they are funny, cute, and they are the least stupid. The inserts with this trinity add variety to the everyday plot of the picture, but by the middle they completely forget about them and return to the game only in the ending itself.

In general, the cartoon is digestible. The animation is wonderful, the music is level, the birds are evil. You can get a crumb of pleasure from him, but his sterility repels. The first part was extremely ambiguous, it contained both minor flaws and big mistakes, but it felt like something made by hands. They tried to weave (and in some places very nice) a lot of elements from the game universe. The second picture is categorically not enough. It is as if made of stamps, her soul belongs to the producers.

"Angry Birds 2 UHD" is a producer item, like a semi-finished product. A cartoon made according to the precepts of the masters, but not by the masters, but by some kind of muddlers who, by the end, lose their blueprints and sculpt a complete gag. If you look with one eye to the side (it’s the same as there: a friend, popcorn, a window, a wall), and with the other at the screen, it may come in.

Mediainfo

movie BDRemux Video ID : 1 Format : HEVC Format/Info : High Efficiency Video Coding Format profile : Main 10@L5.1@High HDR format : SMPTE ST 2086, HDR10 compatible Codec ID : V_MPEGH/ISO/HEVC Duration : 1 h 36 min Bit rate : 49.7 Mb/s Width : 3 840 pixels Height : 2 160 pixels Display aspect ratio : 16:9 Frame rate mode : Constant Frame rate : 23.976 (24000/1001) FPS Color space : YUV Chroma subsampling : 4:2:0 (Type 2) Bit depth : 10 bits Bits/(Pixel*Frame) : 0.250 Stream size : 33.6 GiB (75%) Title : The.Angry.Birds.Movie.2.2019.2160p.BluRay.REMUX.HEVC.DTS-X.7.1 Language : English Default : No Forced : No Color range : Limited Color primaries : BT.2020 Transfer characteristics : PQ Matrix coefficients : BT.2020 non-constant Mastering display color primaries : Display P3 Mastering display luminance : min: 0.0050 cd/m2, max: 4000 cd/m2 Maximum Content Light Level : 1001 cd/m2 Maximum Frame-Average Light Level : 640 cd/m2 Audio #1 ID : 2 Format : DTS XLL Format/Info : Digital Theater Systems Commercial name : DTS-HD Master Audio Codec ID : A_DTS Duration : 1 h 36 min Bit rate mode : Variable Bit rate : 5 328 kb/s Channel(s) : 8 channels Channel layout : C L R LFE Lb Rb Lss Rss Sampling rate : 48.0 kHz Frame rate : 93.750 FPS (512 SPF) Bit depth : 24 bits Compression mode : Lossless Stream size : 3.60 GiB (8%) Title : The.Angry.Birds.Movie.2.2019.2160p.BluRay.REMUX.HEVC.DTS-X.7.1 Language : English Default : Yes Forced : No Audio #2 ID : 3 Format : AC-3 Format/Info : Audio Coding 3 Commercial name : Dolby Digital Codec ID : A_AC3 Duration : 1 h 36 min Bit rate mode : Constant Bit rate : 640 kb/s Channel(s) : 6 channels Channel layout : L R C LFE Ls Rs Sampling rate : 48.0 kHz Frame rate : 31.250 FPS (1536 SPF) Bit depth : 16 bits Compression mode : Lossy Stream size : 443 MiB (1%) Title : The.Angry.Birds.Movie.2.2019.2160p.BluRay.REMUX.HEVC.DTS-X.7.1 Language : English Service kind : Complete Main Default : No Forced : No Audio #3 ID : 4 Format : AC-3 Format/Info : Audio Coding 3 Commercial name : Dolby Digital Codec ID : A_AC3 Duration : 1 h 36 min Bit rate mode : Constant Bit rate : 640 kb/s Channel(s) : 6 channels Channel layout : L R C LFE Ls Rs Sampling rate : 48.0 kHz Frame rate : 31.250 FPS (1536 SPF) Bit depth : 16 bits Compression mode : Lossy Stream size : 443 MiB (1%) Title : The.Angry.Birds.Movie.2.2019.2160p.BluRay.REMUX.HEVC.DTS-X.7.1 Language : Chinese Service kind : Complete Main Default : No Forced : No Audio #4 ID : 5 Format : AC-3 Format/Info : Audio Coding 3 Commercial name : Dolby Digital Codec ID : A_AC3 Duration : 1 h 36 min Bit rate mode : Constant Bit rate : 640 kb/s Channel(s) : 6 channels Channel layout : L R C LFE Ls Rs Sampling rate : 48.0 kHz Frame rate : 31.250 FPS (1536 SPF) Bit depth : 16 bits Compression mode : Lossy Stream size : 443 MiB (1%) Title : The.Angry.Birds.Movie.2.2019.2160p.BluRay.REMUX.HEVC.DTS-X.7.1 Language : Catalan Service kind : Complete Main Default : No Forced : No Audio #5 ID : 6 Format : AC-3 Format/Info : Audio Coding 3 Commercial name : Dolby Digital Codec ID : A_AC3 Duration : 1 h 36 min Bit rate mode : Constant Bit rate : 640 kb/s Channel(s) : 6 channels Channel layout : L R C LFE Ls Rs Sampling rate : 48.0 kHz Frame rate : 31.250 FPS (1536 SPF) Bit depth : 16 bits Compression mode : Lossy Stream size : 443 MiB (1%) Title : The.Angry.Birds.Movie.2.2019.2160p.BluRay.REMUX.HEVC.DTS-X.7.1 Language : Dutch Service kind : Complete Main Default : No Forced : No Audio #6 ID : 7 Format : AC-3 Format/Info : Audio Coding 3 Commercial name : Dolby Digital Codec ID : A_AC3 Duration : 1 h 36 min Bit rate mode : Constant Bit rate : 640 kb/s Channel(s) : 6 channels Channel layout : L R C LFE Ls Rs Sampling rate : 48.0 kHz Frame rate : 31.250 FPS (1536 SPF) Bit depth : 16 bits Compression mode : Lossy Stream size : 443 MiB (1%) Title : The.Angry.Birds.Movie.2.2019.2160p.BluRay.REMUX.HEVC.DTS-X.7.1 Language : Dutch Service kind : Complete Main Default : No Forced : No Audio #7 ID : 8 Format : AC-3 Format/Info : Audio Coding 3 Commercial name : Dolby Digital Codec ID : A_AC3 Duration : 1 h 36 min Bit rate mode : Constant Bit rate : 640 kb/s Channel(s) : 6 channels Channel layout : L R C LFE Ls Rs Sampling rate : 48.0 kHz Frame rate : 31.250 FPS (1536 SPF) Bit depth : 16 bits Compression mode : Lossy Stream size : 443 MiB (1%) Title : The.Angry.Birds.Movie.2.2019.2160p.BluRay.REMUX.HEVC.DTS-X.7.1 Language : French Service kind : Complete Main Default : No Forced : No Audio #8 ID : 9 Format : AC-3 Format/Info : Audio Coding 3 Commercial name : Dolby Digital Codec ID : A_AC3 Duration : 1 h 36 min Bit rate mode : Constant Bit rate : 640 kb/s Channel(s) : 6 channels Channel layout : L R C LFE Ls Rs Sampling rate : 48.0 kHz Frame rate : 31.250 FPS (1536 SPF) Bit depth : 16 bits Compression mode : Lossy Stream size : 443 MiB (1%) Title : The.Angry.Birds.Movie.2.2019.2160p.BluRay.REMUX.HEVC.DTS-X.7.1 Language : French Service kind : Complete Main Default : No Forced : No Audio #9 ID : 10 Format : AC-3 Format/Info : Audio Coding 3 Commercial name : Dolby Digital Codec ID : A_AC3 Duration : 1 h 36 min Bit rate mode : Constant Bit rate : 640 kb/s Channel(s) : 6 channels Channel layout : L R C LFE Ls Rs Sampling rate : 48.0 kHz Frame rate : 31.250 FPS (1536 SPF) Bit depth : 16 bits Compression mode : Lossy Stream size : 443 MiB (1%) Title : The.Angry.Birds.Movie.2.2019.2160p.BluRay.REMUX.HEVC.DTS-X.7.1 Language : French Service kind : Complete Main Default : No Forced : No Audio #10 ID : 11 Format : AC-3 Format/Info : Audio Coding 3 Commercial name : Dolby Digital Codec ID : A_AC3 Duration : 1 h 36 min Bit rate mode : Constant Bit rate : 640 kb/s Channel(s) : 6 channels Channel layout : L R C LFE Ls Rs Sampling rate : 48.0 kHz Frame rate : 31.250 FPS (1536 SPF) Bit depth : 16 bits Compression mode : Lossy Stream size : 443 MiB (1%) Title : The.Angry.Birds.Movie.2.2019.2160p.BluRay.REMUX.HEVC.DTS-X.7.1 Language : Korean Service kind : Complete Main Default : No Forced : No Audio #11 ID : 12 Format : AC-3 Format/Info : Audio Coding 3 Commercial name : Dolby Digital Codec ID : A_AC3 Duration : 1 h 36 min Bit rate mode : Constant Bit rate : 640 kb/s Channel(s) : 6 channels Channel layout : L R C LFE Ls Rs Sampling rate : 48.0 kHz Frame rate : 31.250 FPS (1536 SPF) Bit depth : 16 bits Compression mode : Lossy Stream size : 443 MiB (1%) Title : The.Angry.Birds.Movie.2.2019.2160p.BluRay.REMUX.HEVC.DTS-X.7.1 Language : Chinese Service kind : Complete Main Default : No Forced : No Audio #12 ID : 13 Format : AC-3 Format/Info : Audio Coding 3 Commercial name : Dolby Digital Codec ID : A_AC3 Duration : 1 h 36 min Bit rate mode : Constant Bit rate : 640 kb/s Channel(s) : 6 channels Channel layout : L R C LFE Ls Rs Sampling rate : 48.0 kHz Frame rate : 31.250 FPS (1536 SPF) Bit depth : 16 bits Compression mode : Lossy Stream size : 443 MiB (1%) Title : The.Angry.Birds.Movie.2.2019.2160p.BluRay.REMUX.HEVC.DTS-X.7.1 Language : Chinese Service kind : Complete Main Default : No Forced : No Audio #13 ID : 14 Format : AC-3 Format/Info : Audio Coding 3 Commercial name : Dolby Digital Codec ID : A_AC3 Duration : 1 h 36 min Bit rate mode : Constant Bit rate : 640 kb/s Channel(s) : 6 channels Channel layout : L R C LFE Ls Rs Sampling rate : 48.0 kHz Frame rate : 31.250 FPS (1536 SPF) Bit depth : 16 bits Compression mode : Lossy Stream size : 443 MiB (1%) Title : The.Angry.Birds.Movie.2.2019.2160p.BluRay.REMUX.HEVC.DTS-X.7.1 Language : Portuguese Service kind : Complete Main Default : No Forced : No Audio #14 ID : 15 Format : DTS XLL Format/Info : Digital Theater Systems Commercial name : DTS-HD Master Audio Codec ID : A_DTS Duration : 1 h 36 min Bit rate mode : Variable Bit rate : 2 307 kb/s Channel(s) : 6 channels Channel layout : C L R Ls Rs LFE Sampling rate : 48.0 kHz Frame rate : 93.750 FPS (512 SPF) Bit depth : 16 bits Compression mode : Lossless Stream size : 1.56 GiB (3%) Title : The.Angry.Birds.Movie.2.2019.2160p.BluRay.REMUX.HEVC.DTS-X.7.1 Language : Spanish Default : No Forced : No Audio #15 ID : 16 Format : AC-3 Format/Info : Audio Coding 3 Commercial name : Dolby Digital Codec ID : A_AC3 Duration : 1 h 36 min Bit rate mode : Constant Bit rate : 640 kb/s Channel(s) : 6 channels Channel layout : L R C LFE Ls Rs Sampling rate : 48.0 kHz Frame rate : 31.250 FPS (1536 SPF) Bit depth : 16 bits Compression mode : Lossy Stream size : 443 MiB (1%) Title : The.Angry.Birds.Movie.2.2019.2160p.BluRay.REMUX.HEVC.DTS-X.7.1 Language : Spanish Service kind : Complete Main Default : No Forced : No Text #1 ID : 17 Format : UTF-8 Codec ID : S_TEXT/UTF8 Codec ID/Info : UTF-8 Plain Text Duration : 4 s 87 ms Bit rate : 68 b/s Count of elements : 2 Stream size : 35.0 Bytes (0%) Title : English-FORCED-SRT Language : English Default : Yes Forced : Yes Text #2 ID : 18 Format : UTF-8 Codec ID : S_TEXT/UTF8 Codec ID/Info : UTF-8 Plain Text Duration : 1 h 33 min Bit rate : 73 b/s Count of elements : 1791 Stream size : 50.2 KiB (0%) Title : English-SRT Language : English Default : No Forced : No Text #3 ID : 19 Format : PGS Muxing mode : zlib Codec ID : S_HDMV/PGS Codec ID/Info : Picture based subtitle format used on BDs/HD-DVDs Duration : 1 h 34 min Bit rate : 48.6 kb/s Count of elements : 3518 Stream size : 32.9 MiB (0%) Title : English-SDH-PGS Language : English Default : No Forced : No Text #4 ID : 20 Format : PGS Muxing mode : zlib Codec ID : S_HDMV/PGS Codec ID/Info : Picture based subtitle format used on BDs/HD-DVDs Duration : 4 s 45 ms Bit rate : 31.6 kb/s Count of elements : 4 Stream size : 15.6 KiB (0%) Title : English-FORCED-PGS Language : English Default : No Forced : No Text #5 ID : 21 Format : PGS Muxing mode : zlib Codec ID : S_HDMV/PGS Codec ID/Info : Picture based subtitle format used on BDs/HD-DVDs Duration : 1 h 27 min Bit rate : 40.8 kb/s Count of elements : 2646 Stream size : 25.5 MiB (0%) Title : English-PGS Language : English Default : No Forced : No Text #6 ID : 22 Format : PGS Muxing mode : zlib Codec ID : S_HDMV/PGS Codec ID/Info : Picture based subtitle format used on BDs/HD-DVDs Duration : 1 h 36 min Bit rate : 30.2 kb/s Count of elements : 2768 Stream size : 20.8 MiB (0%) Title : Khamer-PGS Language : Khmer Default : No Forced : No Text #7 ID : 23 Format : PGS Muxing mode : zlib Codec ID : S_HDMV/PGS Codec ID/Info : Picture based subtitle format used on BDs/HD-DVDs Duration : 4 s 129 ms Bit rate : 48.5 kb/s Count of elements : 4 Stream size : 24.4 KiB (0%) Title : Khamer-FORCED-PGS Language : Khmer Default : No Forced : No Text #8 ID : 24 Format : PGS Muxing mode : zlib Codec ID : S_HDMV/PGS Codec ID/Info : Picture based subtitle format used on BDs/HD-DVDs Duration : 1 h 36 min Bit rate : 28.0 kb/s Count of elements : 2776 Stream size : 19.2 MiB (0%) Title : Chinese-PGS Language : Chinese Default : No Forced : No Text #9 ID : 25 Format : PGS Muxing mode : zlib Codec ID : S_HDMV/PGS Codec ID/Info : Picture based subtitle format used on BDs/HD-DVDs Duration : 4 s 129 ms Bit rate : 31.6 kb/s Count of elements : 4 Stream size : 15.9 KiB (0%) Title : Chinese-FORCED-PGS Language : Chinese Default : No Forced : No Text #10 ID : 26 Format : PGS Muxing mode : zlib Codec ID : S_HDMV/PGS Codec ID/Info : Picture based subtitle format used on BDs/HD-DVDs Duration : 1 h 36 min Bit rate : 30.1 kb/s Count of elements : 2800 Stream size : 20.7 MiB (0%) Title : Chinese-PGS Language : Chinese Default : No Forced : No Text #11 ID : 27 Format : PGS Muxing mode : zlib Codec ID : S_HDMV/PGS Codec ID/Info : Picture based subtitle format used on BDs/HD-DVDs Duration : 1 h 36 min Bit rate : 672 b/s Count of elements : 100 Stream size : 473 KiB (0%) Title : Chinese-FORCED-PGS Language : Chinese Default : No Forced : No Text #12 ID : 28 Format : PGS Muxing mode : zlib Codec ID : S_HDMV/PGS Codec ID/Info : Picture based subtitle format used on BDs/HD-DVDs Duration : 1 h 36 min Bit rate : 28.6 kb/s Count of elements : 2782 Stream size : 19.6 MiB (0%) Title : Chinese-PGS Language : Chinese Default : No Forced : No Text #13 ID : 29 Format : PGS Muxing mode : zlib Codec ID : S_HDMV/PGS Codec ID/Info : Picture based subtitle format used on BDs/HD-DVDs Duration : 4 s 45 ms Bit rate : 59.7 kb/s Count of elements : 4 Stream size : 29.5 KiB (0%) Title : Chinese-PGS Language : Chinese Default : No Forced : No Text #14 ID : 30 Format : PGS Muxing mode : zlib Codec ID : S_HDMV/PGS Codec ID/Info : Picture based subtitle format used on BDs/HD-DVDs Duration : 1 h 36 min Bit rate : 29.5 kb/s Count of elements : 2079 Stream size : 20.3 MiB (0%) Title : Dutch-PGS Language : Dutch Default : No Forced : No Text #15 ID : 31 Format : PGS Muxing mode : zlib Codec ID : S_HDMV/PGS Codec ID/Info : Picture based subtitle format used on BDs/HD-DVDs Duration : 1 h 18 min Bit rate : 177 b/s Count of elements : 16 Stream size : 102 KiB (0%) Title : Dutch-FORCED-PGS Language : Dutch Default : No Forced : No Text #16 ID : 32 Format : PGS Muxing mode : zlib Codec ID : S_HDMV/PGS Codec ID/Info : Picture based subtitle format used on BDs/HD-DVDs Duration : 1 h 36 min Bit rate : 31.1 kb/s Count of elements : 2692 Stream size : 21.4 MiB (0%) Title : French-PGS Language : French Default : No Forced : No Text #17 ID : 33 Format : PGS Muxing mode : zlib Codec ID : S_HDMV/PGS Codec ID/Info : Picture based subtitle format used on BDs/HD-DVDs Duration : 1 h 36 min Bit rate : 292 b/s Count of elements : 30 Stream size : 206 KiB (0%) Title : French-FORCED-PGS Language : French Default : No Forced : No Text #18 ID : 34 Format : PGS Muxing mode : zlib Codec ID : S_HDMV/PGS Codec ID/Info : Picture based subtitle format used on BDs/HD-DVDs Duration : 1 h 36 min Bit rate : 35.8 kb/s Count of elements : 2706 Stream size : 24.6 MiB (0%) Title : Indonesian-PGS Language : Indonesian Default : No Forced : No Text #19 ID : 35 Format : PGS Muxing mode : zlib Codec ID : S_HDMV/PGS Codec ID/Info : Picture based subtitle format used on BDs/HD-DVDs Duration : 4 s 129 ms Bit rate : 39.0 kb/s Count of elements : 4 Stream size : 19.7 KiB (0%) Title : Indonesian-FORCED-PGS Language : Indonesian Default : No Forced : No Text #20 ID : 36 Format : PGS Muxing mode : zlib Codec ID : S_HDMV/PGS Codec ID/Info : Picture based subtitle format used on BDs/HD-DVDs Duration : 1 h 35 min Bit rate : 26.5 kb/s Count of elements : 2791 Stream size : 18.2 MiB (0%) Title : Korean-PGS Language : Korean Default : No Forced : No Text #21 ID : 37 Format : PGS Muxing mode : zlib Codec ID : S_HDMV/PGS Codec ID/Info : Picture based subtitle format used on BDs/HD-DVDs Duration : 4 s 129 ms Bit rate : 42.0 kb/s Count of elements : 4 Stream size : 21.2 KiB (0%) Title : Korean-FORCED-PGS Language : Korean Default : No Forced : No Text #22 ID : 38 Format : PGS Muxing mode : zlib Codec ID : S_HDMV/PGS Codec ID/Info : Picture based subtitle format used on BDs/HD-DVDs Duration : 1 h 36 min Bit rate : 42.0 kb/s Count of elements : 2782 Stream size : 28.9 MiB (0%) Title : Malay-PGS Language : Malay Default : No Forced : No Text #23 ID : 39 Format : PGS Muxing mode : zlib Codec ID : S_HDMV/PGS Codec ID/Info : Picture based subtitle format used on BDs/HD-DVDs Duration : 4 s 129 ms Bit rate : 62.1 kb/s Count of elements : 4 Stream size : 31.3 KiB (0%) Title : Malay-FORCED-PGS Language : Malay Default : No Forced : No Text #24 ID : 40 Format : PGS Muxing mode : zlib Codec ID : S_HDMV/PGS Codec ID/Info : Picture based subtitle format used on BDs/HD-DVDs Duration : 1 h 36 min Bit rate : 35.3 kb/s Count of elements : 2744 Stream size : 24.3 MiB (0%) Title : Portuguese-PGS Language : Portuguese Default : No Forced : No Text #25 ID : 41 Format : PGS Muxing mode : zlib Codec ID : S_HDMV/PGS Codec ID/Info : Picture based subtitle format used on BDs/HD-DVDs Duration : 1 h 36 min Bit rate : 395 b/s Count of elements : 36 Stream size : 278 KiB (0%) Title : Portuguese-FORCED-PGS Language : Portuguese Default : No Forced : No Text #26 ID : 42 Format : PGS Muxing mode : zlib Codec ID : S_HDMV/PGS Codec ID/Info : Picture based subtitle format used on BDs/HD-DVDs Duration : 1 h 36 min Bit rate : 33.7 kb/s Count of elements : 2667 Stream size : 23.1 MiB (0%) Title : Spanish-PGS Language : Spanish Default : No Forced : No Text #27 ID : 43 Format : PGS Muxing mode : zlib Codec ID : S_HDMV/PGS Codec ID/Info : Picture based subtitle format used on BDs/HD-DVDs Duration : 1 h 36 min Bit rate : 308 b/s Count of elements : 34 Stream size : 217 KiB (0%) Title : Spanish-FORCED-PGS Language : Spanish Default : No Forced : No Text #28 ID : 44 Format : PGS Muxing mode : zlib Codec ID : S_HDMV/PGS Codec ID/Info : Picture based subtitle format used on BDs/HD-DVDs Duration : 1 h 36 min Bit rate : 35.8 kb/s Count of elements : 2738 Stream size : 24.6 MiB (0%) Title : Spanish-PGS Language : Spanish Default : No Forced : No Text #29 ID : 45 Format : PGS Muxing mode : zlib Codec ID : S_HDMV/PGS Codec ID/Info : Picture based subtitle format used on BDs/HD-DVDs Duration : 1 h 36 min Bit rate : 390 b/s Count of elements : 36 Stream size : 275 KiB (0%) Title : Spanish-FORCED-PGS Language : Spanish Default : No Forced : No Text #30 ID : 46 Format : PGS Muxing mode : zlib Codec ID : S_HDMV/PGS Codec ID/Info : Picture based subtitle format used on BDs/HD-DVDs Duration : 1 h 36 min Bit rate : 43.7 kb/s Count of elements : 2762 Stream size : 30.0 MiB (0%) Title : Vietnamese-PGS Language : Vietnamese Default : No Forced : No Text #31 ID : 47 Format : PGS Muxing mode : zlib Codec ID : S_HDMV/PGS Codec ID/Info : Picture based subtitle format used on BDs/HD-DVDs Duration : 4 s 129 ms Bit rate : 50.6 kb/s Count of elements : 4 Stream size : 25.5 KiB (0%) Title : Vietnamese-FORCED-PGS Language : Vietnamese Default : No Forced : No Text #32 ID : 48 Format : PGS Muxing mode : zlib Codec ID : S_HDMV/PGS Codec ID/Info : Picture based subtitle format used on BDs/HD-DVDs Duration : 1 h 36 min Bit rate : 563 b/s Count of elements : 48 Stream size : 396 KiB (0%) Title : French-FORCED-PGS Language : French Default : No Forced : No Text #33 ID : 49 Format : PGS Muxing mode : zlib Codec ID : S_HDMV/PGS Codec ID/Info : Picture based subtitle format used on BDs/HD-DVDs Duration : 1 h 36 min Bit rate : 563 b/s Count of elements : 48 Stream size : 396 KiB (0%) Title : French-FORCED-PGS Language : French Default : No Forced : No Menu 00:00:00.000 : en:Chapter 01 00:05:19.485 : en:Chapter 02 00:12:05.891 : en:Chapter 03 00:18:52.297 : en:Chapter 04 00:24:11.700 : en:Chapter 05 00:28:46.433 : en:Chapter 06 00:34:48.336 : en:Chapter 07 00:40:09.865 : en:Chapter 08 00:47:10.953 : en:Chapter 09 00:52:56.381 : en:Chapter 10 00:58:04.522 : en:Chapter 11 01:04:35.913 : en:Chapter 12 01:09:55.649 : en:Chapter 13 01:15:40.285 : en:Chapter 14 01:21:11.116 : en:Chapter 15 01:26:26.931 : en:Chapter 16
movie BDRip Video
ID : 1
Format : HEVC
Format/Info : High Efficiency Video Coding
Format profile : Main 10@L5.1@High
HDR format : SMPTE ST 2086, HDR10 compatible
Codec ID : V_MPEGH/ISO/HEVC
Duration : 1 h 36 min
Bit rate : 13.4 Mb/s
Width : 3 840 pixels
Height : 2 076 pixels
Display aspect ratio : 1.85:1
Frame rate mode : Constant
Frame rate : 23.976 (24000/1001) FPS
Color space : YUV
Chroma subsampling : 4:2:0 (Type 2)
Bit depth : 10 bits
Bits/(Pixel*Frame) : 0.070
Stream size : 9.07 GiB (70%)
Writing library : x265 3.2+6-f46aa2bc1c34:[Windows][GCC 9.2.0][64 bit] 10bit
Encoding settings : cpuid=1176575 / frame-threads=6 / numa-pools=36 / wpp / no-pmode / no-pme / no-psnr / no-ssim / log-level=2 / input-csp=1 / input-res=3840x2076 / interlace=0 / total-frames=139248 / level-idc=51 / high-tier=1 / uhd-bd=0 / ref=4 / no-allow-non-conformance / repeat-headers / annexb / aud / hrd / info / hash=0 / no-temporal-layers / no-open-gop / min-keyint=1 / keyint=24 / gop-lookahead=0 / bframes=4 / b-adapt=2 / b-pyramid / bframe-bias=0 / rc-lookahead=25 / lookahead-slices=4 / scenecut=40 / radl=0 / no-splice / no-intra-refresh / ctu=64 / min-cu-size=8 / rect / no-amp / max-tu-size=32 / tu-inter-depth=1 / tu-intra-depth=1 / limit-tu=0 / rdoq-level=2 / dynamic-rd=0.00 / no-ssim-rd / signhide / no-tskip / nr-intra=0 / nr-inter=0 / no-constrained-intra / no-strong-intra-smoothing / max-merge=3 / limit-refs=3 / limit-modes / me=3 / subme=3 / merange=57 / temporal-mvp / no-frame-dup / no-hme / weightp / no-weightb / no-analyze-src-pics / deblock=-3:-3 / no-sao / no-sao-non-deblock / rd=4 / selective-sao=0 / no-early-skip / rskip / no-fast-intra / no-tskip-fast / no-cu-lossless / no-b-intra / no-splitrd-skip / rdpenalty=0 / psy-rd=2.00 / psy-rdoq=1.00 / no-rd-refine / no-lossless / cbqpoffs=0 / crqpoffs=0 / rc=crf / crf=17.0 / qcomp=0.60 / qpstep=4 / stats-write=0 / stats-read=0 / vbv-maxrate=160000 / vbv-bufsize=160000 / vbv-init=0.9 / crf-max=0.0 / crf-min=0.0 / ipratio=1.40 / pbratio=1.30 / aq-mode=1 / aq-strength=1.00 / cutree / zone-count=0 / no-strict-cbr / qg-size=32 / no-rc-grain / qpmax=69 / qpmin=0 / no-const-vbv / sar=1 / overscan=0 / videoformat=5 / range=0 / colorprim=9 / transfer=16 / colormatrix=9 / chromaloc=1 / chromaloc-top=2 / chromaloc-bottom=2 / display-window=0 / master-display=G(13250,34500)B(7500,3000)R(34000,16000)WP(15635,16450)L(40000000,50) / cll=1001,640 / min-luma=0 / max-luma=1023 / log2-max-poc-lsb=8 / vui-timing-info / vui-hrd-info / slices=1 / no-opt-qp-pps / no-opt-ref-list-length-pps / no-multi-pass-opt-rps / scenecut-bias=0.05 / no-opt-cu-delta-qp / no-aq-motion / hdr / hdr-opt / no-dhdr10-opt / no-idr-recovery-sei / analysis-reuse-level=5 / scale-factor=0 / refine-intra=0 / refine-inter=0 / refine-mv=1 / refine-ctu-distortion=0 / no-limit-sao / ctu-info=0 / no-lowpass-dct / refine-analysis-type=0 / copy-pic=1 / max-ausize-factor=1.0 / no-dynamic-refine / no-single-sei / no-hevc-aq / no-svt / no-field / qp-adaptation-range=1.00
Default : Yes
Forced : No
Color range : Limited
Color primaries : BT.2020
Transfer characteristics : PQ
Matrix coefficients : BT.2020 non-constant
Mastering display color primaries : Display P3
Mastering display luminance : min: 0.0050 cd/m2, max: 4000 cd/m2
Maximum Content Light Level : 1001 cd/m2
Maximum Frame-Average Light Level : 640 cd/m2

Audio
ID : 2
Format : DTS XLL
Format/Info : Digital Theater Systems
Commercial name : DTS-HD Master Audio
Codec ID : A_DTS
Duration : 1 h 36 min
Bit rate mode : Variable
Bit rate : 5 328 kb/s
Channel(s) : 8 channels
Channel layout : C L R LFE Lb Rb Lss Rss
Sampling rate : 48.0 kHz
Frame rate : 93.750 FPS (512 SPF)
Bit depth : 24 bits
Compression mode : Lossless
Stream size : 3.60 GiB (28%)
Language : English
Default : Yes
Forced : No

Text #1
ID : 3
Format : UTF-8
Codec ID : S_TEXT/UTF8
Codec ID/Info : UTF-8 Plain Text
Duration : 4 s 87 ms
Bit rate : 68 b/s
Count of elements : 2
Stream size : 35.0 Bytes (0%)
Title : English Forced
Language : English
Default : No
Forced : Yes

Text #2
ID : 4
Format : PGS
Muxing mode : zlib
Codec ID : S_HDMV/PGS
Codec ID/Info : Picture based subtitle format used on BDs/HD-DVDs
Duration : 1 h 34 min
Bit rate : 48.6 kb/s
Count of elements : 3518
Stream size : 32.9 MiB (0%)
Title : English SDH
Language : English
Default : No
Forced : No

Text #3
ID : 5
Format : PGS
Muxing mode : zlib
Codec ID : S_HDMV/PGS
Codec ID/Info : Picture based subtitle format used on BDs/HD-DVDs
Duration : 1 h 27 min
Bit rate : 40.8 kb/s
Count of elements : 2646
Stream size : 25.5 MiB (0%)
Title : English
Language : English
Default : No
Forced : No

Text #4
ID : 6
Format : PGS
Muxing mode : zlib
Codec ID : S_HDMV/PGS
Codec ID/Info : Picture based subtitle format used on BDs/HD-DVDs
Duration : 1 h 27 min
Bit rate : 40.8 kb/s
Count of elements : 2646
Stream size : 25.5 MiB (0%)
Title : English
Language : English
Default : No
Forced : No

Text #5
ID : 7
Format : PGS
Muxing mode : zlib
Codec ID : S_HDMV/PGS
Codec ID/Info : Picture based subtitle format used on BDs/HD-DVDs
Duration : 1 h 36 min
Bit rate : 30.2 kb/s
Count of elements : 2768
Stream size : 20.8 MiB (0%)
Title : Khmer
Language : Khmer
Default : No
Forced : No

Text #6
ID : 8
Format : PGS
Muxing mode : zlib
Codec ID : S_HDMV/PGS
Codec ID/Info : Picture based subtitle format used on BDs/HD-DVDs
Duration : 1 h 36 min
Bit rate : 28.0 kb/s
Count of elements : 2776
Stream size : 19.2 MiB (0%)
Title : Chinese
Language : Chinese
Default : No
Forced : No

Text #7
ID : 9
Format : PGS
Muxing mode : zlib
Codec ID : S_HDMV/PGS
Codec ID/Info : Picture based subtitle format used on BDs/HD-DVDs
Duration : 1 h 36 min
Bit rate : 30.1 kb/s
Count of elements : 2800
Stream size : 20.7 MiB (0%)
Title : Chinese
Language : Chinese
Default : No
Forced : No

Text #8
ID : 10
Format : PGS
Muxing mode : zlib
Codec ID : S_HDMV/PGS
Codec ID/Info : Picture based subtitle format used on BDs/HD-DVDs
Duration : 1 h 36 min
Bit rate : 28.6 kb/s
Count of elements : 2782
Stream size : 19.6 MiB (0%)
Title : Chinese
Language : Chinese
Default : No
Forced : No

Text #9
ID : 11
Format : PGS
Muxing mode : zlib
Codec ID : S_HDMV/PGS
Codec ID/Info : Picture based subtitle format used on BDs/HD-DVDs
Duration : 1 h 36 min
Bit rate : 29.5 kb/s
Count of elements : 2079
Stream size : 20.3 MiB (0%)
Title : Dutch
Language : Dutch
Default : No
Forced : No

Text #10
ID : 12
Format : PGS
Muxing mode : zlib
Codec ID : S_HDMV/PGS
Codec ID/Info : Picture based subtitle format used on BDs/HD-DVDs
Duration : 1 h 36 min
Bit rate : 31.1 kb/s
Count of elements : 2692
Stream size : 21.4 MiB (0%)
Title : French
Language : French
Default : No
Forced : No

Text #11
ID : 13
Format : PGS
Muxing mode : zlib
Codec ID : S_HDMV/PGS
Codec ID/Info : Picture based subtitle format used on BDs/HD-DVDs
Duration : 1 h 36 min
Bit rate : 35.8 kb/s
Count of elements : 2706
Stream size : 24.6 MiB (0%)
Title : Indonesian
Language : Indonesian
Default : No
Forced : No

Text #12
ID : 14
Format : PGS
Muxing mode : zlib
Codec ID : S_HDMV/PGS
Codec ID/Info : Picture based subtitle format used on BDs/HD-DVDs
Duration : 1 h 35 min
Bit rate : 26.5 kb/s
Count of elements : 2791
Stream size : 18.2 MiB (0%)
Title : Korean
Language : Korean
Default : No
Forced : No

Text #13
ID : 15
Format : PGS
Muxing mode : zlib
Codec ID : S_HDMV/PGS
Codec ID/Info : Picture based subtitle format used on BDs/HD-DVDs
Duration : 1 h 36 min
Bit rate : 42.0 kb/s
Count of elements : 2782
Stream size : 28.9 MiB (0%)
Title : Malay
Language : Malay
Default : No
Forced : No

Text #14
ID : 16
Format : PGS
Muxing mode : zlib
Codec ID : S_HDMV/PGS
Codec ID/Info : Picture based subtitle format used on BDs/HD-DVDs
Duration : 1 h 36 min
Bit rate : 35.3 kb/s
Count of elements : 2744
Stream size : 24.3 MiB (0%)
Title : Portuguese
Language : Portuguese
Default : No
Forced : No

Text #15
ID : 17
Format : PGS
Muxing mode : zlib
Codec ID : S_HDMV/PGS
Codec ID/Info : Picture based subtitle format used on BDs/HD-DVDs
Duration : 1 h 36 min
Bit rate : 33.7 kb/s
Count of elements : 2667
Stream size : 23.1 MiB (0%)
Title : Spanish
Language : Spanish
Default : No
Forced : No

Text #16
ID : 18
Format : PGS
Muxing mode : zlib
Codec ID : S_HDMV/PGS
Codec ID/Info : Picture based subtitle format used on BDs/HD-DVDs
Duration : 1 h 36 min
Bit rate : 35.8 kb/s
Count of elements : 2738
Stream size : 24.6 MiB (0%)
Title : Spanish
Language : Spanish
Default : No
Forced : No

Text #17
ID : 19
Format : PGS
Muxing mode : zlib
Codec ID : S_HDMV/PGS
Codec ID/Info : Picture based subtitle format used on BDs/HD-DVDs
Duration : 1 h 36 min
Bit rate : 43.7 kb/s
Count of elements : 2762
Stream size : 30.0 MiB (0%)
Title : Vietnamese
Language : Vietnamese
Default : No
Forced : No

Text #18
ID : 20
Format : PGS
Muxing mode : zlib
Codec ID : S_HDMV/PGS
Codec ID/Info : Picture based subtitle format used on BDs/HD-DVDs
Duration : 1 h 36 min
Bit rate : 563 b/s
Count of elements : 48
Stream size : 396 KiB (0%)
Title : French
Language : French
Default : No
Forced : No

Download

download 4k hdr movies download 4k hdr movies

Watch a movie trailer - The Angry Birds Movie 2 4K 2019 Ultra HD 2160p
Comments and Feedback
Add your comment:
Your name:
Your E-Mail:
Code:
reload, if the code cannot be seen
Enter code: