Select movie Search movie Close search My Account

Wonder 4K 2017 Ultra HD 2160p

Wonder 4K 2017 Ultra HD 2160p
BDRemux / BDRip
Country: USA | Hong Kong
Time: 1h 53min
IMDB: 8.00
Director: Stephen Chbosky
Actors: Jacob Tremblay, Owen Wilson, Izabela Vidovic, Julia Roberts, Mark Dozlaw, Rukiya Bernard, Jennifer March, Mandy Patinkin, Noah Jupe, Bryce Gheisar, Elle McKinnon, Daveed Diggs, Ty Consiglio, Kyle Breitkopf, James A Hughe

Story Movie

Wonder 4K 2017 Ultra HD 2160p
August, a young guy, the protagonist of the film Wonder pk 4k movie download, suffered several operations, for which he lost his face. And that's why he missed trips to school for several years. doing at home with tutors. But here comes the moment when he needs to rush to school and no one knows how he will be treated by his classmates. But there must necessarily be a miracle to help a guy become like everyone else.

Review 4K Movie

I can confidently call the film Wonder, pk 4k movie download the best film of 2017 without exaggeration! As far as he is sincere, clean, and just kind .. With the original I've known for more than a year, by chance seeing an inconspicuous book in the store. After reading, I just fell in love with this story! Soon there was news about the screen version, and then I just exploded from positive emotions. For days I sat on the Internet and searched for at least one brand new news about the film, so I waited for it. And so, the long-awaited for me the day of the premiere was just a holiday. During the viewing, I felt a lot: laughter, tears, joy, sadness. And most importantly, I felt it all along with the main characters.

Speaking of the main characters.

Jacob Tremblay just gorgeous in the role of Auggie! I wanted to believe all emotions, and .. I believed. Of course, you can not miss Julia Roberts and Owen Wilson who also were on top. True, it's a bit unusual to see Owen in this role (he usually plays comedic characters). But, with the role of Nate's caring father, he coped just perfectly.

Auggie himself, just a real sun! This boy is for me a ray of warmth and kindness. As far as this character is sincere and special. Special not in terms of his appearance, no, but special in terms of character. After a heap of ridicule, constant oblique glances, nicknames, he did not get angry with the world; on the contrary, he tries to make friends with this world. Of course, like all other children, he is not perfect, he can also be angry, offended, crying .. And because of this, I want to believe this hero even more. But the strength of his will, boundless kindness, modesty, generosity, courage, mind (this list can be continued indefinitely) all this, motivates, I want to just take, get up, and applaud ..

Secondary Characters

In the film, in addition to the main story, there are several say * twigs *, sub-plots. For example, this is the conflict between Sister Oggi, Wii, who requires the attention of parents, and entered a new school. Here we consider such vital problems as: growing up, getting used to a new school, and much more. Consideration of these conflicts will be useful to see and understand, to children and adults. Viya herself is an incredibly good sister, a reliable friend, and, in general, a pleasant character. Do not forget about friends Auggie, Jack and Summer. Jack during the viewing was very amused, a real joker and a devoted friend. Summer, I'm incredibly sympathetic, intelligent, dear girl, incredibly good.

The result

Summing up everything, I want to say that Wonder UHD for me, a real masterpiece! A small world, in which you will plunge, and you will not want to get out. Suitable for the whole family. Take, and lead all your child, friends, friends, nearest neighbor (why not?) And go to the cinema for this wonderful film, Wonder ultra HD! (incredibly recommended for viewing

Mediainfo

movie BDRemux Video #1
ID : 1
Format : HEVC
Format/Info : High Efficiency Video Coding
Format profile : Main 10@L5.1@High
Codec ID : V_MPEGH/ISO/HEVC
Duration : 1 h 53 min
Bit rate : 51.5 Mb/s
Width : 3 840 pixels
Height : 2 160 pixels
Display aspect ratio : 16:9
Frame rate mode : Constant
Frame rate : 23.976 (24000/1001) FPS
Color space : YUV
Chroma subsampling : 4:2:0 (Type 2)
Bit depth : 10 bits
Bits/(Pixel*Frame) : 0.259
Stream size : 40.7 GiB (79%)
Title : Wonder.2017.2160p.BluRay.REMUX.HEVC.TrueHD.7.1
Default : Yes
Forced : No
Color range : Limited
Color primaries : BT.2020
Transfer characteristics : PQ
Matrix coefficients : BT.2020 non-constant
Mastering display color primaries : Display P3
Mastering display luminance : min: 0.0020 cd/m2, max: 1000 cd/m2
Maximum Content Light Level : 1000 cd/m2
Maximum Frame-Average Light Level : 198 cd/m2

Video #2
ID : 2
Format : HEVC
Format/Info : High Efficiency Video Coding
Format profile : Main 10@L5.1@High
Codec ID : V_MPEGH/ISO/HEVC
Duration : 1 h 53 min
Bit rate : 7 721 kb/s
Width : 1 920 pixels
Height : 1 080 pixels
Display aspect ratio : 16:9
Frame rate mode : Constant
Frame rate : 23.976 (24000/1001) FPS
Color space : YUV
Chroma subsampling : 4:2:0 (Type 2)
Bit depth : 10 bits
Bits/(Pixel*Frame) : 0.155
Stream size : 6.10 GiB (12%)
Title : Wonder.2017.2160p.BluRay.REMUX.HEVC.TrueHD.7.1
Default : No
Forced : No
Color range : Limited
Color primaries : BT.2020
Transfer characteristics : PQ
Matrix coefficients : BT.2020 non-constant
Mastering display color primaries : Display P3
Mastering display luminance : min: 0.0020 cd/m2, max: 1000 cd/m2

Audio #1
ID : 3
Format : TrueHD
Codec ID : A_TRUEHD
Duration : 1 h 53 min
Bit rate mode : Variable
Bit rate : 3 496 kb/s
Maximum bit rate : 5 454 kb/s
Channel(s) : 8 channels
Channel positions : Front: L C R, Side: L R, Back: L R, LFE
Sampling rate : 48.0 kHz
Frame rate : 1 200.000 FPS (40 SPF)
Compression mode : Lossless
Delay relative to video : 1 ms
Stream size : 2.76 GiB (5%)
Title : Wonder.2017.2160p.BluRay.REMUX.HEVC.TrueHD.7.1
Language : English
Default : Yes
Forced : No

Audio #2
ID : 4
Format : AC-3
Format/Info : Audio Coding 3
Codec ID : A_AC3
Duration : 1 h 53 min
Bit rate mode : Constant
Bit rate : 448 kb/s
Channel(s) : 6 channels
Channel positions : Front: L C R, Side: L R, LFE
Sampling rate : 48.0 kHz
Frame rate : 31.250 FPS (1536 SPF)
Bit depth : 16 bits
Compression mode : Lossy
Delay relative to video : 1 ms
Stream size : 363 MiB (1%)
Title : Wonder.2017.2160p.BluRay.REMUX.HEVC.TrueHD.7.1
Language : English
Service kind : Complete Main
Default : No
Forced : No

Audio #3
ID : 5
Format : AC-3
Format/Info : Audio Coding 3
Codec ID : A_AC3
Duration : 1 h 53 min
Bit rate mode : Constant
Bit rate : 448 kb/s
Channel(s) : 6 channels
Channel positions : Front: L C R, Side: L R, LFE
Sampling rate : 48.0 kHz
Frame rate : 31.250 FPS (1536 SPF)
Bit depth : 16 bits
Compression mode : Lossy
Delay relative to video : 23 ms
Stream size : 363 MiB (1%)
Title : Wonder.2017.2160p.BluRay.REMUX.HEVC.TrueHD.7.1-
Language : Spanish
Service kind : Complete Main
Default : No
Forced : No

Audio #4
ID : 6
Format : AC-3
Format/Info : Audio Coding 3
Codec ID : A_AC3
Duration : 1 h 53 min
Bit rate mode : Constant
Bit rate : 448 kb/s
Channel(s) : 6 channels
Channel positions : Front: L C R, Side: L R, LFE
Sampling rate : 48.0 kHz
Frame rate : 31.250 FPS (1536 SPF)
Bit depth : 16 bits
Compression mode : Lossy
Delay relative to video : 23 ms
Stream size : 363 MiB (1%)
Title : Wonder.2017.2160p.BluRay.REMUX.HEVC.TrueHD.7.1
Language : French
Service kind : Complete Main
Default : No
Forced : No

Audio #5
ID : 7
Format : AC-3
Format/Info : Audio Coding 3
Codec ID : A_AC3
Duration : 1 h 53 min
Bit rate mode : Constant
Bit rate : 448 kb/s
Channel(s) : 2 channels
Channel positions : Front: L R
Sampling rate : 48.0 kHz
Frame rate : 31.250 FPS (1536 SPF)
Bit depth : 16 bits
Compression mode : Lossy
Delay relative to video : 23 ms
Stream size : 363 MiB (1%)
Title : Wonder.2017.2160p.BluRay.REMUX.HEVC.TrueHD.7.1
Language : English
Service kind : Complete Main
Default : No
Forced : No

Audio #6
ID : 8
Format : AC-3
Format/Info : Audio Coding 3
Codec ID : A_AC3
Duration : 1 h 53 min
Bit rate mode : Constant
Bit rate : 640 kb/s
Channel(s) : 2 channels
Channel positions : Front: L R
Sampling rate : 48.0 kHz
Frame rate : 31.250 FPS (1536 SPF)
Bit depth : 16 bits
Compression mode : Lossy
Delay relative to video : 23 ms
Stream size : 518 MiB (1%)
Title : Wonder.2017.2160p.BluRay.REMUX.HEVC.TrueHD.7.1
Language : English
Service kind : Complete Main
Default : No
Forced : No

Audio #7
ID : 9
Format : AC-3
Format/Info : Audio Coding 3
Codec ID : A_AC3
Duration : 1 h 53 min
Bit rate mode : Constant
Bit rate : 192 kb/s
Channel(s) : 2 channels
Channel positions : Front: L R
Sampling rate : 48.0 kHz
Frame rate : 31.250 FPS (1536 SPF)
Bit depth : 16 bits
Compression mode : Lossy
Stream size : 155 MiB (0%)
Title : Wonder.2017.2160p.BluRay.REMUX.HEVC.TrueHD.7.1
Language : English
Service kind : Complete Main
Default : No
Forced : No

Text #1
ID : 10
Format : PGS
Muxing mode : zlib
Codec ID : S_HDMV/PGS
Codec ID/Info : Picture based subtitle format used on BDs/HD-DVDs
Duration : 1 h 44 min
Bit rate : 43.0 kb/s
Count of elements : 2940
Stream size : 32.1 MiB (0%)
Title : English-PGS
Language : English
Default : Yes
Forced : No

Text #2
ID : 11
Format : PGS
Muxing mode : zlib
Codec ID : S_HDMV/PGS
Codec ID/Info : Picture based subtitle format used on BDs/HD-DVDs
Duration : 1 h 52 min
Bit rate : 49.7 kb/s
Count of elements : 3528
Stream size : 39.9 MiB (0%)
Title : English-SDH-PGS
Language : English
Default : No
Forced : No

Text #3
ID : 12
Format : PGS
Muxing mode : zlib
Codec ID : S_HDMV/PGS
Codec ID/Info : Picture based subtitle format used on BDs/HD-DVDs
Duration : 1 h 52 min
Bit rate : 38.7 kb/s
Count of elements : 2860
Stream size : 31.0 MiB (0%)
Title : Spanish-PGS
Language : Spanish
Default : No
Forced : No

Text #4
ID : 13
Format : PGS
Muxing mode : zlib
Codec ID : S_HDMV/PGS
Codec ID/Info : Picture based subtitle format used on BDs/HD-DVDs
Duration : 1 h 12 min
Bit rate : 449 b/s
Count of elements : 22
Stream size : 237 KiB (0%)
Title : French-PGS
Language : French
Default : No
Forced : No

Menu
00:00:00.000 : en:Chapter 1
00:06:04.489 : en:Chapter 2
00:12:18.446 : en:Chapter 3
00:19:23.495 : en:Chapter 4
00:26:23.164 : en:Chapter 5
00:33:06.234 : en:Chapter 6
00:38:54.665 : en:Chapter 7
00:47:19.378 : en:Chapter 8
00:51:42.891 : en:Chapter 9
00:59:36.864 : en:Chapter 10
01:06:05.336 : en:Chapter 11
01:14:59.411 : en:Chapter 12
01:23:18.034 : en:Chapter 13
01:30:36.097 : en:Chapter 14
01:33:19.510 : en:Chapter 15
01:40:43.996 : en:Chapter 16
movie BDRip Video
ID : 1
Format : HEVC
Format/Info : High Efficiency Video Coding
Format profile : Main 10@L5.1@High
Codec ID : V_MPEGH/ISO/HEVC
Duration : 1 h 53 min
Width : 3 840 pixels
Height : 1 600 pixels
Display aspect ratio : 2.40:1
Frame rate mode : Constant
Frame rate : 23.976 (24000/1001) FPS
Color space : YUV
Chroma subsampling : 4:2:0 (Type 2)
Bit depth : 10 bits
Writing library : x265 2.6+37-1949157705ce:[Windows][GCC 6.3.0][64 bit] 10bit
Encoding settings : cpuid=1173503 / frame-threads=4 / numa-pools=16 / wpp / no-pmode / no-pme / no-psnr / no-ssim / log-level=2 / input-csp=1 / input-res=3840x1600 / interlace=0 / total-frames=162840 / level-idc=51 / high-tier=1 / uhd-bd=0 / ref=4 / no-allow-non-conformance / repeat-headers / annexb / aud / hrd / info / hash=0 / no-temporal-layers / no-open-gop / min-keyint=24 / keyint=240 / gop-lookahead=0 / bframes=4 / b-adapt=2 / b-pyramid / bframe-bias=0 / rc-lookahead=25 / lookahead-slices=4 / scenecut=40 / radl=0 / no-intra-refresh / ctu=64 / min-cu-size=8 / rect / no-amp / max-tu-size=32 / tu-inter-depth=1 / tu-intra-depth=1 / limit-tu=0 / rdoq-level=2 / dynamic-rd=0.00 / no-ssim-rd / signhide / no-tskip / nr-intra=0 / nr-inter=0 / no-constrained-intra / no-strong-intra-smoothing / max-merge=3 / limit-refs=3 / limit-modes / me=3 / subme=3 / merange=57 / temporal-mvp / weightp / no-weightb / no-analyze-src-pics / deblock=-3:-3 / no-sao / no-sao-non-deblock / rd=4 / no-early-skip / rskip / no-fast-intra / no-tskip-fast / no-cu-lossless / no-b-intra / no-splitrd-skip / rdpenalty=0 / psy-rd=2.00 / psy-rdoq=1.00 / no-rd-refine / no-lossless / cbqpoffs=0 / crqpoffs=0 / rc=crf / crf=17.0 / qcomp=0.60 / qpstep=4 / stats-write=0 / stats-read=0 / vbv-maxrate=160000 / vbv-bufsize=160000 / vbv-init=0.9 / crf-max=0.0 / crf-min=0.0 / ipratio=1.40 / pbratio=1.30 / aq-mode=1 / aq-strength=1.00 / cutree / zone-count=0 / no-strict-cbr / qg-size=32 / no-rc-grain / qpmax=69 / qpmin=0 / no-const-vbv / sar=1 / overscan=0 / videoformat=5 / range=0 / colorprim=9 / transfer=16 / colormatrix=9 / chromaloc=1 / chromaloc-top=2 / chromaloc-bottom=2 / display-window=0 / master-display=G(13250,34500)B(7500,3000)R(34000,16000)WP(15635,16450)L(10000000,20) / max-cll=1000,198 / min-luma=0 / max-luma=1023 / log2-max-poc-lsb=8 / vui-timing-info / vui-hrd-info / slices=1 / opt-qp-pps / opt-ref-list-length-pps / no-multi-pass-opt-rps / scenecut-bias=0.05 / no-opt-cu-delta-qp / no-aq-motion / hdr / hdr-opt / no-dhdr10-opt / analysis-reuse-level=5 / scale-factor=0 / refine-intra=0 / refine-inter=0 / refine-mv=0 / no-limit-sao / ctu-info=0 / no-lowpass-dct / refine-mv-type=0 / copy-pic=1
Default : Yes
Forced : No
Color range : Limited
Color primaries : BT.2020
Transfer characteristics : PQ
Matrix coefficients : BT.2020 non-constant
Statistics Tags Issue : no_variable_data 1970-01-01 00:00:00 / no_variable_data 2010-02-22 21:41:29
FromStats_BitRate : 9876022
FromStats_Duration : 01:53:11.785000000
FromStats_FrameCount : 162840
FromStats_StreamSize : 8384477601
Mastering display color primaries : Display P3
Mastering display luminance : min: 0.0020 cd/m2, max: 1000 cd/m2
Maximum Content Light Level : 1000 cd/m2
Maximum Frame-Average Light Level : 198 cd/m2

Audio #1
ID : 2
Format : TrueHD
Codec ID : A_TRUEHD
Duration : 1 h 53 min
Bit rate mode : Variable
Maximum bit rate : 5 454 kb/s
Channel(s) : 8 channels
Channel positions : Front: L C R, Side: L R, Back: L R, LFE
Sampling rate : 48.0 kHz
Frame rate : 1 200.000 FPS (40 SPF)
Compression mode : Lossless
Delay relative to video : 1 ms
Title : Atmos
Language : English
Default : Yes
Forced : No
Statistics Tags Issue : no_variable_data 1970-01-01 00:00:00 / no_variable_data 2010-02-22 21:41:29
FromStats_BitRate : 3496143
FromStats_Duration : 01:53:11.785000000
FromStats_FrameCount : 8150142
FromStats_StreamSize : 2968131942

Audio #2
ID : 3
Format : AC-3
Format/Info : Audio Coding 3
Codec ID : A_AC3
Duration : 1 h 53 min
Bit rate mode : Constant
Bit rate : 448 kb/s
Channel(s) : 6 channels
Channel positions : Front: L C R, Side: L R, LFE
Sampling rate : 48.0 kHz
Frame rate : 31.250 FPS (1536 SPF)
Bit depth : 16 bits
Compression mode : Lossy
Delay relative to video : 1 ms
Stream size : 363 MiB (3%)
Title : AC3 5.1
Language : English
Service kind : Complete Main
Default : No
Forced : No
Statistics Tags Issue : no_variable_data 1970-01-01 00:00:00 / no_variable_data 2010-02-22 21:41:29
FromStats_BitRate : 448000
FromStats_Duration : 01:53:11.808000000
FromStats_FrameCount : 212244
FromStats_StreamSize : 380341248

Audio #3
ID : 4
Format : AC-3
Format/Info : Audio Coding 3
Codec ID : A_AC3
Duration : 1 h 53 min
Bit rate mode : Constant
Bit rate : 192 kb/s
Channel(s) : 2 channels
Channel positions : Front: L R
Sampling rate : 48.0 kHz
Frame rate : 31.250 FPS (1536 SPF)
Bit depth : 16 bits
Compression mode : Lossy
Stream size : 155 MiB (1%)
Title : Commentary with director and co-writer Stephen Chbosky and author R.J. Palacio
Language : English
Service kind : Complete Main
Default : No
Forced : No
Statistics Tags Issue : no_variable_data 1970-01-01 00:00:00 / no_variable_data 2010-02-22 21:41:29
FromStats_BitRate : 192000
FromStats_Duration : 01:53:11.808000000
FromStats_FrameCount : 212244
FromStats_StreamSize : 163003392

Text #1
ID : 5
Format : UTF-8
Codec ID : S_TEXT/UTF8
Codec ID/Info : UTF-8 Plain Text
Title : Stripped SRT
Language : English
Default : No
Forced : No
Statistics Tags Issue : no_variable_data 1970-01-01 00:00:00 / no_variable_data 2010-02-22 21:41:29
FromStats_BitRate : 66
FromStats_Duration : 01:52:08.889000000
FromStats_FrameCount : 1591
FromStats_StreamSize : 55520

Text #2
ID : 6
Format : UTF-8
Codec ID : S_TEXT/UTF8
Codec ID/Info : UTF-8 Plain Text
Title : Full SRT
Language : English
Default : No
Forced : No
Statistics Tags Issue : no_variable_data 1970-01-01 00:00:00 / no_variable_data 2010-02-22 21:41:29
FromStats_BitRate : 62
FromStats_Duration : 01:44:35.103000000
FromStats_FrameCount : 1470
FromStats_StreamSize : 49396

Text #3
ID : 7
Format : PGS
Muxing mode : zlib
Codec ID : S_HDMV/PGS
Codec ID/Info : Picture based subtitle format used on BDs/HD-DVDs
Title : Full
Language : English
Default : No
Forced : No
Statistics Tags Issue : no_variable_data 1970-01-01 00:00:00 / no_variable_data 2010-02-22 21:41:29
FromStats_BitRate : 42971
FromStats_Duration : 01:44:35.102000000
FromStats_FrameCount : 2940
FromStats_StreamSize : 33706543

Text #4
ID : 8
Format : UTF-8
Codec ID : S_TEXT/UTF8
Codec ID/Info : UTF-8 Plain Text
Title : SDH SRT
Language : English
Default : No
Forced : No
Statistics Tags Issue : no_variable_data 1970-01-01 00:00:00 / no_variable_data 2010-02-22 21:41:29
FromStats_BitRate : 73
FromStats_Duration : 01:52:18.482000000
FromStats_FrameCount : 1764
FromStats_StreamSize : 61669

Text #5
ID : 9
Format : PGS
Muxing mode : zlib
Codec ID : S_HDMV/PGS
Codec ID/Info : Picture based subtitle format used on BDs/HD-DVDs
Title : SDH
Language : English
Default : No
Forced : No
Statistics Tags Issue : no_variable_data 1970-01-01 00:00:00 / no_variable_data 2010-02-22 21:41:29
FromStats_BitRate : 49652
FromStats_Duration : 01:52:18.482000000
FromStats_FrameCount : 3528
FromStats_StreamSize : 41822669

Text #6
ID : 10
Format : PGS
Muxing mode : zlib
Codec ID : S_HDMV/PGS
Codec ID/Info : Picture based subtitle format used on BDs/HD-DVDs
Language : Spanish
Default : No
Forced : No
Statistics Tags Issue : no_variable_data 1970-01-01 00:00:00 / no_variable_data 2010-02-22 21:41:29
FromStats_BitRate : 38722
FromStats_Duration : 01:52:02.091000000
FromStats_FrameCount : 2860
FromStats_StreamSize : 32536721

Menu
00:00:00.000 : en:Chapter 1
00:06:04.489 : en:Chapter 2
00:12:18.446 : en:Chapter 3
00:19:23.495 : en:Chapter 4
00:26:23.164 : en:Chapter 5
00:33:06.234 : en:Chapter 6
00:38:54.665 : en:Chapter 7
00:47:19.378 : en:Chapter 8
00:51:42.891 : en:Chapter 9
00:59:36.864 : en:Chapter 10
01:06:05.336 : en:Chapter 11
01:14:59.411 : en:Chapter 12
01:23:18.034 : en:Chapter 13
01:30:36.097 : en:Chapter 14
01:33:19.510 : en:Chapter 15
01:40:43.996 : en:Chapter 16

Download

download 4k hdr movies download 4k hdr movies

Watch a movie trailer - Wonder 4K 2017 Ultra HD 2160p
Comments and Feedback
Add your comment:
Your name:
Your E-Mail:
Code:
reload, if the code cannot be seen
Enter code: