Select movie Search movie Close search My Account

Pitch Perfect 3 4K 2017 Ultra HD 2160p

Pitch Perfect 3 4K 2017 Ultra HD 2160p
BDRemux / BDRip
Country: USA
Time: 1h 33min
IMDB: 6.0
Director: Trish Sie
Actors: Anna Kendrick, Rebel Wilson, Brittany Snow, Anna Camp, Hailee Steinfeld, Ester Dean, Hana Mae Lee, Kelley Jakle, Shelley Regner, Chrissie Fit, Elizabeth Banks, John Michael Higgins, John Lithgow, Matt Lanter, Guy Burnet

Story Movie

Pitch Perfect 3 4K 2017 Ultra HD 2160p
Третья часть фильма Pitch Perfect Part 3 4K uhd movies рассказывает нам о том, как коллектив девушек с идеальным голосом ставит перед собой всё новые и новые амбициозные вершины в творчестве, которых им обязательно хочется добиться. Они стараются постоянно само совершенствоваться, получать новый творческий опыт и сердца своих поклонников.

Review 4K Movie

Along with other popular singing genres, the a-capella occupies a strong position among the audience preferences, and it is not surprising that there are many contests that young people so passionately want to get into to show their incredible talents to the public. Especially popular is the a-cappella on the territory of the United States, where they always sang the power of dreams and encouraged people to try their hand at something unexpected, catchy and extraordinary. He took advantage of the unbroken hysteria around the a-capella and Mickey Rapkin, who is far from the most famous writer, famous for the whole country, about the troubles and adversities that sometimes happen in the way of young people who decided to take their own and still perform on the most important stage of the US before the many thousands of people . And although Rapkin's novel was not distinguished by any dramatic features or richness of the literary language, its sales exceeded even the most audacious expectations of the publishers, after which the book fell into the spotlight of Hollywood producers looking for a no less lucrative vein than dances from the long-playing series "Step Forward" . Released in 2012, the adaptation of Jason Moore called "The Ideal Voice" let and did not shoot the stars from the sky, and yet it turned out to be a nice, kind and incredibly colorful ribbon with a whole group of notable characters and brilliantly performed a cappella imperishable musical hits. All these elements allowed the "Ideal Voice" to become one of the most popular youth films of its time, after which the commercial was followed by an equally successful commercially successful sequel, staged by Elizabeth Banks. Of course, it was not possible to demonstrate something as fresh as the original to the public, "Ideal Voice 2" failed, and yet the spectators again were able to enjoy the unforgettable singing of really noisy vocal actresses, after which it became absolutely clear that without the third part we could not do . Moore and Banks for personal and career reasons could not return to directing, however their place without long meditations was taken by Trish Si, best known for "Step forward; All or nothing". Expect from the direct changer Banks something truly incredible did not have to, and yet Pitch Perfect Part 3 4K uhd movies was a very tolerable project that knows what a good music in the performance of these talents. All the rest is practically unimportant.

So, the plot of the film unfolds after the "Bardeen Bells" finally graduated from college and scattered around America in search of a further path. Zaimev profession that they openly do not tolerate, the former spoilers of musical destiny can only dream of returning to the past and once again experiencing joyful scenic moments, and that playful fate calls "Bell" to return to the system to give a nostalgic concert-reunion at one important competition. Inspired by Becca (Kendrick), Patricia (Wilson) and the company can not abandon the tempting offer and go to a general meeting, after which it becomes clear that with one concert this adventure will definitely not end. In the plans of the girls, the performance of the "Bardeen Bell" at once in several US military bases in Europe, where they are to appear to the public all their talents. Thus, the gold composition again appears in the case and will leave a truly unforgettable impression. An excellent soundtrack, pleasant familiar faces, a pinch of experience and constant humor in the set of performances are also available.

In any other picture about the problems of growing up, finding yourself and understanding that the world sometimes is not so good, you could find a lot of serious dramatic experiences. Frankly sad moments and meaningful looks full of tears, however, "Pitch Perfect 3" Uhd was on the screens not at all in order to mourn his viewer and make him sadly assess his own life. Of course, the creators could not help but spend time what happens to the soul of the former participants of the a-capella group, but you will not feel any seriousness from what you saw. And in the context of the singing franchise, this is very good, as sometimes you want to actually relax and not think about anything meaningful, especially when there are such beautiful compositions in the shot, and even unperceived instrumental music, so that we can fully enjoy wonderful voices of the title actresses. It was pleasant that the director knows how to correctly alternate scenes with conversations, relevant and not very jokes, and also develops characters, without which the third film would lose the last rudiments of artistic depth. So no matter how superficial and frivolous the "Ideal Voice" seemed, it still keeps viewers near their history not only with humor, stupidity and music. But all the same it is necessary to recognize that the tape of Trish C does not at all strive to drive us into a depressive state, but on the contrary by all possible forces pulls us out of it, trying to demonstrate a positive attitude in everything. And this is perhaps the biggest feature of this franchise, which redeems most of her sins and almost makes you set off to dance without paying any attention to various extraneous things. It's nice to see that the actors who came to like us returned from their past parts to their roles, including Anna Kendrick and Rebel Wilson, for whom the "Ideal Voice" has become almost the most important stage of an adult career. In particular, Kendrick is remembered here, a little sad, and yet able to receive from life the true joy of a girl. From the side, it may seem that her fate is following a well-trodden road, and minor failures do not play a special role in the overall success, and yet the heroine Kendrick will have to lay out some things on the shelves, well, you and I will have to watch this and maybe make our own special conclusions. But again, in the context of the "Ideal Voice 3", no personal trial matters, because at one point all experiences are smoothed out by beautiful music and the soul really becomes rosy. The only thing that it would be worth seriously correcting, these are the moments with excessive replay, which is famous for as Rebel Wilson, and other girls from the team of the Bardeen Bells. However, other franchise films suffered similarly, and Trish C does not have the power to change anything where everything has long settled. As a result, I want to say that "Pitch Perfect 3" Ultra HD gives fans of the franchise exactly what they wanted. The heroines who fell in love grew up, they had much more problems and frustrations. But at the same time they are still as cheerful and know perfectly how to get their own by the right. Excessive naivete of the tape is partly mitigated by honest dramatic moments, of which there are very few, and this really pleases. In addition, do not forget about the achievements of the a-cappella, which always could boast of the "Bardeen Bella". Therefore, be prepared that there will be enough worthy music and bright numbers here. Enjoy watching!

Mediainfo

movie BDRemux Video
ID : 1
Format : HEVC
Format/Info : High Efficiency Video Coding
Format profile : Main 10@L5.1@High
Codec ID : V_MPEGH/ISO/HEVC
Duration : 1 h 33 min
Bit rate : 73.9 Mb/s
Width : 3 840 pixels
Height : 2 160 pixels
Display aspect ratio : 16:9
Frame rate mode : Constant
Frame rate : 23.976 (24000/1001) FPS
Color space : YUV
Chroma subsampling : 4:2:0 (Type 2)
Bit depth : 10 bits
Bits/(Pixel*Frame) : 0.372
Stream size : 48.0 GiB (90%)
Title : Pitch.Perfect.3.2017.2160p.BluRay.REMUX.HEVC.DTS-X.7.1
Writing library : ATEME Titan File 3.8.13 (4.8.13.0)
Default : Yes
Forced : No
Color range : Limited
Color primaries : BT.2020
Transfer characteristics : PQ
Matrix coefficients : BT.2020 non-constant
Mastering display color primaries : Display P3
Mastering display luminance : min: 0.0050 cd/m2, max: 1000 cd/m2
Maximum Content Light Level : 992 cd/m2
Maximum Frame-Average Light Level : 373 cd/m2

Audio #1
ID : 2
Format : DTS
Format/Info : Digital Theater Systems
Format profile : X / MA / Core
Codec ID : A_DTS
Duration : 1 h 33 min
Bit rate mode : Variable / Variable / Constant
Bit rate : 5 333 kb/s / 5 333 kb/s / 1 509 kb/s
Channel(s) : Object Based / 8 channels / 6 channels
Channel positions : Object Based / Front: L C R, Side: L R, Back: L R, LFE / Front: L C R, Side: L R, LFE
Sampling rate : / 48.0 kHz / 48.0 kHz
Frame rate : 93.750 FPS (512 SPF)
Bit depth : / 24 bits / 24 bits
Compression mode : / Lossless / Lossy
Stream size : 3.47 GiB (6%)
Title : Pitch.Perfect.3.2017.2160p.BluRay.REMUX.HEVC.DTS-X.7.1
Language : English
Default : Yes
Forced : No

Audio #2
ID : 3
Format : DTS
Format/Info : Digital Theater Systems
Format profile : HRA / Core
Codec ID : A_DTS
Duration : 1 h 33 min
Bit rate mode : Constant
Bit rate : 2 046 kb/s / 1 509 kb/s
Channel(s) : 8 channels / 6 channels
Channel positions : Front: L C R, Side: L R, Back: L R, LFE / Front: L C R, Side: L R, LFE
Sampling rate : 48.0 kHz
Frame rate : 93.750 FPS (512 SPF)
Bit depth : 24 bits
Compression mode : Lossy
Stream size : 1.33 GiB (2%)
Title : Pitch.Perfect.3.2017.2160p.BluRay.REMUX.HEVC.DTS-X.7.1
Language : Spanish
Default : No
Forced : No

Audio #3
ID : 4
Format : DTS
Format/Info : Digital Theater Systems
Codec ID : A_DTS
Duration : 1 h 33 min
Bit rate mode : Constant
Bit rate : 768 kb/s
Channel(s) : 6 channels
Channel positions : Front: L C R, Side: L R, LFE
Sampling rate : 48.0 kHz
Frame rate : 93.750 FPS (512 SPF)
Bit depth : 24 bits
Compression mode : Lossy
Stream size : 511 MiB (1%)
Title : Pitch.Perfect.3.2017.2160p.BluRay.REMUX.HEVC.DTS-X.7.1
Language : French
Default : No
Forced : No

Audio #4
ID : 5
Format : AC-3
Format/Info : Audio Coding 3
Codec ID : A_AC3
Duration : 1 h 33 min
Bit rate mode : Constant
Bit rate : 192 kb/s
Channel(s) : 2 channels
Channel positions : Front: L R
Sampling rate : 48.0 kHz
Frame rate : 31.250 FPS (1536 SPF)
Bit depth : 16 bits
Compression mode : Lossy
Stream size : 128 MiB (0%)
Title : Pitch.Perfect.3.2017.2160p.BluRay.REMUX.HEVC.DTS-X.7.1
Language : English
Service kind : Complete Main
Default : No
Forced : No

Audio #5
ID : 6
Format : AC-3
Format/Info : Audio Coding 3
Codec ID : A_AC3
Duration : 1 h 33 min
Bit rate mode : Constant
Bit rate : 192 kb/s
Channel(s) : 2 channels
Channel positions : Front: L R
Sampling rate : 48.0 kHz
Frame rate : 31.250 FPS (1536 SPF)
Bit depth : 16 bits
Compression mode : Lossy
Stream size : 128 MiB (0%)
Title : Pitch.Perfect.3.2017.2160p.BluRay.REMUX.HEVC.DTS-X.7.1
Language : English
Service kind : Complete Main
Default : No
Forced : No

Text #1
ID : 7
Format : PGS
Muxing mode : zlib
Codec ID : S_HDMV/PGS
Codec ID/Info : Picture based subtitle format used on BDs/HD-DVDs
Duration : 1 h 27 min
Bit rate : 65.2 kb/s
Count of elements : 4222
Stream size : 40.8 MiB (0%)
Title : English-PGS
Language : English
Default : Yes
Forced : No

Text #2
ID : 8
Format : PGS
Muxing mode : zlib
Codec ID : S_HDMV/PGS
Codec ID/Info : Picture based subtitle format used on BDs/HD-DVDs
Duration : 1 h 32 min
Bit rate : 47.8 kb/s
Count of elements : 3318
Stream size : 31.4 MiB (0%)
Title : Spanish-PGS
Language : Spanish
Default : No
Forced : No

Text #3
ID : 9
Format : PGS
Muxing mode : zlib
Codec ID : S_HDMV/PGS
Codec ID/Info : Picture based subtitle format used on BDs/HD-DVDs
Duration : 1 h 32 min
Bit rate : 48.4 kb/s
Count of elements : 3714
Stream size : 31.8 MiB (0%)
Title : French-PGS
Language : French
Default : No
Forced : No

Text #4
ID : 10
Format : PGS
Muxing mode : zlib
Codec ID : S_HDMV/PGS
Codec ID/Info : Picture based subtitle format used on BDs/HD-DVDs
Duration : 1 h 32 min
Bit rate : 10.4 kb/s
Count of elements : 670
Stream size : 6.87 MiB (0%)
Title : Spanish-FORCED-PGS
Language : Spanish
Default : No
Forced : No

Text #5
ID : 11
Format : PGS
Muxing mode : zlib
Codec ID : S_HDMV/PGS
Codec ID/Info : Picture based subtitle format used on BDs/HD-DVDs
Duration : 1 h 32 min
Bit rate : 10.7 kb/s
Count of elements : 760
Stream size : 7.04 MiB (0%)
Title : French-FORCED-PGS
Language : French
Default : No
Forced : No

Menu
00:00:00.000 : en:Chapter 1
00:02:39.534 : en:Chapter 2
00:05:19.319 : en:Chapter 3
00:09:32.530 : en:Chapter 4
00:14:16.564 : en:Chapter 5
00:16:56.432 : en:Chapter 6
00:19:10.941 : en:Chapter 7
00:24:52.657 : en:Chapter 8
00:29:27.766 : en:Chapter 9
00:34:34.113 : en:Chapter 10
00:38:42.403 : en:Chapter 11
00:45:51.832 : en:Chapter 12
00:50:32.612 : en:Chapter 13
00:55:43.548 : en:Chapter 14
00:59:16.469 : en:Chapter 15
01:05:02.189 : en:Chapter 16
01:09:43.053 : en:Chapter 17
01:15:25.729 : en:Chapter 18
01:19:26.928 : en:Chapter 19
01:26:21.176 : en:Chapter 20
movie BDRip Video
ID : 1
Format : HEVC
Format/Info : High Efficiency Video Coding
Format profile : Main 10@L5.1@High
Codec ID : V_MPEGH/ISO/HEVC
Duration : 1 h 33 min
Bit rate : 44.5 Mb/s
Width : 3 840 pixels
Height : 2 076 pixels
Display aspect ratio : 1.85:1
Frame rate mode : Constant
Frame rate : 23.976 (24000/1001) FPS
Color space : YUV
Chroma subsampling : 4:2:0 (Type 2)
Bit depth : 10 bits
Bits/(Pixel*Frame) : 0.233
Stream size : 28.9 GiB (88%)
Writing library : x265 2.6+31-3712d13c09bf:[Windows][GCC 6.3.0][64 bit] 10bit
Encoding settings : cpuid=1173503 / frame-threads=4 / numa-pools=20 / wpp / no-pmode / no-pme / no-psnr / no-ssim / log-level=2 / input-csp=1 / input-res=3840x2076 / interlace=0 / total-frames=133881 / level-idc=51 / high-tier=1 / uhd-bd=0 / ref=4 / no-allow-non-conformance / repeat-headers / annexb / aud / hrd / info / hash=0 / no-temporal-layers / no-open-gop / min-keyint=1 / keyint=24 / gop-lookahead=0 / bframes=4 / b-adapt=2 / b-pyramid / bframe-bias=0 / rc-lookahead=25 / lookahead-slices=4 / scenecut=40 / radl=0 / no-intra-refresh / ctu=64 / min-cu-size=8 / rect / no-amp / max-tu-size=32 / tu-inter-depth=1 / tu-intra-depth=1 / limit-tu=0 / rdoq-level=2 / dynamic-rd=0.00 / no-ssim-rd / signhide / no-tskip / nr-intra=0 / nr-inter=0 / no-constrained-intra / no-strong-intra-smoothing / max-merge=3 / limit-refs=3 / limit-modes / me=3 / subme=3 / merange=57 / temporal-mvp / weightp / no-weightb / no-analyze-src-pics / deblock=-3:-3 / no-sao / no-sao-non-deblock / rd=4 / no-early-skip / rskip / no-fast-intra / no-tskip-fast / no-cu-lossless / no-b-intra / no-splitrd-skip / rdpenalty=0 / psy-rd=2.00 / psy-rdoq=1.00 / no-rd-refine / no-lossless / cbqpoffs=0 / crqpoffs=0 / rc=crf / crf=17.0 / qcomp=0.60 / qpstep=4 / stats-write=0 / stats-read=0 / vbv-maxrate=160000 / vbv-bufsize=160000 / vbv-init=0.9 / crf-max=0.0 / crf-min=0.0 / ipratio=1.40 / pbratio=1.30 / aq-mode=1 / aq-strength=1.00 / cutree / zone-count=0 / no-strict-cbr / qg-size=32 / no-rc-grain / qpmax=69 / qpmin=0 / no-const-vbv / sar=1 / overscan=0 / videoformat=5 / range=0 / colorprim=9 / transfer=16 / colormatrix=9 / chromaloc=1 / chromaloc-top=2 / chromaloc-bottom=2 / display-window=0 / master-display=G(13250,34500)B(7500,3000)R(34000,16000)WP(15635,16450)L(10000000,50) / max-cll=992,373 / min-luma=0 / max-luma=1023 / log2-max-poc-lsb=8 / vui-timing-info / vui-hrd-info / slices=1 / no-opt-qp-pps / no-opt-ref-list-length-pps / no-multi-pass-opt-rps / scenecut-bias=0.05 / no-opt-cu-delta-qp / no-aq-motion / hdr / hdr-opt / no-dhdr10-opt / analysis-reuse-level=5 / scale-factor=0 / refine-intra=0 / refine-inter=0 / refine-mv=0 / no-limit-sao / ctu-info=0 / no-lowpass-dct / refine-mv-type=0 / copy-pic=1
Default : Yes
Forced : No
Color range : Limited
Color primaries : BT.2020
Transfer characteristics : PQ
Matrix coefficients : BT.2020 non-constant
Mastering display color primaries : Display P3
Mastering display luminance : min: 0.0050 cd/m2, max: 1000 cd/m2
Maximum Content Light Level : 992 cd/m2
Maximum Frame-Average Light Level : 373 cd/m2

Audio #1
ID : 2
Format : DTS
Format/Info : Digital Theater Systems
Format profile : X / MA / Core
Codec ID : A_DTS
Duration : 1 h 33 min
Bit rate mode : Variable / Variable / Constant
Bit rate : 5 333 kb/s / 5 333 kb/s / 1 509 kb/s
Channel(s) : Object Based / 8 channels / 6 channels
Channel positions : Object Based / Front: L C R, Side: L R, Back: L R, LFE / Front: L C R, Side: L R, LFE
Sampling rate : / 48.0 kHz / 48.0 kHz
Frame rate : 93.750 FPS (512 SPF)
Bit depth : / 24 bits / 24 bits
Compression mode : / Lossless / Lossy
Stream size : 3.47 GiB (11%)
Language : English
Default : Yes
Forced : No

Audio #2
ID : 3
Format : AC-3
Format/Info : Audio Coding 3
Codec ID : A_AC3
Duration : 1 h 33 min
Bit rate mode : Constant
Bit rate : 192 kb/s
Channel(s) : 2 channels
Channel positions : Front: L R
Sampling rate : 48.0 kHz
Frame rate : 31.250 FPS (1536 SPF)
Bit depth : 16 bits
Compression mode : Lossy
Stream size : 128 MiB (0%)
Title : Commentary
Language : English
Service kind : Complete Main
Default : No
Forced : No

Audio #3
ID : 4
Format : AC-3
Format/Info : Audio Coding 3
Codec ID : A_AC3
Duration : 1 h 33 min
Bit rate mode : Constant
Bit rate : 192 kb/s
Channel(s) : 2 channels
Channel positions : Front: L R
Sampling rate : 48.0 kHz
Frame rate : 31.250 FPS (1536 SPF)
Bit depth : 16 bits
Compression mode : Lossy
Stream size : 128 MiB (0%)
Title : Commentary
Language : English
Service kind : Complete Main
Default : No
Forced : No

Text #1
ID : 5
Format : PGS
Muxing mode : zlib
Codec ID : S_HDMV/PGS
Codec ID/Info : Picture based subtitle format used on BDs/HD-DVDs
Duration : 1 h 27 min
Bit rate : 65.2 kb/s
Count of elements : 4222
Stream size : 40.8 MiB (0%)
Language : English
Default : No
Forced : No

Text #2
ID : 6
Format : PGS
Muxing mode : zlib
Codec ID : S_HDMV/PGS
Codec ID/Info : Picture based subtitle format used on BDs/HD-DVDs
Duration : 1 h 32 min
Bit rate : 47.8 kb/s
Count of elements : 3318
Stream size : 31.4 MiB (0%)
Language : Spanish
Default : No
Forced : No

Text #3
ID : 7
Format : PGS
Muxing mode : zlib
Codec ID : S_HDMV/PGS
Codec ID/Info : Picture based subtitle format used on BDs/HD-DVDs
Duration : 1 h 32 min
Bit rate : 48.4 kb/s
Count of elements : 3714
Stream size : 31.8 MiB (0%)
Language : French
Default : No
Forced : No

Text #4
ID : 8
Format : PGS
Muxing mode : zlib
Codec ID : S_HDMV/PGS
Codec ID/Info : Picture based subtitle format used on BDs/HD-DVDs
Duration : 1 h 32 min
Bit rate : 10.4 kb/s
Count of elements : 670
Stream size : 6.87 MiB (0%)
Language : Spanish
Default : No
Forced : No

Text #5
ID : 9
Format : PGS
Muxing mode : zlib
Codec ID : S_HDMV/PGS
Codec ID/Info : Picture based subtitle format used on BDs/HD-DVDs
Duration : 1 h 32 min
Bit rate : 10.7 kb/s
Count of elements : 760
Stream size : 7.04 MiB (0%)
Language : French
Default : No
Forced : No

Download

download 4k hdr movies download 4k hdr movies

Watch a movie trailer - Pitch Perfect 3 4K 2017 Ultra HD 2160p
Comments and Feedback
Add your comment:
Your name:
Your E-Mail:
Code:
reload, if the code cannot be seen
Enter code: