Select movie Search movie Close search My Account

Fifty Shades Darker 4K 2017 Ultra HD 2160p

Fifty Shades Darker 4K 2017 Ultra HD 2160p
BDRemux / BDRip
Country: USA
Time: 1h 58min
IMDB: 4.6
Director: James Foley
Actors: Dakota Johnson, Jamie Dornan, Eric Johnson, Eloise Mumford, Bella Heathcote, Rita Ora, Luke Grimes, Victor Rasuk, Max Martini, Bruce Altman, Kim Basinger, Marcia Gay Harden, Andrew Airlie, Robinne Lee, Amy Price-Francis...

Story Movie

While Christian wrestles with his inner demons, Anastasia must confront the anger and envy of the women who came before her.

Christian and Ana decide to rekindle their relationship, except this time there are no more rules or punishments. As they begin to get used to their newfound relationship, Christian's past begins to haunt Ana as Christian struggles with his innermost thoughts.

Review 4K Movie

Never read the books and didn't see the first one, but really wanted to see a movie this weekend and this looked like the best bet. My wife and I sat in the last row, cuddled, giggled, and enjoyed this movie immensely. I was even a bit teary-eyed in two of the scenes. Thought it would run for another 20-25 minutes when it ended, but felt the ending was perfect anyway, and they set up the 3rd movie nicely. I'd give it 7.5 out of ten if that were allowed...for what it is, a soft core porn type of suspense movie, it deserves that rating. Not 4.5. Sorry, IMDb users. I'm trusting you less and less all the time...and rotten tomatoes too. 8%. Really? What were movie did they think they were going to see???

Mediainfo

movie BDRemux Video
ID : 1
Format : HEVC
Format/Info : High Efficiency Video Coding
Format profile : Main 10@L5.1@High
Codec ID : V_MPEGH/ISO/HEVC
Duration : 2 h 11 min
Bit rate : 39.2 Mb/s
Width : 3 840 pixels
Height : 2 160 pixels
Display aspect ratio : 16:9
Frame rate mode : Constant
Frame rate : 23.976 (24000/1001) FPS
Color space : YUV
Chroma subsampling : 4:2:0 (Type 2)
Bit depth : 10 bits
Bits/(Pixel*Frame) : 0.197
Stream size : 36.0 GiB (85%)
Title : Fifty.Shades.Darker.2017.UNRATED.2160p.BluRay.REMUX.HEVC.DTS-X.7.1-FGT
Writing library : ATEME Titan File 3.7.8 (4.7.8.0)
Default : Yes
Forced : No
Color range : Limited
Color primaries : BT.2020
Transfer characteristics : PQ
Matrix coefficients : BT.2020 non-constant
Mastering display color primaries : R: x=0.680000 y=0.320000, G: x=0.265000 y=0.690000, B: x=0.150000 y=0.060000, White point: x=0.312700 y=0.329000
Mastering display luminance : min: 0.0050 cd/m2, max: 1000.0000 cd/m2
Maximum Content Light Level : 1000 cd/m2
Maximum Frame-Average Light Level : 127 cd/m2

Audio #1
ID : 2
Format : DTS
Format/Info : Digital Theater Systems
Format profile : X / MA / Core
Codec ID : A_DTS
Duration : 2 h 11 min
Bit rate mode : Variable / Variable / Constant
Bit rate : 4 952 kb/s / 4 952 kb/s / 1 509 kb/s
Channel(s) : Object Based / 8 channels / 6 channels
Channel positions : Object Based / Front: L C R, Side: L R, Back: L R, LFE / Front: L C R, Side: L R, LFE
Sampling rate : / 48.0 kHz / 48.0 kHz
Frame rate : 93.750 FPS (512 SPF)
Bit depth : / 24 bits / 24 bits
Compression mode : / Lossless / Lossy
Stream size : 4.55 GiB (11%)
Title : Fifty.Shades.Darker.2017.UNRATED.2160p.BluRay.REMUX.HEVC.DTS-X.7.1-FGT
Language : English
Default : Yes
Forced : No

Audio #2
ID : 3
Format : DTS
Format/Info : Digital Theater Systems
Codec ID : A_DTS
Duration : 2 h 11 min
Bit rate mode : Constant
Bit rate : 255 kb/s
Channel(s) : 2 channels
Channel positions : Front: L R
Sampling rate : 48.0 kHz
Frame rate : 93.750 FPS (512 SPF)
Bit depth : 24 bits
Compression mode : Lossy
Stream size : 240 MiB (1%)
Title : Fifty.Shades.Darker.2017.UNRATED.2160p.BluRay.REMUX.HEVC.DTS-X.7.1-FGT
Language : English
Default : No
Forced : No

Audio #3
ID : 4
Format : DTS
Format/Info : Digital Theater Systems
Codec ID : A_DTS
Duration : 2 h 11 min
Bit rate mode : Constant
Bit rate : 768 kb/s
Channel(s) : 6 channels
Channel positions : Front: L C R, Side: L R, LFE
Sampling rate : 48.0 kHz
Frame rate : 93.750 FPS (512 SPF)
Bit depth : 24 bits
Compression mode : Lossy
Stream size : 722 MiB (2%)
Title : Fifty.Shades.Darker.2017.UNRATED.2160p.BluRay.REMUX.HEVC.DTS-X.7.1-FGT
Language : Spanish
Default : No
Forced : No

Audio #4
ID : 5
Format : DTS
Format/Info : Digital Theater Systems
Codec ID : A_DTS
Duration : 2 h 11 min
Bit rate mode : Constant
Bit rate : 768 kb/s
Channel(s) : 6 channels
Channel positions : Front: L C R, Side: L R, LFE
Sampling rate : 48.0 kHz
Frame rate : 93.750 FPS (512 SPF)
Bit depth : 24 bits
Compression mode : Lossy
Stream size : 722 MiB (2%)
Title : Fifty.Shades.Darker.2017.UNRATED.2160p.BluRay.REMUX.HEVC.DTS-X.7.1-FGT
Language : French
Default : No
Forced : No

Text #1
ID : 6
Format : PGS
Muxing mode : zlib
Codec ID : S_HDMV/PGS
Codec ID/Info : Picture based subtitle format used on BDs/HD-DVDs
Duration : 2 h 8 min
Bit rate : 31.7 kb/s
Count of elements : 3342
Stream size : 29.2 MiB (0%)
Title : English-PGS
Language : English
Default : Yes
Forced : No

Text #2
ID : 7
Format : PGS
Muxing mode : zlib
Codec ID : S_HDMV/PGS
Codec ID/Info : Picture based subtitle format used on BDs/HD-DVDs
Duration : 2 h 11 min
Bit rate : 25.0 kb/s
Count of elements : 2928
Stream size : 23.4 MiB (0%)
Title : Spanish-PGS
Language : Spanish
Default : No
Forced : No

Text #3
ID : 8
Format : PGS
Muxing mode : zlib
Codec ID : S_HDMV/PGS
Codec ID/Info : Picture based subtitle format used on BDs/HD-DVDs
Duration : 2 h 11 min
Bit rate : 26.4 kb/s
Count of elements : 2904
Stream size : 24.8 MiB (0%)
Title : French-PGS
Language : French
Default : No
Forced : No

Text #4
ID : 9
Format : PGS
Muxing mode : zlib
Codec ID : S_HDMV/PGS
Codec ID/Info : Picture based subtitle format used on BDs/HD-DVDs
Duration : 2 h 9 min
Bit rate : 237 b/s
Count of elements : 62
Stream size : 226 KiB (0%)
Title : Spanish-FORCED-PGS
Language : Spanish
Default : No
Forced : No

Text #5
ID : 10
Format : PGS
Muxing mode : zlib
Codec ID : S_HDMV/PGS
Codec ID/Info : Picture based subtitle format used on BDs/HD-DVDs
Duration : 2 h 9 min
Bit rate : 577 b/s
Count of elements : 88
Stream size : 549 KiB (0%)
Title : French-FORCED-PGS
Language : French
Default : No
Forced : No

Menu
00:00:00.000 : en:Chapter 1
00:05:47.722 : en:Chapter 2
00:13:14.460 : en:Chapter 3
00:18:18.055 : en:Chapter 4
00:24:45.358 : en:Chapter 5
00:29:19.674 : en:Chapter 6
00:37:25.201 : en:Chapter 7
00:44:31.794 : en:Chapter 8
00:50:22.394 : en:Chapter 9
00:57:58.057 : en:Chapter 10
01:06:01.957 : en:Chapter 11
01:11:54.935 : en:Chapter 12
01:24:49.876 : en:Chapter 13
01:30:39.850 : en:Chapter 14
01:35:40.651 : en:Chapter 15
01:41:00.220 : en:Chapter 16
01:48:53.735 : en:Chapter 17
01:55:57.700 : en:Chapter 18
02:01:38.374 : en:Chapter 19
02:05:32.149 : en:Chapter 20
movie BDRip Video
ID : 1
Format : HEVC
Format/Info : High Efficiency Video Coding
Format profile : Main 10@L5.1@High
Codec ID : V_MPEGH/ISO/HEVC
Duration : 2 h 11 min
Bit rate : 9 204 kb/s
Width : 3 840 pixels
Height : 1 600 pixels
Display aspect ratio : 2.40:1
Frame rate mode : Constant
Frame rate : 23.976 (24000/1001) FPS
Color space : YUV
Chroma subsampling : 4:2:0 (Type 2)
Bit depth : 10 bits
Bits/(Pixel*Frame) : 0.062
Stream size : 8.45 GiB (65%)
Writing library : x265 2.5+38-8a121d8cc134:[Windows][GCC 6.2.1][64 bit] 10bit
Encoding settings : cpuid=1173503 / frame-threads=4 / numa-pools=20 / wpp / no-pmode / no-pme / no-psnr / no-ssim / log-level=2 / input-csp=1 / input-res=3840x1600 / interlace=0 / total-frames=189144 / level-idc=51 / high-tier=1 / uhd-bd=0 / ref=4 / no-allow-non-conformance / repeat-headers / annexb / aud / hrd / info / hash=0 / no-temporal-layers / no-open-gop / min-keyint=1 / keyint=24 / bframes=4 / b-adapt=2 / b-pyramid / bframe-bias=0 / rc-lookahead=25 / lookahead-slices=4 / scenecut=40 / no-intra-refresh / ctu=64 / min-cu-size=8 / rect / no-amp / max-tu-size=32 / tu-inter-depth=1 / tu-intra-depth=1 / limit-tu=0 / rdoq-level=2 / dynamic-rd=0.00 / no-ssim-rd / signhide / no-tskip / nr-intra=0 / nr-inter=0 / no-constrained-intra / no-strong-intra-smoothing / max-merge=3 / limit-refs=3 / limit-modes / me=3 / subme=3 / merange=57 / temporal-mvp / weightp / no-weightb / no-analyze-src-pics / deblock=-3:-3 / no-sao / no-sao-non-deblock / rd=4 / no-early-skip / rskip / no-fast-intra / no-tskip-fast / no-cu-lossless / no-b-intra / no-splitrd-skip / rdpenalty=0 / psy-rd=2.00 / psy-rdoq=1.00 / no-rd-refine / analysis-reuse-mode=0 / no-lossless / cbqpoffs=0 / crqpoffs=0 / rc=crf / crf=17.0 / qcomp=0.60 / qpstep=4 / stats-write=0 / stats-read=0 / vbv-maxrate=160000 / vbv-bufsize=160000 / vbv-init=0.9 / crf-max=0.0 / crf-min=0.0 / ipratio=1.40 / pbratio=1.30 / aq-mode=1 / aq-strength=1.00 / cutree / zone-count=0 / no-strict-cbr / qg-size=32 / no-rc-grain / qpmax=69 / qpmin=0 / no-const-vbv / sar=1 / overscan=0 / videoformat=5 / range=0 / colorprim=9 / transfer=16 / colormatrix=9 / chromaloc=1 / chromaloc-top=2 / chromaloc-bottom=2 / display-window=0 / master-display=G(13250,34500)B(7500,3000)R(34000,16000)WP(15635,16450)L(10000000,50) / max-cll=1000,127 / min-luma=0 / max-luma=1023 / log2-max-poc-lsb=8 / vui-timing-info / vui-hrd-info / slices=1 / opt-qp-pps / opt-ref-list-length-pps / no-multi-pass-opt-rps / scenecut-bias=0.05 / no-opt-cu-delta-qp / no-aq-motion / hdr / hdr-opt / no-dhdr10-opt / analysis-reuse-level=5 / scale-factor=0 / refine-intra=0 / refine-inter=0 / refine-mv=0 / no-limit-sao / ctu-info=0 / no-lowpass-dct
Default : Yes
Forced : No
Color range : Limited
Color primaries : BT.2020
Transfer characteristics : PQ
Matrix coefficients : BT.2020 non-constant
Mastering display color primaries : R: x=0.680000 y=0.320000, G: x=0.265000 y=0.690000, B: x=0.150000 y=0.060000, White point: x=0.312700 y=0.329000
Mastering display luminance : min: 0.0050 cd/m2, max: 1000.0000 cd/m2
Maximum Content Light Level : 1000 cd/m2
Maximum Frame-Average Light Level : 127 cd/m2

Audio
ID : 2
Format : DTS
Format/Info : Digital Theater Systems
Format profile : X / MA / Core
Codec ID : A_DTS
Duration : 2 h 11 min
Bit rate mode : Variable / Variable / Constant
Bit rate : 4 952 kb/s / 4 952 kb/s / 1 509 kb/s
Channel(s) : Object Based / 8 channels / 6 channels
Channel positions : Object Based / Front: L C R, Side: L R, Back: L R, LFE / Front: L C R, Side: L R, LFE
Sampling rate : / 48.0 kHz / 48.0 kHz
Frame rate : 93.750 FPS (512 SPF)
Bit depth : / 24 bits / 24 bits
Compression mode : / Lossless / Lossy
Stream size : 4.55 GiB (35%)
Language : English
Default : Yes
Forced : No

Text #1
ID : 3
Format : PGS
Muxing mode : zlib
Codec ID : S_HDMV/PGS
Codec ID/Info : Picture based subtitle format used on BDs/HD-DVDs
Duration : 2 h 8 min
Bit rate : 31.7 kb/s
Count of elements : 3342
Stream size : 29.2 MiB (0%)
Title : SDH
Language : English
Default : No
Forced : No

Text #2
ID : 4
Format : PGS
Muxing mode : zlib
Codec ID : S_HDMV/PGS
Codec ID/Info : Picture based subtitle format used on BDs/HD-DVDs
Duration : 2 h 11 min
Bit rate : 25.0 kb/s
Count of elements : 2928
Stream size : 23.4 MiB (0%)
Language : Spanish
Default : No
Forced : No

Text #3
ID : 5
Format : PGS
Muxing mode : zlib
Codec ID : S_HDMV/PGS
Codec ID/Info : Picture based subtitle format used on BDs/HD-DVDs
Duration : 2 h 11 min
Bit rate : 26.4 kb/s
Count of elements : 2904
Stream size : 24.8 MiB (0%)
Language : French
Default : No
Forced : No

Menu
00:00:00.000 : en:00:00:00.000
00:05:47.722 : en:00:05:47.722
00:13:14.460 : en:00:13:14.460
00:18:18.055 : en:00:18:18.055
00:24:45.359 : en:00:24:45.359
00:29:19.675 : en:00:29:19.675
00:37:25.201 : en:00:37:25.201
00:44:31.794 : en:00:44:31.794
00:50:22.394 : en:00:50:22.394
00:57:58.058 : en:00:57:58.058
01:06:01.958 : en:01:06:01.958
01:11:54.936 : en:01:11:54.936
01:24:49.876 : en:01:24:49.876
01:30:39.851 : en:01:30:39.851
01:35:40.651 : en:01:35:40.651
01:41:00.221 : en:01:41:00.221
01:48:53.735 : en:01:48:53.735
01:55:57.701 : en:01:55:57.701
02:01:38.374 : en:02:01:38.374
02:05:32.149 : en:02:05:32.149

Download

download 4k hdr movies download 4k hdr movies

Fifty Shades Darker 4K 2017 Ultra HD 2160p


Watch a movie trailer - Fifty Shades Darker 4K 2017 Ultra HD 2160p
Comments and Feedback
Add your comment:
Your name:
Your E-Mail:
Enter the two words shown in the image: *