Select movie Search movie Close search My Account

Murder on the Orient Express 4K 2017 Ultra HD 2160p

Murder on the Orient Express 4K 2017 Ultra HD 2160p
BDRemux / BDRip
Country: USA | UK | Malta | France | Canada | New Zealand
Time: 1h 54min
IMDB: 6.6
Director: Kenneth Branagh
Actors: Paapa Essiedu, Yassine Zeroual, Asan N'Jie, Michael Rouse, Kenneth Branagh, Elliot Levey, David Annen, Joseph Long, Andy Apollo, Hadley Fraser, Daisy Ridley, Leslie Odom, Ziad Abaz, Nari Blair-Mangat, Luke Brady

Story Movie

Murder on the Orient Express 4K 2017 Ultra HD 2160p
Nobody could have imagined that traveling in one of the most expensive trains in Europe would be fatal. The film Murder on the Orient Express will tell you about the murder. And since nobody was sitting on the train, the killer is among the passengers themselves. And they decide to conduct the investigation themselves and calculate the culprit of the crime, as well as its motives. But at first glance, a simple task turns out to be a real puzzle. You can download Murder on the Orient Express 4k movie download time download a movie weighing 50 GB on average about 15 minutes. Depends on your internet connection.

Review 4K Movie

"Murder on the Orient Express" UHD - one of the most famous novels of Agatha Christie and certainly the most beloved of film-makers. The creation of Kenneth Brana is the third full-fledged adaptation of the detective story, and if you take episodes of serials that use this story, you can lose count. Nevertheless, the canonical adaptation is considered to be the "Murder" of 1974, which, although not included in the top 250 best films in the history of mankind, can claim the title of a classic. So could Hercule Poirot of the twenty-first century outperform his predecessor?

Accustomed to the "Marvel" screenings and a lot of action, the viewer will be disappointed: Kenneth Brana created a real English detective. Slow, gradually developing, a little pathos, theatrically beautiful. The latter is facilitated by painstaking attention to detail and surroundings: the chic interior of the train, the perfectly fitting costumes of characters, handmade embroidered handkerchiefs, expensive pipes of wood. And even "the most magnificent mustache in the whole of England" by Hercule Poirot are indeed the most magnificent of all that the cinema saw: the hero has a special cover for them so that they do not crumple while he sleeps.

Immediately, the main disadvantage of the film, or rather, of its director, lies: Brana flirts himself with the environment and is too addicted to self-admiration - and the main role he took to himself - that he forgets that there is someone else. He is certainly good and feels the detective of Agatha Christie like no other, but because of the intimacy and closeness of what is happening on the screen there is a feeling that only two hours are only him - a magnificent detective who speaks directly and straightforwardly to people what is said about thinks them, and acutely senses the imperfection of this world, which "protrudes like a nose on the face". Because of this, the other characters of the movie suddenly become themselves heroes-scenery, which carry no more functions than a red kimono embroidered with gold.

Each of them has a trump card in his sleeve and his own story, but only someone who knows the novel of the English writer firsthand will recognize and read it. Others still have to settle for a couple of powerful scenes that give a vivid characterization to the actors, and also the observation of their inert existence on the screen between the appearances of Poirot. Perhaps this would not be a bad thing if the actors were not so stellar: Johnny Depp (Edward Ratchet), Penelope Cruz (Pilar Estravados), Michelle Pfeiffer (Carolina Habberd), and Willem Dafoe (Gerard Hardman), and slightly less famous Daisy Ridley (Mary Debenham). Because of this, there is a feeling that the actors are not allowed to turn around, and their talent is not needed at all: only names that can attract a huge number of spectators are needed.

In addition, Brana allows himself to depart from the canon of the book, which is not forbidden, but it looks ridiculous. For example, action scenes, which in the film are completely out of place. It is clear that this is done for the sake of mass, but without them the film would not have lost anything, and attempts to create tension in this way look too cheap. And given that the director can do this in other ways - which is the final scene with the monologue of Hercule Poirot, referring to the recognizable event of the New Testament history - doubly.

Despite this, "Murder on the Orient Express" 4k movie download time download a movie weighing 50 GB on average about 15 minutes. Depends on your Internet connection, is a firmly knit detective, to which it is difficult to find fault in something else. And let it look not as we would like, but this is an obvious reason for the "little gray cells" to move again, trying to find the answer to the question: "So who is the murderer?" And although he has long been known, the feeling The fact that this time everything will be exactly different, does not leave until the very end.

Mediainfo

movie BDRemux Video
ID : 1
Format : HEVC
Format/Info : High Efficiency Video Coding
Format profile : Main 10@L5.1@High
Codec ID : V_MPEGH/ISO/HEVC
Duration : 1 h 53 min
Bit rate : 55.2 Mb/s
Width : 3 840 pixels
Height : 2 160 pixels
Display aspect ratio : 16:9
Frame rate mode : Constant
Frame rate : 23.976 (24000/1001) FPS
Color space : YUV
Chroma subsampling : 4:2:0 (Type 2)
Bit depth : 10 bits
Bits/(Pixel*Frame) : 0.278
Stream size : 43.9 GiB (79%)
Title : Murder.on.the.Orient.Express.2017.2160p.BluRay.REMUX.HEVC.DTS-HD.MA.TrueHD.7.1.Atmos
Writing library : ATEME Titan File 3.8.12 (4.8.12.0)
Default : Yes
Forced : No
Color range : Limited
Color primaries : BT.2020
Transfer characteristics : PQ
Matrix coefficients : BT.2020 non-constant
Mastering display color primaries : Display P3
Mastering display luminance : min: 0.0050 cd/m2, max: 1000 cd/m2

Audio #1
ID : 2
Format : TrueHD
Format profile : TrueHD+Atmos / TrueHD
Codec ID : A_TRUEHD
Duration : 1 h 53 min
Bit rate mode : Variable
Bit rate : 4 139 kb/s
Maximum bit rate : 7 662 kb/s
Channel(s) : Object Based / 8 channels
Channel positions : Object Based / Front: L C R, Side: L R, Back: L R, LFE
Sampling rate : / 48.0 kHz
Frame rate : 1 200.000 FPS (40 SPF)
Compression mode : Lossless
Delay relative to video : 32 ms
Stream size : 3.29 GiB (6%)
Title : Murder.on.the.Orient.Express.2017.2160p.BluRay.REMUX.HEVC.DTS-HD.MA.TrueHD.7.1.Atmos
Language : English
Default : Yes
Forced : No

Audio #2
ID : 3
Format : DTS
Format/Info : Digital Theater Systems
Format profile : MA / Core
Codec ID : A_DTS
Duration : 1 h 53 min
Bit rate mode : Variable / Constant
Bit rate : 3 307 kb/s / 1 509 kb/s
Channel(s) : 8 channels / 6 channels
Channel positions : Front: L C R, Side: L R, Back: L R, LFE / Front: L C R, Side: L R, LFE
Sampling rate : 48.0 kHz
Frame rate : 93.750 FPS (512 SPF)
Bit depth : 24 bits
Compression mode : Lossless / Lossy
Stream size : 2.63 GiB (5%)
Title : Murder.on.the.Orient.Express.2017.2160p.BluRay.REMUX.HEVC.DTS-HD.MA.TrueHD.7.1.Atmos
Language : English
Default : No
Forced : No

Audio #3
ID : 4
Format : AC-3
Format/Info : Audio Coding 3
Codec ID : A_AC3
Duration : 1 h 53 min
Bit rate mode : Constant
Bit rate : 640 kb/s
Channel(s) : 6 channels
Channel positions : Front: L C R, Side: L R, LFE
Sampling rate : 48.0 kHz
Frame rate : 31.250 FPS (1536 SPF)
Bit depth : 16 bits
Compression mode : Lossy
Delay relative to video : 31 ms
Stream size : 522 MiB (1%)
Title : Murder.on.the.Orient.Express.2017.2160p.BluRay.REMUX.HEVC.DTS-HD.MA.TrueHD.7.1.Atmos
Language : English
Service kind : Complete Main
Default : No
Forced : No

Audio #4
ID : 5
Format : AC-3
Format/Info : Audio Coding 3
Codec ID : A_AC3
Duration : 1 h 53 min
Bit rate mode : Constant
Bit rate : 448 kb/s
Channel(s) : 6 channels
Channel positions : Front: L C R, Side: L R, LFE
Sampling rate : 48.0 kHz
Frame rate : 31.250 FPS (1536 SPF)
Bit depth : 16 bits
Compression mode : Lossy
Stream size : 365 MiB (1%)
Title : Murder.on.the.Orient.Express.2017.2160p.BluRay.REMUX.HEVC.DTS-HD.MA.TrueHD.7.1.Atmos
Language : English
Service kind : Complete Main
Default : No
Forced : No

Audio #5
ID : 6
Format : AC-3
Format/Info : Audio Coding 3
Codec ID : A_AC3
Duration : 1 h 53 min
Bit rate mode : Constant
Bit rate : 448 kb/s
Channel(s) : 6 channels
Channel positions : Front: L C R, Side: L R, LFE
Sampling rate : 48.0 kHz
Frame rate : 31.250 FPS (1536 SPF)
Bit depth : 16 bits
Compression mode : Lossy
Stream size : 365 MiB (1%)
Title : Murder.on.the.Orient.Express.2017.2160p.BluRay.REMUX.HEVC.DTS-HD.MA.TrueHD.7.1.Atmos
Language : Spanish
Service kind : Complete Main
Default : No
Forced : No

Audio #6
ID : 7
Format : DTS
Format/Info : Digital Theater Systems
Codec ID : A_DTS
Duration : 1 h 53 min
Bit rate mode : Constant
Bit rate : 768 kb/s
Channel(s) : 6 channels
Channel positions : Front: L C R, Side: L R, LFE
Sampling rate : 48.0 kHz
Frame rate : 93.750 FPS (512 SPF)
Bit depth : 24 bits
Compression mode : Lossy
Stream size : 626 MiB (1%)
Title : Murder.on.the.Orient.Express.2017.2160p.BluRay.REMUX.HEVC.DTS-HD.MA.TrueHD.7.1.Atmos
Language : French
Default : No
Forced : No

Audio #7
ID : 8
Format : DTS
Format/Info : Digital Theater Systems
Codec ID : A_DTS
Duration : 1 h 53 min
Bit rate mode : Constant
Bit rate : 768 kb/s
Channel(s) : 6 channels
Channel positions : Front: L C R, Side: L R, LFE
Sampling rate : 48.0 kHz
Frame rate : 93.750 FPS (512 SPF)
Bit depth : 24 bits
Compression mode : Lossy
Stream size : 626 MiB (1%)
Title : Murder.on.the.Orient.Express.2017.2160p.BluRay.REMUX.HEVC.DTS-HD.MA.TrueHD.7.1.Atmos
Language : Spanish
Default : No
Forced : No

Audio #8
ID : 9
Format : DTS
Format/Info : Digital Theater Systems
Codec ID : A_DTS
Duration : 1 h 53 min
Bit rate mode : Constant
Bit rate : 768 kb/s
Channel(s) : 6 channels
Channel positions : Front: L C R, Side: L R, LFE
Sampling rate : 48.0 kHz
Frame rate : 93.750 FPS (512 SPF)
Bit depth : 24 bits
Compression mode : Lossy
Stream size : 626 MiB (1%)
Title : Murder.on.the.Orient.Express.2017.2160p.BluRay.REMUX.HEVC.DTS-HD.MA.TrueHD.7.1.Atmos
Language : German
Default : No
Forced : No

Audio #9
ID : 10
Format : DTS
Format/Info : Digital Theater Systems
Codec ID : A_DTS
Duration : 1 h 53 min
Bit rate mode : Constant
Bit rate : 768 kb/s
Channel(s) : 6 channels
Channel positions : Front: L C R, Side: L R, LFE
Sampling rate : 48.0 kHz
Frame rate : 93.750 FPS (512 SPF)
Bit depth : 24 bits
Compression mode : Lossy
Stream size : 626 MiB (1%)
Title : Murder.on.the.Orient.Express.2017.2160p.BluRay.REMUX.HEVC.DTS-HD.MA.TrueHD.7.1.Atmos
Language : Italian
Default : No
Forced : No

Audio #10
ID : 11
Format : DTS
Format/Info : Digital Theater Systems
Codec ID : A_DTS
Duration : 1 h 53 min
Bit rate mode : Constant
Bit rate : 768 kb/s
Channel(s) : 6 channels
Channel positions : Front: L C R, Side: L R, LFE
Sampling rate : 48.0 kHz
Frame rate : 93.750 FPS (512 SPF)
Bit depth : 24 bits
Compression mode : Lossy
Stream size : 626 MiB (1%)
Title : Murder.on.the.Orient.Express.2017.2160p.BluRay.REMUX.HEVC.DTS-HD.MA.TrueHD.7.1.Atmos
Language : Japanese
Default : No
Forced : No

Audio #11
ID : 12
Format : AC-3
Format/Info : Audio Coding 3
Codec ID : A_AC3
Duration : 1 h 53 min
Bit rate mode : Constant
Bit rate : 448 kb/s
Channel(s) : 6 channels
Channel positions : Front: L C R, Side: L R, LFE
Sampling rate : 48.0 kHz
Frame rate : 31.250 FPS (1536 SPF)
Bit depth : 16 bits
Compression mode : Lossy
Stream size : 365 MiB (1%)
Title : Murder.on.the.Orient.Express.2017.2160p.BluRay.REMUX.HEVC.DTS-HD.MA.TrueHD.7.1.Atmos
Language : Czech
Service kind : Complete Main
Default : No
Forced : No

Audio #12
ID : 13
Format : AC-3
Format/Info : Audio Coding 3
Codec ID : A_AC3
Duration : 1 h 53 min
Bit rate mode : Constant
Bit rate : 448 kb/s
Channel(s) : 6 channels
Channel positions : Front: L C R, Side: L R, LFE
Sampling rate : 48.0 kHz
Frame rate : 31.250 FPS (1536 SPF)
Bit depth : 16 bits
Compression mode : Lossy
Stream size : 365 MiB (1%)
Title : Murder.on.the.Orient.Express.2017.2160p.BluRay.REMUX.HEVC.DTS-HD.MA.TrueHD.7.1.Atmos
Language : Polish
Service kind : Complete Main
Default : No
Forced : No

Audio #13
ID : 14
Format : AC-3
Format/Info : Audio Coding 3
Codec ID : A_AC3
Duration : 1 h 53 min
Bit rate mode : Constant
Bit rate : 224 kb/s
Channel(s) : 2 channels
Channel positions : Front: L R
Sampling rate : 48.0 kHz
Frame rate : 31.250 FPS (1536 SPF)
Bit depth : 16 bits
Compression mode : Lossy
Stream size : 183 MiB (0%)
Title : Murder.on.the.Orient.Express.2017.2160p.BluRay.REMUX.HEVC.DTS-HD.MA.TrueHD.7.1.Atmos
Language : English
Service kind : Complete Main
Default : No
Forced : No

Text #1
ID : 15
Format : PGS
Muxing mode : zlib
Codec ID : S_HDMV/PGS
Codec ID/Info : Picture based subtitle format used on BDs/HD-DVDs
Duration : 1 h 45 min
Bit rate : 50.0 kb/s
Count of elements : 3958
Stream size : 37.9 MiB (0%)
Title : English-PGS
Language : English
Default : Yes
Forced : No

Text #2
ID : 16
Format : PGS
Muxing mode : zlib
Codec ID : S_HDMV/PGS
Codec ID/Info : Picture based subtitle format used on BDs/HD-DVDs
Duration : 1 h 53 min
Bit rate : 41.5 kb/s
Count of elements : 3138
Stream size : 33.6 MiB (0%)
Title : Spanish-PGS
Language : Spanish
Default : No
Forced : No

Text #3
ID : 17
Format : PGS
Muxing mode : zlib
Codec ID : S_HDMV/PGS
Codec ID/Info : Picture based subtitle format used on BDs/HD-DVDs
Duration : 1 h 53 min
Bit rate : 36.6 kb/s
Count of elements : 3174
Stream size : 29.6 MiB (0%)
Title : French-PGS
Language : French
Default : No
Forced : No

Text #4
ID : 18
Format : PGS
Muxing mode : zlib
Codec ID : S_HDMV/PGS
Codec ID/Info : Picture based subtitle format used on BDs/HD-DVDs
Duration : 1 h 52 min
Bit rate : 28.8 kb/s
Count of elements : 3016
Stream size : 23.1 MiB (0%)
Title : Japanese-PGS
Language : Japanese
Default : No
Forced : No

Text #5
ID : 19
Format : PGS
Muxing mode : zlib
Codec ID : S_HDMV/PGS
Codec ID/Info : Picture based subtitle format used on BDs/HD-DVDs
Duration : 1 h 53 min
Bit rate : 38.5 kb/s
Count of elements : 3312
Stream size : 31.1 MiB (0%)
Title : Spanish-PGS
Language : Spanish
Default : No
Forced : No

Text #6
ID : 20
Format : PGS
Muxing mode : zlib
Codec ID : S_HDMV/PGS
Codec ID/Info : Picture based subtitle format used on BDs/HD-DVDs
Duration : 1 h 53 min
Bit rate : 38.2 kb/s
Count of elements : 2446
Stream size : 30.9 MiB (0%)
Title : Danish-PGS
Language : Danish
Default : No
Forced : No

Text #7
ID : 21
Format : PGS
Muxing mode : zlib
Codec ID : S_HDMV/PGS
Codec ID/Info : Picture based subtitle format used on BDs/HD-DVDs
Duration : 1 h 52 min
Bit rate : 35.6 kb/s
Count of elements : 2734
Stream size : 28.7 MiB (0%)
Title : Dutch-PGS
Language : Dutch
Default : No
Forced : No

Text #8
ID : 22
Format : PGS
Muxing mode : zlib
Codec ID : S_HDMV/PGS
Codec ID/Info : Picture based subtitle format used on BDs/HD-DVDs
Duration : 1 h 53 min
Bit rate : 36.6 kb/s
Count of elements : 3140
Stream size : 29.6 MiB (0%)
Title : Finnish-PGS
Language : Finnish
Default : No
Forced : No

Text #9
ID : 23
Format : PGS
Muxing mode : zlib
Codec ID : S_HDMV/PGS
Codec ID/Info : Picture based subtitle format used on BDs/HD-DVDs
Duration : 1 h 53 min
Bit rate : 44.3 kb/s
Count of elements : 3158
Stream size : 35.8 MiB (0%)
Title : German-PGS
Language : German
Default : No
Forced : No

Text #10
ID : 24
Format : PGS
Muxing mode : zlib
Codec ID : S_HDMV/PGS
Codec ID/Info : Picture based subtitle format used on BDs/HD-DVDs
Duration : 1 h 53 min
Bit rate : 40.3 kb/s
Count of elements : 3206
Stream size : 32.6 MiB (0%)
Title : Italian-PGS
Language : Italian
Default : No
Forced : No

Text #11
ID : 25
Format : PGS
Muxing mode : zlib
Codec ID : S_HDMV/PGS
Codec ID/Info : Picture based subtitle format used on BDs/HD-DVDs
Duration : 1 h 53 min
Bit rate : 39.0 kb/s
Count of elements : 3204
Stream size : 31.5 MiB (0%)
Title : Norwegian-PGS
Language : Norwegian
Default : No
Forced : No

Text #12
ID : 26
Format : PGS
Muxing mode : zlib
Codec ID : S_HDMV/PGS
Codec ID/Info : Picture based subtitle format used on BDs/HD-DVDs
Duration : 1 h 53 min
Bit rate : 38.8 kb/s
Count of elements : 3144
Stream size : 31.4 MiB (0%)
Title : Swedish-PGS
Language : Swedish
Default : No
Forced : No

Text #13
ID : 27
Format : PGS
Muxing mode : zlib
Codec ID : S_HDMV/PGS
Codec ID/Info : Picture based subtitle format used on BDs/HD-DVDs
Duration : 1 h 53 min
Bit rate : 30.6 kb/s
Count of elements : 3218
Stream size : 24.7 MiB (0%)
Title : Chinese-PGS
Language : Chinese
Default : No
Forced : No

Text #14
ID : 28
Format : PGS
Muxing mode : zlib
Codec ID : S_HDMV/PGS
Codec ID/Info : Picture based subtitle format used on BDs/HD-DVDs
Duration : 1 h 53 min
Bit rate : 38.3 kb/s
Count of elements : 3146
Stream size : 30.9 MiB (0%)
Title : Czech-PGS
Language : Czech
Default : No
Forced : No

Text #15
ID : 29
Format : PGS
Muxing mode : zlib
Codec ID : S_HDMV/PGS
Codec ID/Info : Picture based subtitle format used on BDs/HD-DVDs
Duration : 1 h 52 min
Bit rate : 28.7 kb/s
Count of elements : 3148
Stream size : 23.1 MiB (0%)
Title : Chinese-PGS
Language : Chinese
Default : No
Forced : No

Text #16
ID : 30
Format : PGS
Muxing mode : zlib
Codec ID : S_HDMV/PGS
Codec ID/Info : Picture based subtitle format used on BDs/HD-DVDs
Duration : 1 h 53 min
Bit rate : 34.5 kb/s
Count of elements : 2950
Stream size : 27.9 MiB (0%)
Title : Polish-PGS
Language : Polish
Default : No
Forced : No

Text #17
ID : 31
Format : PGS
Muxing mode : zlib
Codec ID : S_HDMV/PGS
Codec ID/Info : Picture based subtitle format used on BDs/HD-DVDs
Duration : 1 h 53 min
Bit rate : 86.7 kb/s
Count of elements : 4568
Stream size : 70.5 MiB (0%)
Title : English-COMMENTARY-PGS
Language : English
Default : No
Forced : No

Text #18
ID : 32
Format : PGS
Muxing mode : zlib
Codec ID : S_HDMV/PGS
Codec ID/Info : Picture based subtitle format used on BDs/HD-DVDs
Duration : 1 h 53 min
Bit rate : 75.4 kb/s
Count of elements : 4504
Stream size : 61.4 MiB (0%)
Title : Spanish-COMMENTARY-PGS
Language : Spanish
Default : No
Forced : No

Text #19
ID : 33
Format : PGS
Muxing mode : zlib
Codec ID : S_HDMV/PGS
Codec ID/Info : Picture based subtitle format used on BDs/HD-DVDs
Duration : 1 h 53 min
Bit rate : 77.7 kb/s
Count of elements : 4504
Stream size : 63.3 MiB (0%)
Title : French-COMMENTARY-PGS
Language : French
Default : No
Forced : No

Text #20
ID : 34
Format : PGS
Muxing mode : zlib
Codec ID : S_HDMV/PGS
Codec ID/Info : Picture based subtitle format used on BDs/HD-DVDs
Duration : 1 h 53 min
Bit rate : 79.3 kb/s
Count of elements : 4504
Stream size : 64.6 MiB (0%)
Title : Spanish-COMMENTARY-PGS
Language : Spanish
Default : No
Forced : No

Text #21
ID : 35
Format : PGS
Muxing mode : zlib
Codec ID : S_HDMV/PGS
Codec ID/Info : Picture based subtitle format used on BDs/HD-DVDs
Duration : 1 h 53 min
Bit rate : 75.3 kb/s
Count of elements : 4504
Stream size : 61.3 MiB (0%)
Title : Danish-COMMENTARY-PGS
Language : Danish
Default : No
Forced : No

Text #22
ID : 36
Format : PGS
Muxing mode : zlib
Codec ID : S_HDMV/PGS
Codec ID/Info : Picture based subtitle format used on BDs/HD-DVDs
Duration : 1 h 53 min
Bit rate : 67.7 kb/s
Count of elements : 4504
Stream size : 55.1 MiB (0%)
Title : Dutch-COMMENTARY-PGS
Language : Dutch
Default : No
Forced : No

Text #23
ID : 37
Format : PGS
Muxing mode : zlib
Codec ID : S_HDMV/PGS
Codec ID/Info : Picture based subtitle format used on BDs/HD-DVDs
Duration : 1 h 53 min
Bit rate : 76.0 kb/s
Count of elements : 4482
Stream size : 61.8 MiB (0%)
Title : Finnish-COMMENTARY-PGS
Language : Finnish
Default : No
Forced : No

Text #24
ID : 38
Format : PGS
Muxing mode : zlib
Codec ID : S_HDMV/PGS
Codec ID/Info : Picture based subtitle format used on BDs/HD-DVDs
Duration : 1 h 53 min
Bit rate : 81.8 kb/s
Count of elements : 4504
Stream size : 66.6 MiB (0%)
Title : German-COMMENTARY-PGS
Language : German
Default : No
Forced : No

Text #25
ID : 39
Format : PGS
Muxing mode : zlib
Codec ID : S_HDMV/PGS
Codec ID/Info : Picture based subtitle format used on BDs/HD-DVDs
Duration : 1 h 53 min
Bit rate : 78.3 kb/s
Count of elements : 4504
Stream size : 63.8 MiB (0%)
Title : Italian-COMMENTARY-PGS
Language : Italian
Default : No
Forced : No

Text #26
ID : 40
Format : PGS
Muxing mode : zlib
Codec ID : S_HDMV/PGS
Codec ID/Info : Picture based subtitle format used on BDs/HD-DVDs
Duration : 1 h 53 min
Bit rate : 45.4 kb/s
Count of elements : 3130
Stream size : 37.0 MiB (0%)
Title : Japanese-COMMENTARY-PGS
Language : Japanese
Default : No
Forced : No

Text #27
ID : 41
Format : PGS
Muxing mode : zlib
Codec ID : S_HDMV/PGS
Codec ID/Info : Picture based subtitle format used on BDs/HD-DVDs
Duration : 1 h 53 min
Bit rate : 76.7 kb/s
Count of elements : 4504
Stream size : 62.5 MiB (0%)
Title : Norwegian-COMMENTARY-PGS
Language : Norwegian
Default : No
Forced : No

Text #28
ID : 42
Format : PGS
Muxing mode : zlib
Codec ID : S_HDMV/PGS
Codec ID/Info : Picture based subtitle format used on BDs/HD-DVDs
Duration : 1 h 53 min
Bit rate : 70.8 kb/s
Count of elements : 4504
Stream size : 57.7 MiB (0%)
Title : Swedish-COMMENTARY-PGS
Language : Swedish
Default : No
Forced : No

Text #29
ID : 43
Format : PGS
Muxing mode : zlib
Codec ID : S_HDMV/PGS
Codec ID/Info : Picture based subtitle format used on BDs/HD-DVDs
Duration : 1 h 35 min
Bit rate : 476 b/s
Count of elements : 60
Stream size : 334 KiB (0%)
Title : Japanese-FORCED-PGS
Language : Japanese
Default : No
Forced : No

Text #30
ID : 44
Format : PGS
Muxing mode : zlib
Codec ID : S_HDMV/PGS
Codec ID/Info : Picture based subtitle format used on BDs/HD-DVDs
Duration : 1 h 33 min
Bit rate : 302 b/s
Count of elements : 50
Stream size : 207 KiB (0%)
Title : English-FORCED-PGS
Language : English
Default : No
Forced : No

Text #31
ID : 45
Format : PGS
Muxing mode : zlib
Codec ID : S_HDMV/PGS
Codec ID/Info : Picture based subtitle format used on BDs/HD-DVDs
Duration : 1 h 53 min
Bit rate : 565 b/s
Count of elements : 56
Stream size : 469 KiB (0%)
Title : German-FORCED-PGS
Language : German
Default : No
Forced : No

Menu
00:00:00.000 : en:Chapter 1
00:03:06.144 : en:Chapter 2
00:06:42.193 : en:Chapter 3
00:11:44.745 : en:Chapter 4
00:18:26.188 : en:Chapter 5
00:24:53.658 : en:Chapter 6
00:33:14.158 : en:Chapter 7
00:37:47.515 : en:Chapter 8
00:43:16.510 : en:Chapter 9
00:46:24.865 : en:Chapter 10
00:51:23.580 : en:Chapter 11
00:55:52.015 : en:Chapter 12
01:00:03.182 : en:Chapter 13
01:05:39.226 : en:Chapter 14
01:10:40.152 : en:Chapter 15
01:14:17.578 : en:Chapter 16
01:18:05.055 : en:Chapter 17
01:21:12.284 : en:Chapter 18
01:24:39.365 : en:Chapter 19
01:28:37.854 : en:Chapter 20
01:32:28.376 : en:Chapter 21
01:37:04.652 : en:Chapter 22
01:40:30.024 : en:Chapter 23
01:46:49.903 : en:Chapter 24
movie BDRip Video
ID : 1
Format : HEVC
Format/Info : High Efficiency Video Coding
Format profile : Main 10@L5.1@High
Codec ID : V_MPEGH/ISO/HEVC
Duration : 1 h 53 min
Width : 3 840 pixels
Height : 1 606 pixels
Display aspect ratio : 2.40:1
Frame rate mode : Constant
Frame rate : 23.976 (24000/1001) FPS
Color space : YUV
Chroma subsampling : 4:2:0 (Type 2)
Bit depth : 10 bits
Writing library : x265 2.6+37-1949157705ce:[Windows][GCC 6.3.0][64 bit] 10bit
Encoding settings : cpuid=1173503 / frame-threads=4 / numa-pools=16 / wpp / no-pmode / no-pme / no-psnr / no-ssim / log-level=2 / input-csp=1 / input-res=3840x1606 / interlace=0 / total-frames=163899 / level-idc=51 / high-tier=1 / uhd-bd=0 / ref=4 / no-allow-non-conformance / repeat-headers / annexb / aud / hrd / info / hash=0 / no-temporal-layers / no-open-gop / min-keyint=24 / keyint=240 / gop-lookahead=0 / bframes=4 / b-adapt=2 / b-pyramid / bframe-bias=0 / rc-lookahead=25 / lookahead-slices=4 / scenecut=40 / radl=0 / no-intra-refresh / ctu=64 / min-cu-size=8 / rect / no-amp / max-tu-size=32 / tu-inter-depth=1 / tu-intra-depth=1 / limit-tu=0 / rdoq-level=2 / dynamic-rd=0.00 / no-ssim-rd / signhide / no-tskip / nr-intra=0 / nr-inter=0 / no-constrained-intra / no-strong-intra-smoothing / max-merge=3 / limit-refs=3 / limit-modes / me=3 / subme=3 / merange=57 / temporal-mvp / weightp / no-weightb / no-analyze-src-pics / deblock=-3:-3 / no-sao / no-sao-non-deblock / rd=4 / no-early-skip / rskip / no-fast-intra / no-tskip-fast / no-cu-lossless / no-b-intra / no-splitrd-skip / rdpenalty=0 / psy-rd=2.00 / psy-rdoq=1.00 / no-rd-refine / no-lossless / cbqpoffs=0 / crqpoffs=0 / rc=crf / crf=17.0 / qcomp=0.60 / qpstep=4 / stats-write=0 / stats-read=0 / vbv-maxrate=160000 / vbv-bufsize=160000 / vbv-init=0.9 / crf-max=0.0 / crf-min=0.0 / ipratio=1.40 / pbratio=1.30 / aq-mode=1 / aq-strength=1.00 / cutree / zone-count=0 / no-strict-cbr / qg-size=32 / no-rc-grain / qpmax=69 / qpmin=0 / no-const-vbv / sar=1 / overscan=0 / videoformat=5 / range=0 / colorprim=9 / transfer=16 / colormatrix=9 / chromaloc=1 / chromaloc-top=2 / chromaloc-bottom=2 / display-window=0 / master-display=G(13250,34500)B(7500,3000)R(34000,16000)WP(15635,16450)L(10000000,50) / max-cll=0,0 / min-luma=0 / max-luma=1023 / log2-max-poc-lsb=8 / vui-timing-info / vui-hrd-info / slices=1 / opt-qp-pps / opt-ref-list-length-pps / no-multi-pass-opt-rps / scenecut-bias=0.05 / no-opt-cu-delta-qp / no-aq-motion / hdr / hdr-opt / no-dhdr10-opt / analysis-reuse-level=5 / scale-factor=0 / refine-intra=0 / refine-inter=0 / refine-mv=0 / no-limit-sao / ctu-info=0 / no-lowpass-dct / refine-mv-type=0 / copy-pic=1
Default : Yes
Forced : No
Color range : Limited
Color primaries : BT.2020
Transfer characteristics : PQ
Matrix coefficients : BT.2020 non-constant
Statistics Tags Issue : no_variable_data 1970-01-01 00:00:00 / no_variable_data 2010-02-22 21:41:29
FromStats_BitRate : 14105367
FromStats_Duration : 01:53:55.954000000
FromStats_FrameCount : 163899
FromStats_StreamSize : 12052955111
Mastering display color primaries : Display P3
Mastering display luminance : min: 0.0050 cd/m2, max: 1000 cd/m2

Audio #1
ID : 2
Format : TrueHD
Format profile : TrueHD+Atmos / TrueHD
Codec ID : A_TRUEHD
Bit rate mode : Variable
Maximum bit rate : 7 662 kb/s
Channel(s) : Object Based / 8 channels
Channel positions : Object Based / Front: L C R, Side: L R, Back: L R, LFE
Sampling rate : / 48.0 kHz
Frame rate : 1 200.000 FPS (40 SPF)
Compression mode : Lossless
Title : Atmos
Language : English
Default : Yes
Forced : No
Statistics Tags Issue : no_variable_data 1970-01-01 00:00:00 / no_variable_data 2010-02-22 21:41:29
FromStats_BitRate : 4138945
FromStats_Duration : 01:53:55.955000000
FromStats_FrameCount : 8203146
FromStats_StreamSize : 3536705352

Audio #2
ID : 3
Format : AC-3
Format/Info : Audio Coding 3
Codec ID : A_AC3
Duration : 1 h 53 min
Bit rate mode : Constant
Bit rate : 640 kb/s
Channel(s) : 6 channels
Channel positions : Front: L C R, Side: L R, LFE
Sampling rate : 48.0 kHz
Frame rate : 31.250 FPS (1536 SPF)
Bit depth : 16 bits
Compression mode : Lossy
Stream size : 522 MiB (3%)
Title : AC3 5.1
Language : English
Service kind : Complete Main
Default : No
Forced : No
Statistics Tags Issue : no_variable_data 1970-01-01 00:00:00 / no_variable_data 2010-02-22 21:41:29
FromStats_BitRate : 640000
FromStats_Duration : 01:53:55.968000000
FromStats_FrameCount : 213624
FromStats_StreamSize : 546877440

Audio #3
ID : 4
Format : AC-3
Format/Info : Audio Coding 3
Codec ID : A_AC3
Duration : 1 h 53 min
Bit rate mode : Constant
Bit rate : 224 kb/s
Channel(s) : 2 channels
Channel positions : Front: L R
Sampling rate : 48.0 kHz
Frame rate : 31.250 FPS (1536 SPF)
Bit depth : 16 bits
Compression mode : Lossy
Stream size : 183 MiB (1%)
Title : Commentary with director/actor Kenneth Branagh and writer Michael Greene
Language : English
Service kind : Complete Main
Default : No
Forced : No
Statistics Tags Issue : no_variable_data 1970-01-01 00:00:00 / no_variable_data 2010-02-22 21:41:29
FromStats_BitRate : 224000
FromStats_Duration : 01:53:55.936000000
FromStats_FrameCount : 213623
FromStats_StreamSize : 191406208

Text #1
ID : 5
Format : UTF-8
Codec ID : S_TEXT/UTF8
Codec ID/Info : UTF-8 Plain Text
Title : Forced SRT
Language : English
Default : Yes
Forced : Yes
Statistics Tags Issue : no_variable_data 1970-01-01 00:00:00 / no_variable_data 2010-02-22 21:41:29
FromStats_BitRate : 0
FromStats_Duration : 01:33:10.376000000
FromStats_FrameCount : 25
FromStats_StreamSize : 547

Text #2
ID : 6
Format : PGS
Muxing mode : zlib
Codec ID : S_HDMV/PGS
Codec ID/Info : Picture based subtitle format used on BDs/HD-DVDs
Title : Forced
Language : English
Default : No
Forced : No
Statistics Tags Issue : no_variable_data 1970-01-01 00:00:00 / no_variable_data 2010-02-22 21:41:29
FromStats_BitRate : 302
FromStats_Duration : 01:33:10.377000000
FromStats_FrameCount : 50
FromStats_StreamSize : 211656

Text #3
ID : 7
Format : UTF-8
Codec ID : S_TEXT/UTF8
Codec ID/Info : UTF-8 Plain Text
Title : Stripped SRT
Language : English
Default : No
Forced : No
Statistics Tags Issue : no_variable_data 1970-01-01 00:00:00 / no_variable_data 2010-02-22 21:41:29
FromStats_BitRate : 72
FromStats_Duration : 01:44:44.528000000
FromStats_FrameCount : 1845
FromStats_StreamSize : 56835

Text #4
ID : 8
Format : UTF-8
Codec ID : S_TEXT/UTF8
Codec ID/Info : UTF-8 Plain Text
Title : SDH SRT
Language : English
Default : No
Forced : No
Statistics Tags Issue : no_variable_data 1970-01-01 00:00:00 / no_variable_data 2010-02-22 21:41:29
FromStats_BitRate : 77
FromStats_Duration : 01:45:51.136000000
FromStats_FrameCount : 1979
FromStats_StreamSize : 61286

Text #5
ID : 9
Format : PGS
Muxing mode : zlib
Codec ID : S_HDMV/PGS
Codec ID/Info : Picture based subtitle format used on BDs/HD-DVDs
Title : SDH
Language : English
Default : No
Forced : No
Statistics Tags Issue : no_variable_data 1970-01-01 00:00:00 / no_variable_data 2010-02-22 21:41:29
FromStats_BitRate : 50047
FromStats_Duration : 01:45:51.137000000
FromStats_FrameCount : 3958
FromStats_StreamSize : 39732053

Text #6
ID : 10
Format : PGS
Muxing mode : zlib
Codec ID : S_HDMV/PGS
Codec ID/Info : Picture based subtitle format used on BDs/HD-DVDs
Title : Commentary with director/actor Kenneth Branagh and writer Michael Greene
Language : English
Default : No
Forced : No
Statistics Tags Issue : no_variable_data 1970-01-01 00:00:00 / no_variable_data 2010-02-22 21:41:29
FromStats_BitRate : 86659
FromStats_Duration : 01:53:46.737000000
FromStats_FrameCount : 4568
FromStats_StreamSize : 73950127

Text #7
ID : 11
Format : PGS
Muxing mode : zlib
Codec ID : S_HDMV/PGS
Codec ID/Info : Picture based subtitle format used on BDs/HD-DVDs
Language : French
Default : No
Forced : No
Statistics Tags Issue : no_variable_data 1970-01-01 00:00:00 / no_variable_data 2010-02-22 21:41:29
FromStats_BitRate : 36596
FromStats_Duration : 01:53:06.321000000
FromStats_FrameCount : 3174
FromStats_StreamSize : 31044261

Text #8
ID : 12
Format : PGS
Muxing mode : zlib
Codec ID : S_HDMV/PGS
Codec ID/Info : Picture based subtitle format used on BDs/HD-DVDs
Title : Commentary with director/actor Kenneth Branagh and writer Michael Greene
Language : French
Default : No
Forced : No
Statistics Tags Issue : no_variable_data 1970-01-01 00:00:00 / no_variable_data 2010-02-22 21:41:29
FromStats_BitRate : 77716
FromStats_Duration : 01:53:48.822000000
FromStats_FrameCount : 4504
FromStats_StreamSize : 66339179

Text #9
ID : 13
Format : PGS
Muxing mode : zlib
Codec ID : S_HDMV/PGS
Codec ID/Info : Picture based subtitle format used on BDs/HD-DVDs
Language : Spanish
Default : No
Forced : No
Statistics Tags Issue : no_variable_data 1970-01-01 00:00:00 / no_variable_data 2010-02-22 21:41:29
FromStats_BitRate : 41470
FromStats_Duration : 01:53:06.529000000
FromStats_FrameCount : 3138
FromStats_StreamSize : 35180401

Text #10
ID : 14
Format : PGS
Muxing mode : zlib
Codec ID : S_HDMV/PGS
Codec ID/Info : Picture based subtitle format used on BDs/HD-DVDs
Language : Spanish
Default : No
Forced : No
Statistics Tags Issue : no_variable_data 1970-01-01 00:00:00 / no_variable_data 2010-02-22 21:41:29
FromStats_BitRate : 38490
FromStats_Duration : 01:53:06.613000000
FromStats_FrameCount : 3312
FromStats_StreamSize : 32652329

Text #11
ID : 15
Format : PGS
Muxing mode : zlib
Codec ID : S_HDMV/PGS
Codec ID/Info : Picture based subtitle format used on BDs/HD-DVDs
Title : Commentary with director/actor Kenneth Branagh and writer Michael Greene
Language : Spanish
Default : No
Forced : No
Statistics Tags Issue : no_variable_data 1970-01-01 00:00:00 / no_variable_data 2010-02-22 21:41:29
FromStats_BitRate : 75416
FromStats_Duration : 01:53:48.822000000
FromStats_FrameCount : 4504
FromStats_StreamSize : 64375433

Text #12
ID : 16
Format : PGS
Muxing mode : zlib
Codec ID : S_HDMV/PGS
Codec ID/Info : Picture based subtitle format used on BDs/HD-DVDs
Title : Commentary with director/actor Kenneth Branagh and writer Michael Greene
Language : Spanish
Default : No
Forced : No
Statistics Tags Issue : no_variable_data 1970-01-01 00:00:00 / no_variable_data 2010-02-22 21:41:29
FromStats_BitRate : 79294
FromStats_Duration : 01:53:48.822000000
FromStats_FrameCount : 4504
FromStats_StreamSize : 67685782

Text #13
ID : 17
Format : PGS
Muxing mode : zlib
Codec ID : S_HDMV/PGS
Codec ID/Info : Picture based subtitle format used on BDs/HD-DVDs
Language : Italian
Default : No
Forced : No
Statistics Tags Issue : no_variable_data 1970-01-01 00:00:00 / no_variable_data 2010-02-22 21:41:29
FromStats_BitRate : 40307
FromStats_Duration : 01:53:06.780000000
FromStats_FrameCount : 3206
FromStats_StreamSize : 34195011

Text #14
ID : 18
Format : PGS
Muxing mode : zlib
Codec ID : S_HDMV/PGS
Codec ID/Info : Picture based subtitle format used on BDs/HD-DVDs
Title : Commentary with director/actor Kenneth Branagh and writer Michael Greene
Language : Italian
Default : No
Forced : No
Statistics Tags Issue : no_variable_data 1970-01-01 00:00:00 / no_variable_data 2010-02-22 21:41:29
FromStats_BitRate : 78329
FromStats_Duration : 01:53:48.822000000
FromStats_FrameCount : 4504
FromStats_StreamSize : 66862533

Text #15
ID : 19
Format : PGS
Muxing mode : zlib
Codec ID : S_HDMV/PGS
Codec ID/Info : Picture based subtitle format used on BDs/HD-DVDs
Language : German
Default : No
Forced : No
Statistics Tags Issue : no_variable_data 1970-01-01 00:00:00 / no_variable_data 2010-02-22 21:41:29
FromStats_BitRate : 44258
FromStats_Duration : 01:53:06.280000000
FromStats_FrameCount : 3158
FromStats_StreamSize : 37543878

Text #16
ID : 20
Format : PGS
Muxing mode : zlib
Codec ID : S_HDMV/PGS
Codec ID/Info : Picture based subtitle format used on BDs/HD-DVDs
Title : Commentary with director/actor Kenneth Branagh and writer Michael Greene
Language : German
Default : No
Forced : No
Statistics Tags Issue : no_variable_data 1970-01-01 00:00:00 / no_variable_data 2010-02-22 21:41:29
FromStats_BitRate : 81842
FromStats_Duration : 01:53:48.822000000
FromStats_FrameCount : 4504
FromStats_StreamSize : 69861342

Text #17
ID : 21
Format : PGS
Muxing mode : zlib
Codec ID : S_HDMV/PGS
Codec ID/Info : Picture based subtitle format used on BDs/HD-DVDs
Language : Dutch
Default : No
Forced : No
Statistics Tags Issue : no_variable_data 1970-01-01 00:00:00 / no_variable_data 2010-02-22 21:41:29
FromStats_BitRate : 35632
FromStats_Duration : 01:52:41.046000000
FromStats_FrameCount : 2734
FromStats_StreamSize : 30114317

Text #18
ID : 22
Format : PGS
Muxing mode : zlib
Codec ID : S_HDMV/PGS
Codec ID/Info : Picture based subtitle format used on BDs/HD-DVDs
Title : Commentary with director/actor Kenneth Branagh and writer Michael Greene
Language : Dutch
Default : No
Forced : No
Statistics Tags Issue : no_variable_data 1970-01-01 00:00:00 / no_variable_data 2010-02-22 21:41:29
FromStats_BitRate : 67696
FromStats_Duration : 01:53:48.822000000
FromStats_FrameCount : 4504
FromStats_StreamSize : 57785565

Text #19
ID : 23
Format : PGS
Muxing mode : zlib
Codec ID : S_HDMV/PGS
Codec ID/Info : Picture based subtitle format used on BDs/HD-DVDs
Language : Swedish
Default : No
Forced : No
Statistics Tags Issue : no_variable_data 1970-01-01 00:00:00 / no_variable_data 2010-02-22 21:41:29
FromStats_BitRate : 38757
FromStats_Duration : 01:53:05.904000000
FromStats_FrameCount : 3144
FromStats_StreamSize : 32875290

Text #20
ID : 24
Format : PGS
Muxing mode : zlib
Codec ID : S_HDMV/PGS
Codec ID/Info : Picture based subtitle format used on BDs/HD-DVDs
Title : Commentary with director/actor Kenneth Branagh and writer Michael Greene
Language : Swedish
Default : No
Forced : No
Statistics Tags Issue : no_variable_data 1970-01-01 00:00:00 / no_variable_data 2010-02-22 21:41:29
FromStats_BitRate : 70818
FromStats_Duration : 01:53:48.822000000
FromStats_FrameCount : 4504
FromStats_StreamSize : 60451081

Text #21
ID : 25
Format : PGS
Muxing mode : zlib
Codec ID : S_HDMV/PGS
Codec ID/Info : Picture based subtitle format used on BDs/HD-DVDs
Language : Norwegian
Default : No
Forced : No
Statistics Tags Issue : no_variable_data 1970-01-01 00:00:00 / no_variable_data 2010-02-22 21:41:29
FromStats_BitRate : 38973
FromStats_Duration : 01:53:06.780000000
FromStats_FrameCount : 3204
FromStats_StreamSize : 33062669

Text #22
ID : 26
Format : PGS
Muxing mode : zlib
Codec ID : S_HDMV/PGS
Codec ID/Info : Picture based subtitle format used on BDs/HD-DVDs
Title : Commentary with director/actor Kenneth Branagh and writer Michael Greene
Language : Norwegian
Default : No
Forced : No
Statistics Tags Issue : no_variable_data 1970-01-01 00:00:00 / no_variable_data 2010-02-22 21:41:29
FromStats_BitRate : 76715
FromStats_Duration : 01:53:48.822000000
FromStats_FrameCount : 4504
FromStats_StreamSize : 65484711

Text #23
ID : 27
Format : PGS
Muxing mode : zlib
Codec ID : S_HDMV/PGS
Codec ID/Info : Picture based subtitle format used on BDs/HD-DVDs
Language : Danish
Default : No
Forced : No
Statistics Tags Issue : no_variable_data 1970-01-01 00:00:00 / no_variable_data 2010-02-22 21:41:29
FromStats_BitRate : 38158
FromStats_Duration : 01:53:06.780000000
FromStats_FrameCount : 2446
FromStats_StreamSize : 32372043

Text #24
ID : 28
Format : PGS
Muxing mode : zlib
Codec ID : S_HDMV/PGS
Codec ID/Info : Picture based subtitle format used on BDs/HD-DVDs
Title : Commentary with director/actor Kenneth Branagh and writer Michael Greene
Language : Danish
Default : No
Forced : No
Statistics Tags Issue : no_variable_data 1970-01-01 00:00:00 / no_variable_data 2010-02-22 21:41:29
FromStats_BitRate : 75284
FromStats_Duration : 01:53:48.822000000
FromStats_FrameCount : 4504
FromStats_StreamSize : 64262981

Text #25
ID : 29
Format : PGS
Muxing mode : zlib
Codec ID : S_HDMV/PGS
Codec ID/Info : Picture based subtitle format used on BDs/HD-DVDs
Language : Finnish
Default : No
Forced : No
Statistics Tags Issue : no_variable_data 1970-01-01 00:00:00 / no_variable_data 2010-02-22 21:41:29
FromStats_BitRate : 36644
FromStats_Duration : 01:53:06.905000000
FromStats_FrameCount : 3140
FromStats_StreamSize : 31087734

Text #26
ID : 30
Format : PGS
Muxing mode : zlib
Codec ID : S_HDMV/PGS
Codec ID/Info : Picture based subtitle format used on BDs/HD-DVDs
Title : Commentary with director/actor Kenneth Branagh and writer Michael Greene
Language : Finnish
Default : No
Forced : No
Statistics Tags Issue : no_variable_data 1970-01-01 00:00:00 / no_variable_data 2010-02-22 21:41:29
FromStats_BitRate : 75967
FromStats_Duration : 01:53:48.822000000
FromStats_FrameCount : 4482
FromStats_StreamSize : 64846312

Text #27
ID : 31
Format : PGS
Muxing mode : zlib
Codec ID : S_HDMV/PGS
Codec ID/Info : Picture based subtitle format used on BDs/HD-DVDs
Language : Czech
Default : No
Forced : No
Statistics Tags Issue : no_variable_data 1970-01-01 00:00:00 / no_variable_data 2010-02-22 21:41:29
FromStats_BitRate : 38250
FromStats_Duration : 01:53:06.279000000
FromStats_FrameCount : 3146
FromStats_StreamSize : 32447402

Text #28
ID : 32
Format : PGS
Muxing mode : zlib
Codec ID : S_HDMV/PGS
Codec ID/Info : Picture based subtitle format used on BDs/HD-DVDs
Language : Polish
Default : No
Forced : No
Statistics Tags Issue : no_variable_data 1970-01-01 00:00:00 / no_variable_data 2010-02-22 21:41:29
FromStats_BitRate : 34517
FromStats_Duration : 01:53:06.780000000
FromStats_FrameCount : 2950
FromStats_StreamSize : 29282536

Text #29
ID : 33
Format : PGS
Muxing mode : zlib
Codec ID : S_HDMV/PGS
Codec ID/Info : Picture based subtitle format used on BDs/HD-DVDs
Language : Japanese
Default : No
Forced : No
Statistics Tags Issue : no_variable_data 1970-01-01 00:00:00 / no_variable_data 2010-02-22 21:41:29
FromStats_BitRate : 28768
FromStats_Duration : 01:52:29.743000000
FromStats_FrameCount : 3016
FromStats_StreamSize : 24272899

Text #30
ID : 34
Format : PGS
Muxing mode : zlib
Codec ID : S_HDMV/PGS
Codec ID/Info : Picture based subtitle format used on BDs/HD-DVDs
Title : Commentary with director/actor Kenneth Branagh and writer Michael Greene
Language : Japanese
Default : No
Forced : No
Statistics Tags Issue : no_variable_data 1970-01-01 00:00:00 / no_variable_data 2010-02-22 21:41:29
FromStats_BitRate : 45443
FromStats_Duration : 01:53:48.614000000
FromStats_FrameCount : 3130
FromStats_StreamSize : 38789756

Text #31
ID : 35
Format : PGS
Muxing mode : zlib
Codec ID : S_HDMV/PGS
Codec ID/Info : Picture based subtitle format used on BDs/HD-DVDs
Language : Chinese
Default : No
Forced : No
Statistics Tags Issue : no_variable_data 1970-01-01 00:00:00 / no_variable_data 2010-02-22 21:41:29
FromStats_BitRate : 30580
FromStats_Duration : 01:53:06.196000000
FromStats_FrameCount : 3218
FromStats_StreamSize : 25941026

Text #32
ID : 36
Format : PGS
Muxing mode : zlib
Codec ID : S_HDMV/PGS
Codec ID/Info : Picture based subtitle format used on BDs/HD-DVDs
Language : Chinese
Default : No
Forced : No
Statistics Tags Issue : no_variable_data 1970-01-01 00:00:00 / no_variable_data 2010-02-22 21:41:29
FromStats_BitRate : 28662
FromStats_Duration : 01:52:41.046000000
FromStats_FrameCount : 3148
FromStats_StreamSize : 24223218

Menu
00:00:00.000 : en:Chapter 01
00:03:06.060 : en:Chapter 02
00:06:42.193 : en:Chapter 03
00:11:44.745 : en:Chapter 04
00:18:26.188 : en:Chapter 05
00:24:53.658 : en:Chapter 06
00:33:14.158 : en:Chapter 07
00:37:47.515 : en:Chapter 08
00:43:16.510 : en:Chapter 09
00:46:24.865 : en:Chapter 10
00:51:23.580 : en:Chapter 11
00:55:52.015 : en:Chapter 12
01:00:03.182 : en:Chapter 13
01:05:38.893 : en:Chapter 14
01:10:39.777 : en:Chapter 15
01:14:17.578 : en:Chapter 16
01:18:05.055 : en:Chapter 17
01:21:12.284 : en:Chapter 18
01:24:39.365 : en:Chapter 19
01:28:37.854 : en:Chapter 20
01:32:28.376 : en:Chapter 21
01:37:04.401 : en:Chapter 22
01:40:30.024 : en:Chapter 23
01:46:49.653 : en:Chapter 24

Download

download 4k hdr movies download 4k hdr movies

Watch a movie trailer - Murder on the Orient Express 4K 2017 Ultra HD 2160p
Comments and Feedback
Add your comment:
Your name:
Your E-Mail:
Code:
reload, if the code cannot be seen
Enter code: