Select movie Search movie Close search My Account

Dunkirk 4K Ultra HD 2017 Ultra HD 2160p

Dunkirk 4K Ultra HD 2017 Ultra HD 2160p
BDRemux / BDRip
Country: UK | Netherlands | France | USA
Time: 1h 46min
IMDB: 8.1
Director: Christopher Nolan
Actors: Fionn Whitehead , Barry Keoghan , Mark Rylance , Damien Bonnard , Aneurin Barnard , Lee Armstrong , James Bloor , Tom Glynn-Carney , Tom Hardy , Jack Lowden , Luke Thompson , Michel Biel , Constantin Balsan , Billy Howle , Mikey Collins

Story Movie

Dunkirk 4K Ultra HD 2017 Blu-ray 2160p
The historical drama Dunkirk Ultra HD will take us to the fields of the Second World War and tell about the operation at Dunkirk. Several hundred thousand military men are surrounded by the enemy. Behind the sea and retreat simply nowhere. Ahead of the fortified area of the Nazis and only laughing and the courage of the soldiers helps them go into battle, not being afraid to face death, for the sake of a precious victory.

Mediainfo

movie BDRemux Video
Codec: HEVC / H.265
Resolution: Native 4K (2160p)
HDR: HDR10
Aspect ratio: 1.78:1, 2.20:1
Original aspect ratio: 2.20:1

Audio
English: DTS-HD Master Audio 5.1
French (Canada): Dolby Digital 5.1
German: DTS-HD Master Audio 5.1
Spanish: Dolby Digital 5.1
Spanish: Dolby Digital 5.1
Portuguese: Dolby Digital 5.1
English: Dolby Digital 5.1 (448 kbps)
Note: Spanish=Latin & Castilian; English DD=narrative descriptive

Subtitles
English SDH, French, German SDH, Portuguese, Spanish
Note: Spanish=Latin & Castilian...
movie BDRip Video
ID : 1
Format : HEVC
Format/Info : High Efficiency Video Coding
Format profile : Main 10@L5.1@High
Codec ID : V_MPEGH/ISO/HEVC
Duration : 1 h 46 min
Bit rate : 19.8 Mb/s
Width : 3 840 pixels
Height : 2 160 pixels
Display aspect ratio : 16:9
Frame rate mode : Constant
Frame rate : 23.976 (24000/1001) FPS
Color space : YUV
Chroma subsampling : 4:2:0 (Type 2)
Bit depth : 10 bits
Bits/(Pixel*Frame) : 0.100
Stream size : 14.8 GiB (89%)
Writing library : x265 2.6+22-ff02513b92c0:[Windows][GCC 6.3.0][64 bit] 10bit
Encoding settings : cpuid=1173503 / frame-threads=4 / numa-pools=20 / wpp / no-pmode / no-pme / no-psnr / no-ssim / log-level=2 / input-csp=1 / input-res=3840x2160 / interlace=0 / total-frames=153404 / level-idc=51 / high-tier=1 / uhd-bd=1 / ref=4 / no-allow-non-conformance / repeat-headers / annexb / aud / hrd / info / hash=0 / no-temporal-layers / no-open-gop / min-keyint=1 / keyint=24 / gop-lookahead=0 / bframes=4 / b-adapt=2 / b-pyramid / bframe-bias=0 / rc-lookahead=25 / lookahead-slices=4 / scenecut=40 / radl=0 / no-intra-refresh / ctu=64 / min-cu-size=8 / rect / no-amp / max-tu-size=32 / tu-inter-depth=1 / tu-intra-depth=1 / limit-tu=0 / rdoq-level=2 / dynamic-rd=0.00 / no-ssim-rd / signhide / no-tskip / nr-intra=0 / nr-inter=0 / no-constrained-intra / no-strong-intra-smoothing / max-merge=3 / limit-refs=3 / limit-modes / me=3 / subme=3 / merange=57 / temporal-mvp / weightp / no-weightb / no-analyze-src-pics / deblock=-3:-3 / no-sao / no-sao-non-deblock / rd=4 / no-early-skip / rskip / no-fast-intra / no-tskip-fast / no-cu-lossless / no-b-intra / no-splitrd-skip / rdpenalty=0 / psy-rd=2.00 / psy-rdoq=1.00 / no-rd-refine / no-lossless / cbqpoffs=0 / crqpoffs=0 / rc=crf / crf=17.0 / qcomp=0.60 / qpstep=4 / stats-write=0 / stats-read=0 / vbv-maxrate=160000 / vbv-bufsize=160000 / vbv-init=0.9 / crf-max=0.0 / crf-min=0.0 / ipratio=1.40 / pbratio=1.30 / aq-mode=1 / aq-strength=1.00 / cutree / zone-count=0 / no-strict-cbr / qg-size=32 / no-rc-grain / qpmax=69 / qpmin=0 / no-const-vbv / sar=1 / overscan=0 / videoformat=5 / range=0 / colorprim=9 / transfer=16 / colormatrix=9 / chromaloc=1 / chromaloc-top=2 / chromaloc-bottom=2 / display-window=0 / master-display=G(13250,34500)B(7500,3000)R(34000,16000)WP(15635,16450)L(40000000,50) / max-cll=323,144 / min-luma=0 / max-luma=1023 / log2-max-poc-lsb=8 / vui-timing-info / vui-hrd-info / slices=1 / no-opt-qp-pps / no-opt-ref-list-length-pps / no-multi-pass-opt-rps / scenecut-bias=0.05 / no-opt-cu-delta-qp / no-aq-motion / hdr / hdr-opt / no-dhdr10-opt / analysis-save=(null) / analysis-load=(null) / analysis-reuse-level=5 / scale-factor=0 / refine-intra=0 / refine-inter=0 / refine-mv=0 / no-limit-sao / ctu-info=0 / no-lowpass-dct / refine-mv-type=0 / copy-pic=1
Default : Yes
Forced : No
Color range : Limited
Color primaries : BT.2020
Transfer characteristics : PQ
Matrix coefficients : BT.2020 non-constant
Mastering display color primaries : Display P3
Mastering display luminance : min: 0.0050 cd/m2, max: 4000 cd/m2
Maximum Content Light Level : 323 cd/m2
Maximum Frame-Average Light Level : 144 cd/m2

Audio
ID : 2
Format : DTS
Format/Info : Digital Theater Systems
Format profile : MA / Core
Codec ID : A_DTS
Duration : 1 h 46 min
Bit rate mode : Variable / Constant
Bit rate : 2 411 kb/s / 1 509 kb/s
Channel(s) : 6 channels
Channel positions : Front: L C R, Side: L R, LFE
Sampling rate : 48.0 kHz
Frame rate : 93.750 FPS (512 SPF)
Bit depth : 16 bits
Compression mode : Lossless / Lossy
Stream size : 1.80 GiB (11%)
Language : English
Default : Yes
Forced : No

Text #1
ID : 3
Format : PGS
Muxing mode : zlib
Codec ID : S_HDMV/PGS
Codec ID/Info : Picture based subtitle format used on BDs/HD-DVDs
Duration : 1 h 45 min
Bit rate : 18.9 kb/s
Count of elements : 1718
Stream size : 14.3 MiB (0%)
Title : SDH
Language : English
Default : No
Forced : No

Text #2
ID : 4
Format : PGS
Muxing mode : zlib
Codec ID : S_HDMV/PGS
Codec ID/Info : Picture based subtitle format used on BDs/HD-DVDs
Duration : 1 h 46 min
Bit rate : 10.9 kb/s
Count of elements : 1296
Stream size : 8.30 MiB (0%)
Language : French
Default : No
Forced : No

Text #3
ID : 5
Format : PGS
Muxing mode : zlib
Codec ID : S_HDMV/PGS
Codec ID/Info : Picture based subtitle format used on BDs/HD-DVDs
Duration : 1 h 45 min
Bit rate : 16.9 kb/s
Count of elements : 1754
Stream size : 12.8 MiB (0%)
Language : Italian
Default : No
Forced : No

Text #4
ID : 6
Format : PGS
Muxing mode : zlib
Codec ID : S_HDMV/PGS
Codec ID/Info : Picture based subtitle format used on BDs/HD-DVDs
Duration : 1 h 45 min
Bit rate : 12.0 kb/s
Count of elements : 1282
Stream size : 9.07 MiB (0%)
Language : Dutch
Default : No
Forced : No

Text #5
ID : 7
Format : PGS
Muxing mode : zlib
Codec ID : S_HDMV/PGS
Codec ID/Info : Picture based subtitle format used on BDs/HD-DVDs
Duration : 1 h 45 min
Bit rate : 10.9 kb/s
Count of elements : 1366
Stream size : 8.26 MiB (0%)
Language : Chinese
Default : No
Forced : No

Text #6
ID : 8
Format : PGS
Muxing mode : zlib
Codec ID : S_HDMV/PGS
Codec ID/Info : Picture based subtitle format used on BDs/HD-DVDs
Duration : 1 h 46 min
Bit rate : 16.1 kb/s
Count of elements : 1310
Stream size : 12.2 MiB (0%)
Language : Chinese
Default : No
Forced : No

Text #7
ID : 9
Format : PGS
Muxing mode : zlib
Codec ID : S_HDMV/PGS
Codec ID/Info : Picture based subtitle format used on BDs/HD-DVDs
Duration : 1 h 46 min
Bit rate : 11.8 kb/s
Count of elements : 1424
Stream size : 8.92 MiB (0%)
Language : Chinese
Default : No
Forced : No

Text #8
ID : 10
Format : PGS
Muxing mode : zlib
Codec ID : S_HDMV/PGS
Codec ID/Info : Picture based subtitle format used on BDs/HD-DVDs
Duration : 1 h 46 min
Bit rate : 7 996 b/s
Count of elements : 1402
Stream size : 6.07 MiB (0%)
Language : Korean
Default : No
Forced : No

Text #9
ID : 11
Format : PGS
Muxing mode : zlib
Codec ID : S_HDMV/PGS
Codec ID/Info : Picture based subtitle format used on BDs/HD-DVDs
Duration : 1 h 46 min
Bit rate : 7 968 b/s
Count of elements : 1432
Stream size : 6.05 MiB (0%)
Language : Arabic
Default : No
Forced : No

Text #10
ID : 12
Format : PGS
Muxing mode : zlib
Codec ID : S_HDMV/PGS
Codec ID/Info : Picture based subtitle format used on BDs/HD-DVDs
Duration : 1 h 45 min
Bit rate : 14.3 kb/s
Count of elements : 1416
Stream size : 10.8 MiB (0%)
Language : Croatian
Default : No
Forced : No

Text #11
ID : 13
Format : PGS
Muxing mode : zlib
Codec ID : S_HDMV/PGS
Codec ID/Info : Picture based subtitle format used on BDs/HD-DVDs
Duration : 1 h 46 min
Bit rate : 12.4 kb/s
Count of elements : 1424
Stream size : 9.45 MiB (0%)
Language : Czech
Default : No
Forced : No

Text #12
ID : 14
Format : PGS
Muxing mode : zlib
Codec ID : S_HDMV/PGS
Codec ID/Info : Picture based subtitle format used on BDs/HD-DVDs
Duration : 1 h 45 min
Bit rate : 12.8 kb/s
Count of elements : 1078
Stream size : 9.70 MiB (0%)
Language : Danish
Default : No
Forced : No

Text #13
ID : 15
Format : PGS
Muxing mode : zlib
Codec ID : S_HDMV/PGS
Codec ID/Info : Picture based subtitle format used on BDs/HD-DVDs
Duration : 1 h 45 min
Bit rate : 14.9 kb/s
Count of elements : 1420
Stream size : 11.3 MiB (0%)
Language : Finnish
Default : No
Forced : No

Text #14
ID : 16
Format : PGS
Muxing mode : zlib
Codec ID : S_HDMV/PGS
Codec ID/Info : Picture based subtitle format used on BDs/HD-DVDs
Duration : 1 h 46 min
Bit rate : 16.5 kb/s
Count of elements : 1420
Stream size : 12.5 MiB (0%)
Language : Greek
Default : No
Forced : No

Text #15
ID : 17
Format : PGS
Muxing mode : zlib
Codec ID : S_HDMV/PGS
Codec ID/Info : Picture based subtitle format used on BDs/HD-DVDs
Duration : 1 h 46 min
Bit rate : 9 729 b/s
Count of elements : 1424
Stream size : 7.38 MiB (0%)
Language : Hebrew
Default : No
Forced : No

Text #16
ID : 18
Format : PGS
Muxing mode : zlib
Codec ID : S_HDMV/PGS
Codec ID/Info : Picture based subtitle format used on BDs/HD-DVDs
Duration : 1 h 45 min
Bit rate : 14.0 kb/s
Count of elements : 1394
Stream size : 10.6 MiB (0%)
Language : Hungarian
Default : No
Forced : No

Text #17
ID : 19
Format : PGS
Muxing mode : zlib
Codec ID : S_HDMV/PGS
Codec ID/Info : Picture based subtitle format used on BDs/HD-DVDs
Duration : 1 h 45 min
Bit rate : 12.1 kb/s
Count of elements : 1088
Stream size : 9.14 MiB (0%)
Language : Norwegian
Default : No
Forced : No

Text #18
ID : 20
Format : PGS
Muxing mode : zlib
Codec ID : S_HDMV/PGS
Codec ID/Info : Picture based subtitle format used on BDs/HD-DVDs
Duration : 1 h 46 min
Bit rate : 12.2 kb/s
Count of elements : 1390
Stream size : 9.24 MiB (0%)
Language : Polish
Default : No
Forced : No

Text #19
ID : 21
Format : PGS
Muxing mode : zlib
Codec ID : S_HDMV/PGS
Codec ID/Info : Picture based subtitle format used on BDs/HD-DVDs
Duration : 1 h 45 min
Bit rate : 15.0 kb/s
Count of elements : 1424
Stream size : 11.3 MiB (0%)
Language : Portuguese
Default : No
Forced : No

Text #20
ID : 22
Format : PGS
Muxing mode : zlib
Codec ID : S_HDMV/PGS
Codec ID/Info : Picture based subtitle format used on BDs/HD-DVDs
Duration : 1 h 45 min
Bit rate : 13.6 kb/s
Count of elements : 1386
Stream size : 10.3 MiB (0%)
Language : Romanian
Default : No
Forced : No

Text #21
ID : 23
Format : PGS
Muxing mode : zlib
Codec ID : S_HDMV/PGS
Codec ID/Info : Picture based subtitle format used on BDs/HD-DVDs
Duration : 1 h 46 min
Bit rate : 14.1 kb/s
Count of elements : 1292
Stream size : 10.7 MiB (0%)
Language : Russian
Default : No
Forced : No

Text #22
ID : 24
Format : PGS
Muxing mode : zlib
Codec ID : S_HDMV/PGS
Codec ID/Info : Picture based subtitle format used on BDs/HD-DVDs
Duration : 1 h 45 min
Bit rate : 14.0 kb/s
Count of elements : 1396
Stream size : 10.6 MiB (0%)
Language : Swedish
Default : No
Forced : No

Text #23
ID : 25
Format : PGS
Muxing mode : zlib
Codec ID : S_HDMV/PGS
Codec ID/Info : Picture based subtitle format used on BDs/HD-DVDs
Duration : 1 h 46 min
Bit rate : 11.7 kb/s
Count of elements : 1426
Stream size : 8.86 MiB (0%)
Language : Thai
Default : No
Forced : No

Text #24
ID : 26
Format : PGS
Muxing mode : zlib
Codec ID : S_HDMV/PGS
Codec ID/Info : Picture based subtitle format used on BDs/HD-DVDs
Duration : 1 h 45 min
Bit rate : 14.3 kb/s
Count of elements : 1406
Stream size : 10.8 MiB (0%)
Language : Turkish
Default : No
Forced : No

Menu
00:00:00.000 : en:00:00:00.000
00:08:51.364 : en:00:08:51.364
00:20:13.754 : en:00:20:13.754
00:29:07.621 : en:00:29:07.621
00:42:35.261 : en:00:42:35.261
00:52:48.207 : en:00:52:48.207
01:04:32.827 : en:01:04:32.827
01:12:50.825 : en:01:12:50.825
01:25:55.025 : en:01:25:55.025
01:33:23.348 : en:01:33:23.348
01:39:13.906 : en:01:39:13.906

Download

download 4k hdr movies download 4k hdr movies

Watch a movie trailer - Dunkirk 4K Ultra HD 2017 Ultra HD 2160p
Comments and Feedback
Add your comment:
Your name:
Your E-Mail:
Code:
reload, if the code cannot be seen
Enter code: