Select movie Search movie Close search My Account

Law Abiding Citizen 4K 2009 Ultra HD 2160p

Law Abiding Citizen 4K 2009 Ultra HD 2160p
BDRemux / BDRip
Country: USA
Time: 1h 49min
IMDB: 7.4
Director: F. Gary Gray
Actors: Jamie Foxx, Gerard Butler, Colm Meaney, Bruce McGill, Leslie Bibb, Michael Irby, Gregory Itzin, Regina Hall, Emerald-Angel, Christian Stolte, Annie Corley, Richard Portnow, Viola Davis, Michael Kelly, Josh Stewart

Story Movie

 Law Abiding Citizen 4K 2009 Ultra HD 2160p

Law Abiding Citizen ultra hd movie - As already mentioned, the plot is multifaceted, makes the viewer think about the corrupt activities of the judicial system of our times. This system is punished by a man named Clyde Shelton, who revenges for the murder of his family, but he rather did not take revenge on the criminals themselves, whom he cleaned nicely and quickly, but on one of the employees, Nick Rice, who once signed an agreement with one of the goons Clyde, and the main intrigue of the film between them. At the same time, after the time of the movie expires, Clyde himself becomes a likeness of a cruel type, which interrupts even innocent people, also threatening the mayor's office! In general, there is a small mincemeat, with which the filmmakers did not consider it necessary to sort it out and put everything in its place, but in general, CG is a colorful and powerful film 4k, which is very rarely seen in this genre ...

Review 4K Movie

The Law Abiding Citizen 4K is in spite of Garik Kharlamov one of the best films of rotten modernity. The real anthem of adherents of justice. And even looking through to the end, that is, having learned what the whole thing is, I want to revise it and revise it.

In the Law Abiding Citizen ultra hd movie credits, there are two main characters - the characters of Fox and Butler. Both are in their own way servants of justice. Butler played the executioner, who motivated the most corrupt system of justice. Hero Fox, however, sentenced the executioner himself, because the basis of the film lies in the quotation: “All people must be responsible for their words and actions.” But the executioner accepted retribution with dignity, calm and with a sense of accomplishment. Because he did everything right. Because justice must be carried out. And “Justice must be cruel. Especially with those who refuse it. ” If the system is corrupt and punishes selectively, since it is beneficial to itself, then there is a violation of universal harmony. As Butler said, this is wrong. Therefore: "A judgment without mercy, that has not shown mercy." All biblically.

But how to be Fox? After all, he is a prosecutor and also bears the responsibility of the executioner. And if the current executioner exceeded his authority and began to make adjustments during the life of unauthorized people without trial, he is bound to be punished. The power must always be controlled, otherwise tyranny will come. How to carry out a circular surveillance of each other? Exclusion of own interests. An illustration of this conclusion is well suited another quote from this film. Sarah, a prosecutor’s assistant, doubting the results of her work, once said: “Neil, I’m thirty-five, and I want to know if my work is worth the fact that I sacrificed my personal life for it”. Here it is! The real, incorruptible, and watchful guardian of the rule of law must make his sacrifices. To bring to the altar in the service of the common good, one’s own interests - profit, earnings, family, home, socializing, entertainment, recreation. Show me someone in government positions, who could boast about it?

No, today they boast about their earnings, their homes, their families, their prestige, their merits, but no one boasts that they are impoverished for the sake of others. That he put his interests in the fire more, in order to warm many, as Makarevich sang. But this is how it should be. After all, Christ already said that there is no one who would refuse a home, a family, or wealth for the kingdom of God. And the apostle Paul confirmed: “Everyone is seeking his own, and not that which is pleasing to Jesus.”

So you can rejoice in the emergence of such a penetrating film. The film crew did a great job.

Mediainfo

movie BDRemux Video #1
ID : 1
Format : HEVC
Format/Info : High Efficiency Video Coding
Commercial name : HDR10
Format profile : Main 10@L5.1@High
Codec ID : V_MPEGH/ISO/HEVC
Duration : 1 h 49 min
Bit rate : 64.3 Mb/s
Width : 3 840 pixels
Height : 2 160 pixels
Display aspect ratio : 16:9
Frame rate mode : Constant
Frame rate : 23.976 (24000/1001) FPS
Color space : YUV
Chroma subsampling : 4:2:0 (Type 2)
Bit depth : 10 bits
Bits/(Pixel*Frame) : 0.323
Stream size : 49.0 GiB (79%)
Title : Law.Abiding.Citizen.2009.2160p.BluRay.REMUX.HEVC.DTS-HD.MA.TrueHD.7.1.Atmos
Default : Yes
Forced : No
Color range : Limited
Color primaries : BT.2020
Transfer characteristics : PQ
Matrix coefficients : BT.2020 non-constant
Mastering display color primaries : Display P3
Mastering display luminance : min: 0.0001 cd/m2, max: 1000 cd/m2
Maximum Content Light Level : 1000 cd/m2
Maximum Frame-Average Light Level : 313 cd/m2


Video #2
ID : 2
Format : HEVC
Format/Info : High Efficiency Video Coding
Commercial name : HDR10
Format profile : Main 10@L5.1@High
Codec ID : V_MPEGH/ISO/HEVC
Duration : 1 h 49 min
Bit rate : 7 742 kb/s
Width : 1 920 pixels
Height : 1 080 pixels
Display aspect ratio : 16:9
Frame rate mode : Constant
Frame rate : 23.976 (24000/1001) FPS
Color space : YUV
Chroma subsampling : 4:2:0 (Type 2)
Bit depth : 10 bits
Bits/(Pixel*Frame) : 0.156
Stream size : 5.91 GiB (9%)
Title : Law.Abiding.Citizen.2009.2160p.BluRay.REMUX.HEVC.DTS-HD.MA.TrueHD.7.1.Atmos
Default : No
Forced : No
Color range : Limited
Color primaries : BT.2020
Transfer characteristics : PQ
Matrix coefficients : BT.2020 non-constant
Mastering display color primaries : Display P3
Mastering display luminance : min: 0.0001 cd/m2, max: 1000 cd/m2

Audio #1
ID : 3
Format : MLP FBA 16-ch
Format/Info : Meridian Lossless Packing FBA with 16-channel presentation
Commercial name : Dolby TrueHD with Dolby Atmos
Codec ID : A_TRUEHD
Duration : 1 h 49 min
Bit rate mode : Variable
Bit rate : 4 186 kb/s
Maximum bit rate : 7 701 kb/s
Channel(s) : 8 channels
Channel layout : L R C LFE Ls Rs Lb Rb
Sampling rate : 48.0 kHz
Frame rate : 1 200.000 FPS (40 SPF)
Compression mode : Lossless
Stream size : 3.20 GiB (5%)
Title : Law.Abiding.Citizen.2009.2160p.BluRay.REMUX.HEVC.DTS-HD.MA.TrueHD.7.1.Atmos
Language : English
Default : Yes
Forced : No
Number of dynamic objects : 15
Bed channel count : 1 channel
Bed channel configuration : LFE

Audio #2
ID : 4
Format : DTS XLL
Format/Info : Digital Theater Systems
Commercial name : DTS-HD Master Audio
Codec ID : A_DTS
Duration : 1 h 49 min
Bit rate mode : Variable
Bit rate : 3 842 kb/s
Channel(s) : 8 channels
Channel layout : C L R LFE Lb Rb Lss Rss
Sampling rate : 48.0 kHz
Frame rate : 93.750 FPS (512 SPF)
Bit depth : 24 bits
Compression mode : Lossless
Stream size : 2.93 GiB (5%)
Title : Law.Abiding.Citizen.2009.2160p.BluRay.REMUX.HEVC.DTS-HD.MA.TrueHD.7.1.Atmos
Language : English
Default : No
Forced : No

Audio #3
ID : 5
Format : AC-3
Format/Info : Audio Coding 3
Commercial name : Dolby Digital
Codec ID : A_AC3
Duration : 1 h 49 min
Bit rate mode : Constant
Bit rate : 640 kb/s
Channel(s) : 6 channels
Channel layout : L R C LFE Ls Rs
Sampling rate : 48.0 kHz
Frame rate : 31.250 FPS (1536 SPF)
Bit depth : 16 bits
Compression mode : Lossy
Stream size : 500 MiB (1%)
Title : Law.Abiding.Citizen.2009.2160p.BluRay.REMUX.HEVC.DTS-HD.MA.TrueHD.7.1.Atmos
Language : English
Service kind : Complete Main
Default : No
Forced : No

Audio #4
ID : 6
Format : AC-3
Format/Info : Audio Coding 3
Commercial name : Dolby Digital
Codec ID : A_AC3
Duration : 1 h 49 min
Bit rate mode : Constant
Bit rate : 192 kb/s
Channel(s) : 2 channels
Channel layout : L R
Sampling rate : 48.0 kHz
Frame rate : 31.250 FPS (1536 SPF)
Bit depth : 16 bits
Compression mode : Lossy
Stream size : 150 MiB (0%)
Title : Law.Abiding.Citizen.2009.2160p.BluRay.REMUX.HEVC.DTS-HD.MA.TrueHD.7.1.Atmos
Language : Spanish
Service kind : Complete Main
Default : No
Forced : No

Audio #5
ID : 7
Format : AC-3
Format/Info : Audio Coding 3
Commercial name : Dolby Digital
Codec ID : A_AC3
Duration : 1 h 49 min
Bit rate mode : Constant
Bit rate : 448 kb/s
Channel(s) : 6 channels
Channel layout : L R C LFE Ls Rs
Sampling rate : 48.0 kHz
Frame rate : 31.250 FPS (1536 SPF)
Bit depth : 16 bits
Compression mode : Lossy
Stream size : 350 MiB (1%)
Title : Law.Abiding.Citizen.2009.2160p.BluRay.REMUX.HEVC.DTS-HD.MA.TrueHD.7.1.Atmos
Language : French
Service kind : Complete Main
Default : No
Forced : No

Audio #6
ID : 8
Format : AC-3
Format/Info : Audio Coding 3
Commercial name : Dolby Digital
Codec ID : A_AC3
Duration : 1 h 49 min
Bit rate mode : Constant
Bit rate : 192 kb/s
Channel(s) : 2 channels
Channel layout : L R
Sampling rate : 48.0 kHz
Frame rate : 31.250 FPS (1536 SPF)
Bit depth : 16 bits
Compression mode : Lossy
Stream size : 150 MiB (0%)
Title : Law.Abiding.Citizen.2009.2160p.BluRay.REMUX.HEVC.DTS-HD.MA.TrueHD.7.1.Atmos
Language : English
Service kind : Complete Main
Default : No
Forced : No

Text #1
ID : 9
Format : PGS
Muxing mode : zlib
Codec ID : S_HDMV/PGS
Codec ID/Info : Picture based subtitle format used on BDs/HD-DVDs
Duration : 1 h 37 min
Bit rate : 39.8 kb/s
Count of elements : 2574
Stream size : 27.9 MiB (0%)
Title : English-PGS
Language : English
Default : Yes
Forced : No

Text #2
ID : 10
Format : PGS
Muxing mode : zlib
Codec ID : S_HDMV/PGS
Codec ID/Info : Picture based subtitle format used on BDs/HD-DVDs
Duration : 1 h 45 min
Bit rate : 40.2 kb/s
Count of elements : 2826
Stream size : 30.3 MiB (0%)
Title : English-SDH-PGS
Language : English
Default : No
Forced : No

Text #3
ID : 11
Format : PGS
Muxing mode : zlib
Codec ID : S_HDMV/PGS
Codec ID/Info : Picture based subtitle format used on BDs/HD-DVDs
Duration : 1 h 47 min
Bit rate : 35.2 kb/s
Count of elements : 2502
Stream size : 27.1 MiB (0%)
Title : Spanish-PGS
Language : Spanish
Default : No
Forced : No

Menu
00:00:00.000 : :Chapter 1
00:05:58.149 : :Chapter 2
00:12:14.066 : :Chapter 3
00:18:41.870 : :Chapter 4
00:26:56.448 : :Chapter 5
00:32:38.081 : :Chapter 6
00:40:16.038 : :Chapter 7
00:44:11.649 : :Chapter 8
00:47:28.262 : :Chapter 9
00:58:09.319 : :Chapter 10
01:06:15.554 : :Chapter 11
01:11:13.185 : :Chapter 12
01:16:45.767 : :Chapter 13
01:24:12.797 : :Chapter 14
01:35:39.817 : :Chapter 15
01:40:39.700 : :Chapter 16
movie BDRip Video
ID : 1
Format : HEVC
Format/Info : High Efficiency Video Coding
Commercial name : HDR10
Format profile : Main 10@L5.1@High
Codec ID : V_MPEGH/ISO/HEVC
Duration : 1 h 49 min
Bit rate : 17.5 Mb/s
Width : 3 840 pixels
Height : 1 600 pixels
Display aspect ratio : 2.40:1
Frame rate mode : Constant
Frame rate : 23.976 (24000/1001) FPS
Color space : YUV
Chroma subsampling : 4:2:0 (Type 2)
Bit depth : 10 bits
Bits/(Pixel*Frame) : 0.119
Stream size : 13.4 GiB (77%)
Writing library : x265 2.8+58-d17bc7714ed2:[Windows][GCC 8.2.0][64 bit] 10bit
Encoding settings : cpuid=1111039 / frame-threads=5 / numa-pools=62 / wpp / no-pmode / no-pme / no-psnr / no-ssim / log-level=2 / input-csp=1 / input-res=3840x1600 / interlace=0 / total-frames=157207 / level-idc=51 / high-tier=1 / uhd-bd=0 / ref=4 / no-allow-non-conformance / repeat-headers / annexb / aud / hrd / info / hash=0 / no-temporal-layers / no-open-gop / min-keyint=24 / keyint=240 / gop-lookahead=0 / bframes=4 / b-adapt=2 / b-pyramid / bframe-bias=0 / rc-lookahead=25 / lookahead-slices=4 / scenecut=40 / radl=0 / no-intra-refresh / ctu=64 / min-cu-size=8 / rect / no-amp / max-tu-size=32 / tu-inter-depth=1 / tu-intra-depth=1 / limit-tu=0 / rdoq-level=2 / dynamic-rd=0.00 / no-ssim-rd / signhide / no-tskip / nr-intra=0 / nr-inter=0 / no-constrained-intra / no-strong-intra-smoothing / max-merge=3 / limit-refs=3 / limit-modes / me=3 / subme=3 / merange=57 / temporal-mvp / weightp / no-weightb / no-analyze-src-pics / deblock=-3:-3 / no-sao / no-sao-non-deblock / rd=4 / no-early-skip / rskip / no-fast-intra / no-tskip-fast / no-cu-lossless / no-b-intra / no-splitrd-skip / rdpenalty=0 / psy-rd=2.00 / psy-rdoq=1.00 / no-rd-refine / no-lossless / cbqpoffs=0 / crqpoffs=0 / rc=crf / crf=17.0 / qcomp=0.60 / qpstep=4 / stats-write=0 / stats-read=0 / vbv-maxrate=160000 / vbv-bufsize=160000 / vbv-init=0.9 / crf-max=0.0 / crf-min=0.0 / ipratio=1.40 / pbratio=1.30 / aq-mode=1 / aq-strength=1.00 / cutree / zone-count=0 / no-strict-cbr / qg-size=32 / no-rc-grain / qpmax=69 / qpmin=0 / no-const-vbv / sar=1 / overscan=0 / videoformat=5 / range=0 / colorprim=9 / transfer=16 / colormatrix=9 / chromaloc=1 / chromaloc-top=2 / chromaloc-bottom=2 / display-window=0 / master-display=G(13250,34500)B(7500,3000)R(34000,16000)WP(15635,16450)L(10000000,1) / max-cll=1000,313 / min-luma=0 / max-luma=1023 / log2-max-poc-lsb=8 / vui-timing-info / vui-hrd-info / slices=1 / no-opt-qp-pps / no-opt-ref-list-length-pps / no-multi-pass-opt-rps / scenecut-bias=0.05 / no-opt-cu-delta-qp / no-aq-motion / hdr / hdr-opt / no-dhdr10-opt / no-idr-recovery-sei / analysis-reuse-level=5 / scale-factor=0 / refine-intra=0 / refine-inter=0 / refine-mv=0 / no-limit-sao / ctu-info=0 / no-lowpass-dct / refine-mv-type=0 / copy-pic=1 / max-ausize-factor=1.0 / no-dynamic-refine / no-single-sei
Default : Yes
Forced : No
Color range : Limited
Color primaries : BT.2020
Transfer characteristics : PQ
Matrix coefficients : BT.2020 non-constant
Mastering display color primaries : Display P3
Mastering display luminance : min: 0.0001 cd/m2, max: 1000 cd/m2
Maximum Content Light Level : 1000 cd/m2
Maximum Frame-Average Light Level : 313 cd/m2

Audio #1
ID : 2
Format : MLP FBA 16-ch
Format/Info : Meridian Lossless Packing FBA with 16-channel presentation
Commercial name : Dolby TrueHD with Dolby Atmos
Codec ID : A_TRUEHD
Duration : 1 h 49 min
Bit rate mode : Variable
Bit rate : 4 186 kb/s
Maximum bit rate : 7 701 kb/s
Channel(s) : 8 channels
Channel layout : L R C LFE Ls Rs Lb Rb
Sampling rate : 48.0 kHz
Frame rate : 1 200.000 FPS (40 SPF)
Compression mode : Lossless
Stream size : 3.20 GiB (18%)
Title : Atmos 7.1
Language : English
Default : Yes
Forced : No
Number of dynamic objects : 15
Bed channel count : 1 channel
Bed channel configuration : LFE

Audio #2
ID : 3
Format : AC-3
Format/Info : Audio Coding 3
Commercial name : Dolby Digital
Codec ID : A_AC3
Duration : 1 h 49 min
Bit rate mode : Constant
Bit rate : 640 kb/s
Channel(s) : 6 channels
Channel layout : L R C LFE Ls Rs
Sampling rate : 48.0 kHz
Frame rate : 31.250 FPS (1536 SPF)
Bit depth : 16 bits
Compression mode : Lossy
Stream size : 500 MiB (3%)
Title : AC-3 5.1
Language : English
Service kind : Complete Main
Default : No
Forced : No

Audio #3
ID : 4
Format : AC-3
Format/Info : Audio Coding 3
Commercial name : Dolby Digital
Codec ID : A_AC3
Duration : 1 h 49 min
Bit rate mode : Constant
Bit rate : 192 kb/s
Channel(s) : 2 channels
Channel layout : L R
Sampling rate : 48.0 kHz
Frame rate : 31.250 FPS (1536 SPF)
Bit depth : 16 bits
Compression mode : Lossy
Stream size : 150 MiB (1%)
Title : Commentary with Producers Lucas Foster and Alan Siegel
Language : English
Service kind : Complete Main
Default : No
Forced : No

Text #1
ID : 5
Format : UTF-8
Codec ID : S_TEXT/UTF8
Codec ID/Info : UTF-8 Plain Text
Duration : 1 h 44 min
Bit rate : 63 b/s
Count of elements : 1294
Stream size : 48.2 KiB (0%)
Title : Strippdd SRT
Language : English
Default : No
Forced : No

Text #2
ID : 6
Format : UTF-8
Codec ID : S_TEXT/UTF8
Codec ID/Info : UTF-8 Plain Text
Duration : 1 h 37 min
Bit rate : 65 b/s
Count of elements : 1287
Stream size : 46.9 KiB (0%)
Title : Full SRT
Language : English
Default : No
Forced : No

Text #3
ID : 7
Format : PGS
Muxing mode : zlib
Codec ID : S_HDMV/PGS
Codec ID/Info : Picture based subtitle format used on BDs/HD-DVDs
Duration : 1 h 37 min
Bit rate : 39.8 kb/s
Count of elements : 2574
Stream size : 27.9 MiB (0%)
Title : Full
Language : English
Default : No
Forced : No

Text #4
ID : 8
Format : UTF-8
Codec ID : S_TEXT/UTF8
Codec ID/Info : UTF-8 Plain Text
Duration : 1 h 45 min
Bit rate : 66 b/s
Count of elements : 1413
Stream size : 51.2 KiB (0%)
Title : SDH SRT
Language : English
Default : No
Forced : No

Text #5
ID : 9
Format : PGS
Muxing mode : zlib
Codec ID : S_HDMV/PGS
Codec ID/Info : Picture based subtitle format used on BDs/HD-DVDs
Duration : 1 h 45 min
Bit rate : 40.2 kb/s
Count of elements : 2826
Stream size : 30.3 MiB (0%)
Title : SDH
Language : English
Default : No
Forced : No

Text #6
ID : 10
Format : PGS
Muxing mode : zlib
Codec ID : S_HDMV/PGS
Codec ID/Info : Picture based subtitle format used on BDs/HD-DVDs
Duration : 1 h 47 min
Bit rate : 35.2 kb/s
Count of elements : 2502
Stream size : 27.1 MiB (0%)
Language : Spanish
Default : No
Forced : No

Menu
00:00:00.000 : :00:00:00.000
00:05:58.149 : :00:05:58.149
00:12:14.067 : :00:12:14.067
00:18:41.871 : :00:18:41.871
00:26:56.448 : :00:26:56.448
00:32:38.081 : :00:32:38.081
00:40:16.039 : :00:40:16.039
00:44:11.649 : :00:44:11.649
00:47:28.262 : :00:47:28.262
00:58:09.319 : :00:58:09.319
01:06:15.555 : :01:06:15.555
01:11:13.186 : :01:11:13.186
01:16:45.768 : :01:16:45.768
01:24:12.798 : :01:24:12.798
01:35:39.817 : :01:35:39.817
01:40:39.700 : :01:40:39.700

Download

download 4k hdr movies download 4k hdr movies

Watch a movie trailer - Law Abiding Citizen 4K 2009 Ultra HD 2160p
Comments and Feedback
Add your comment:
Your name:
Your E-Mail:
Code:
reload, if the code cannot be seen
Enter code: