Select movie Search movie Close search My Account

Philadelphia 4K 1993 Ultra HD 2160p

Philadelphia 4K 1993 Ultra HD 2160p
BDRemux / BDRip
Country: USA
Time: 1h 37min
IMDB: 7.7
Director: Jonathan Demme
Actors: Tom Hanks, Denzel Washington, Roberta Maxwell, Buzz Kilman, Karen Finley, Daniel Chapman, Mark Sorensen Jr., Jeffrey Williamson, Charles Glenn, Ron Vawter, Anna Deavere, Stephanie Roth Haberle, Lisa Talerico, Joanne Woodward, Jason Robards

Story Movie

Philadelphia 4K 1993 Ultra HD 2160p

Philadelphia uhd film - the story of a homosexual dying from AIDS. This doubly pushes away from the main character of all the characters in the film. His environment is instinctively afraid of getting infected, although, as we know, this is impossible. He is discriminated not only by the authorities, but also by society. The second main character, Joe's lawyer, also turned out to be an African American. It unites them. Andy and Joe are brilliant lawyers, they are both friends in misfortune, that is, victims of discrimination. Despite the fact that in the case of Joe this is not shown, all the same, the authors in the process of painting raise this topic (we are talking about African American earrings of Andy's colleague). Joe takes up the Andy case at first only because of pity for the dying man. A pity that ceases in respect, and then in friendship 4k.

Review 4K Movie

Philadelphia 4K - AIDS (Acquired Immune Deficiency Syndrome) is a condition that develops on the background of HIV infection and is characterized by a drop in the number of CD4 + lymphocytes, multiple opportunistic infections, non-infectious and neoplastic diseases. AIDS is the terminal stage of HIV infection.

Until now, these 4 letters cause fear and horror in people. If we encounter those infected with HIV, then they shy away from them, like lepers. Although everyone already knows how to get AIDS, people are influenced by prejudice and stereotypes. All our life is a string of images and simulacrum, which impose on us the media, television and the Internet.

Modern realities are such that it is necessary to fight for their rights to any person, regardless of his orientation, most importantly, he has the right to this struggle. We are all equal. If a homosexual man suffers from an incurable disease, the last thing a Man can do is turn away from him in this difficult moment. You can constantly live in fear, no one will judge you, because this is your choice; but where is the border ... In the end, you can slip into the minnow life from the famous fairy tale Saltykov-Shchedrin. "And he lived was shaken, and was dying was shaking." Therefore, in spite of prejudices and rigidity, and ignorance (characteristic of our society), it is important to help each other in difficult moments, no matter what orientation the person you are helping and how well you know him. Otherwise we gnaw each other and kill.

The movie Philadelphia uhd film is exactly that. About how important it is to open your eyes to your life and revise your views and principles (seemingly indestructible) and trust your inner voice (which is the only evidence of a soul) that we often drown out and that makes a person a Man.

Mediainfo

movie BDRemux Video
ID : 1
Format : HEVC
Format/Info : High Efficiency Video Coding
Commercial name : HDR10
Format profile : Main 10@L5.1@High
Codec ID : V_MPEGH/ISO/HEVC
Duration : 2 h 5 min
Bit rate : 53.0 Mb/s
Width : 3 840 pixels
Height : 2 160 pixels
Display aspect ratio : 16:9
Frame rate mode : Constant
Frame rate : 23.976 (24000/1001) FPS
Color space : YUV
Chroma subsampling : 4:2:0 (Type 2)
Bit depth : 10 bits
Bits/(Pixel*Frame) : 0.266
Stream size : 46.4 GiB (82%)
Title : Philadelphia.1993.2160p.BluRay.REMUX.HEVC.DTS-HD.MA.TrueHD.7.1.Atmos
Default : Yes
Forced : No
Color range : Limited
Color primaries : BT.2020
Transfer characteristics : PQ
Matrix coefficients : BT.2020 non-constant
Mastering display color primaries : Display P3
Mastering display luminance : min: 0.0050 cd/m2, max: 4000 cd/m2
Maximum Content Light Level : 3392 cd/m2
Maximum Frame-Average Light Level : 205 cd/m2

Audio #1
ID : 2
Format : MLP FBA 16-ch
Format/Info : Meridian Lossless Packing FBA with 16-channel presentation
Commercial name : Dolby TrueHD with Dolby Atmos
Codec ID : A_TRUEHD
Duration : 2 h 5 min
Bit rate mode : Variable
Bit rate : 3 826 kb/s
Maximum bit rate : 6 003 kb/s
Channel(s) : 8 channels
Channel layout : L R C LFE Ls Rs Lb Rb
Sampling rate : 48.0 kHz
Frame rate : 1 200.000 FPS (40 SPF)
Compression mode : Lossless
Stream size : 3.35 GiB (6%)
Title : Philadelphia.1993.2160p.BluRay.REMUX.HEVC.DTS-HD.MA.TrueHD.7.1.Atmos
Language : English
Default : Yes
Forced : No
Number of dynamic objects : 11
Bed channel count : 1 channel
Bed channel configuration : LFE

Audio #2
ID : 3
Format : DTS XLL
Format/Info : Digital Theater Systems
Commercial name : DTS-HD Master Audio
Codec ID : A_DTS
Duration : 2 h 5 min
Bit rate mode : Variable
Bit rate : 3 706 kb/s
Channel(s) : 8 channels
Channel layout : C L R LFE Lb Rb Lss Rss
Sampling rate : 48.0 kHz
Frame rate : 93.750 FPS (512 SPF)
Bit depth : 24 bits
Compression mode : Lossless
Stream size : 3.25 GiB (6%)
Title : Philadelphia.1993.2160p.BluRay.REMUX.HEVC.DTS-HD.MA.TrueHD.7.1.Atmos
Language : English
Default : No
Forced : No

Audio #3
ID : 4
Format : AC-3
Format/Info : Audio Coding 3
Commercial name : Dolby Digital
Codec ID : A_AC3
Duration : 2 h 5 min
Bit rate mode : Constant
Bit rate : 640 kb/s
Channel(s) : 5 channels
Channel layout : L R C Ls Rs
Sampling rate : 48.0 kHz
Frame rate : 31.250 FPS (1536 SPF)
Bit depth : 16 bits
Compression mode : Lossy
Stream size : 574 MiB (1%)
Title : Philadelphia.1993.2160p.BluRay.REMUX.HEVC.DTS-HD.MA.TrueHD.7.1.Atmos
Language : English
Service kind : Complete Main
Default : No
Forced : No

Audio #4
ID : 5
Format : AC-3
Format/Info : Audio Coding 3
Commercial name : Dolby Digital
Codec ID : A_AC3
Duration : 2 h 5 min
Bit rate mode : Constant
Bit rate : 192 kb/s
Channel(s) : 2 channels
Channel layout : L R
Sampling rate : 48.0 kHz
Frame rate : 31.250 FPS (1536 SPF)
Bit depth : 16 bits
Compression mode : Lossy
Stream size : 172 MiB (0%)
Title : Philadelphia.1993.2160p.BluRay.REMUX.HEVC.DTS-HD.MA.TrueHD.7.1.Atmos
Language : Czech
Service kind : Complete Main
Default : No
Forced : No

Audio #5
ID : 6
Format : AC-3
Format/Info : Audio Coding 3
Commercial name : Dolby Digital
Codec ID : A_AC3
Duration : 2 h 5 min
Bit rate mode : Constant
Bit rate : 192 kb/s
Channel(s) : 2 channels
Channel layout : L R
Sampling rate : 48.0 kHz
Frame rate : 31.250 FPS (1536 SPF)
Bit depth : 16 bits
Compression mode : Lossy
Stream size : 172 MiB (0%)
Title : Philadelphia.1993.2160p.BluRay.REMUX.HEVC.DTS-HD.MA.TrueHD.7.1.Atmos
Language : French
Service kind : Complete Main
Default : No
Forced : No

Audio #6
ID : 7
Format : AC-3
Format/Info : Audio Coding 3
Commercial name : Dolby Digital
Codec ID : A_AC3
Duration : 2 h 5 min
Bit rate mode : Constant
Bit rate : 192 kb/s
Channel(s) : 2 channels
Channel layout : L R
Sampling rate : 48.0 kHz
Frame rate : 31.250 FPS (1536 SPF)
Bit depth : 16 bits
Compression mode : Lossy
Stream size : 172 MiB (0%)
Title : Philadelphia.1993.2160p.BluRay.REMUX.HEVC.DTS-HD.MA.TrueHD.7.1.Atmos
Language : French
Service kind : Complete Main
Default : No
Forced : No

Audio #7
ID : 8
Format : AC-3
Format/Info : Audio Coding 3
Commercial name : Dolby Digital
Codec ID : A_AC3
Duration : 2 h 5 min
Bit rate mode : Constant
Bit rate : 192 kb/s
Channel(s) : 2 channels
Channel layout : L R
Sampling rate : 48.0 kHz
Frame rate : 31.250 FPS (1536 SPF)
Bit depth : 16 bits
Compression mode : Lossy
Stream size : 172 MiB (0%)
Title : Philadelphia.1993.2160p.BluRay.REMUX.HEVC.DTS-HD.MA.TrueHD.7.1.Atmos
Language : German
Service kind : Complete Main
Default : No
Forced : No

Audio #8
ID : 9
Format : AC-3
Format/Info : Audio Coding 3
Commercial name : Dolby Digital
Codec ID : A_AC3
Duration : 2 h 5 min
Bit rate mode : Constant
Bit rate : 192 kb/s
Channel(s) : 2 channels
Channel layout : L R
Sampling rate : 48.0 kHz
Frame rate : 31.250 FPS (1536 SPF)
Bit depth : 16 bits
Compression mode : Lossy
Stream size : 172 MiB (0%)
Title : Philadelphia.1993.2160p.BluRay.REMUX.HEVC.DTS-HD.MA.TrueHD.7.1.Atmos
Language : Hungarian
Service kind : Complete Main
Default : No
Forced : No

Audio #9
ID : 10
Format : AC-3
Format/Info : Audio Coding 3
Commercial name : Dolby Digital
Codec ID : A_AC3
Duration : 2 h 5 min
Bit rate mode : Constant
Bit rate : 192 kb/s
Channel(s) : 2 channels
Channel layout : L R
Sampling rate : 48.0 kHz
Frame rate : 31.250 FPS (1536 SPF)
Bit depth : 16 bits
Compression mode : Lossy
Stream size : 172 MiB (0%)
Title : Philadelphia.1993.2160p.BluRay.REMUX.HEVC.DTS-HD.MA.TrueHD.7.1.Atmos
Language : Italian
Service kind : Complete Main
Default : No
Forced : No

Audio #10
ID : 11
Format : AC-3
Format/Info : Audio Coding 3
Commercial name : Dolby Digital
Codec ID : A_AC3
Duration : 2 h 5 min
Bit rate mode : Constant
Bit rate : 192 kb/s
Channel(s) : 2 channels
Channel layout : L R
Sampling rate : 48.0 kHz
Frame rate : 31.250 FPS (1536 SPF)
Bit depth : 16 bits
Compression mode : Lossy
Stream size : 172 MiB (0%)
Title : Philadelphia.1993.2160p.BluRay.REMUX.HEVC.DTS-HD.MA.TrueHD.7.1.Atmos
Language : Japanese
Service kind : Complete Main
Default : No
Forced : No

Audio #11
ID : 12
Format : AC-3
Format/Info : Audio Coding 3
Commercial name : Dolby Digital
Codec ID : A_AC3
Duration : 2 h 5 min
Bit rate mode : Constant
Bit rate : 640 kb/s
Channel(s) : 6 channels
Channel layout : L R C LFE Ls Rs
Sampling rate : 48.0 kHz
Frame rate : 31.250 FPS (1536 SPF)
Bit depth : 16 bits
Compression mode : Lossy
Stream size : 574 MiB (1%)
Title : Philadelphia.1993.2160p.BluRay.REMUX.HEVC.DTS-HD.MA.TrueHD.7.1.Atmos
Language : Polish
Service kind : Complete Main
Default : No
Forced : No

Audio #12
ID : 13
Format : AC-3
Format/Info : Audio Coding 3
Commercial name : Dolby Digital
Codec ID : A_AC3
Duration : 2 h 5 min
Bit rate mode : Constant
Bit rate : 192 kb/s
Channel(s) : 2 channels
Channel layout : L R
Sampling rate : 48.0 kHz
Frame rate : 31.250 FPS (1536 SPF)
Bit depth : 16 bits
Compression mode : Lossy
Stream size : 172 MiB (0%)
Title : Philadelphia.1993.2160p.BluRay.REMUX.HEVC.DTS-HD.MA.TrueHD.7.1.Atmos
Language : Russian
Service kind : Complete Main
Default : No
Forced : No

Audio #13
ID : 14
Format : AC-3
Format/Info : Audio Coding 3
Commercial name : Dolby Digital
Codec ID : A_AC3
Duration : 2 h 5 min
Bit rate mode : Constant
Bit rate : 192 kb/s
Channel(s) : 2 channels
Channel layout : L R
Sampling rate : 48.0 kHz
Frame rate : 31.250 FPS (1536 SPF)
Bit depth : 16 bits
Compression mode : Lossy
Stream size : 172 MiB (0%)
Title : Philadelphia.1993.2160p.BluRay.REMUX.HEVC.DTS-HD.MA.TrueHD.7.1.Atmos
Language : Spanish
Service kind : Complete Main
Default : No
Forced : No

Audio #14
ID : 15
Format : AC-3
Format/Info : Audio Coding 3
Commercial name : Dolby Digital
Codec ID : A_AC3
Duration : 2 h 5 min
Bit rate mode : Constant
Bit rate : 192 kb/s
Channel(s) : 2 channels
Channel layout : L R
Sampling rate : 48.0 kHz
Frame rate : 31.250 FPS (1536 SPF)
Bit depth : 16 bits
Compression mode : Lossy
Stream size : 172 MiB (0%)
Title : Philadelphia.1993.2160p.BluRay.REMUX.HEVC.DTS-HD.MA.TrueHD.7.1.Atmos
Language : Spanish
Service kind : Complete Main
Default : No
Forced : No

Audio #15
ID : 16
Format : AC-3
Format/Info : Audio Coding 3
Commercial name : Dolby Digital
Codec ID : A_AC3
Duration : 2 h 5 min
Bit rate mode : Constant
Bit rate : 192 kb/s
Channel(s) : 2 channels
Channel layout : L R
Sampling rate : 48.0 kHz
Frame rate : 31.250 FPS (1536 SPF)
Bit depth : 16 bits
Compression mode : Lossy
Stream size : 172 MiB (0%)
Title : Philadelphia.1993.2160p.BluRay.REMUX.HEVC.DTS-HD.MA.TrueHD.7.1.Atmos
Language : Thai
Service kind : Complete Main
Default : No
Forced : No

Text #1
ID : 17
Format : UTF-8
Codec ID : S_TEXT/UTF8
Codec ID/Info : UTF-8 Plain Text
Duration : 1 h 58 min
Bit rate : 67 b/s
Count of elements : 1482
Stream size : 59.0 KiB (0%)
Title : English-SRT
Language : English
Default : Yes
Forced : No

Text #2
ID : 18
Format : UTF-8
Codec ID : S_TEXT/UTF8
Codec ID/Info : UTF-8 Plain Text
Duration : 1 h 59 min
Bit rate : 71 b/s
Count of elements : 1595
Stream size : 62.1 KiB (0%)
Title : English-SDH-SRT
Language : English
Default : No
Forced : No

Text #3
ID : 19
Format : PGS
Muxing mode : zlib
Codec ID : S_HDMV/PGS
Codec ID/Info : Picture based subtitle format used on BDs/HD-DVDs
Duration : 1 h 55 min
Bit rate : 32.4 kb/s
Count of elements : 2377
Stream size : 26.8 MiB (0%)
Title : English-PGS
Language : English
Default : No
Forced : No

Text #4
ID : 20
Format : PGS
Muxing mode : zlib
Codec ID : S_HDMV/PGS
Codec ID/Info : Picture based subtitle format used on BDs/HD-DVDs
Duration : 1 h 59 min
Bit rate : 41.9 kb/s
Count of elements : 3200
Stream size : 35.8 MiB (0%)
Title : English-SDH-PGS
Language : English
Default : No
Forced : No

Text #5
ID : 21
Format : PGS
Muxing mode : zlib
Codec ID : S_HDMV/PGS
Codec ID/Info : Picture based subtitle format used on BDs/HD-DVDs
Duration : 1 h 55 min
Bit rate : 32.5 kb/s
Count of elements : 2378
Stream size : 26.8 MiB (0%)
Title : English-PGS
Language : English
Default : No
Forced : No

Text #6
ID : 22
Format : PGS
Muxing mode : zlib
Codec ID : S_HDMV/PGS
Codec ID/Info : Picture based subtitle format used on BDs/HD-DVDs
Duration : 1 h 59 min
Bit rate : 42.0 kb/s
Count of elements : 3200
Stream size : 35.9 MiB (0%)
Title : English-SDH-PGS
Language : English
Default : No
Forced : No

Text #7
ID : 23
Format : PGS
Muxing mode : zlib
Codec ID : S_HDMV/PGS
Codec ID/Info : Picture based subtitle format used on BDs/HD-DVDs
Duration : 1 h 55 min
Bit rate : 17.5 kb/s
Count of elements : 2334
Stream size : 14.4 MiB (0%)
Title : Arabic-PGS
Language : Arabic
Default : No
Forced : No

Text #8
ID : 24
Format : PGS
Muxing mode : zlib
Codec ID : S_HDMV/PGS
Codec ID/Info : Picture based subtitle format used on BDs/HD-DVDs
Duration : 1 h 55 min
Bit rate : 25.1 kb/s
Count of elements : 2394
Stream size : 20.7 MiB (0%)
Title : Chinese-PGS
Language : Chinese
Default : No
Forced : No

Text #9
ID : 25
Format : PGS
Muxing mode : zlib
Codec ID : S_HDMV/PGS
Codec ID/Info : Picture based subtitle format used on BDs/HD-DVDs
Duration : 1 h 55 min
Bit rate : 24.5 kb/s
Count of elements : 2394
Stream size : 20.2 MiB (0%)
Title : Chinese-PGS
Language : Chinese
Default : No
Forced : No

Text #10
ID : 26
Format : PGS
Muxing mode : zlib
Codec ID : S_HDMV/PGS
Codec ID/Info : Picture based subtitle format used on BDs/HD-DVDs
Duration : 1 h 55 min
Bit rate : 27.0 kb/s
Count of elements : 2332
Stream size : 22.2 MiB (0%)
Title : Czech-PGS
Language : Czech
Default : No
Forced : No

Text #11
ID : 27
Format : PGS
Muxing mode : zlib
Codec ID : S_HDMV/PGS
Codec ID/Info : Picture based subtitle format used on BDs/HD-DVDs
Duration : 1 h 52 min
Bit rate : 26.1 kb/s
Count of elements : 1849
Stream size : 20.9 MiB (0%)
Title : Danish-PGS
Language : Danish
Default : No
Forced : No

Text #12
ID : 28
Format : PGS
Muxing mode : zlib
Codec ID : S_HDMV/PGS
Codec ID/Info : Picture based subtitle format used on BDs/HD-DVDs
Duration : 2 h 1 min
Bit rate : 30.6 kb/s
Count of elements : 2256
Stream size : 26.7 MiB (0%)
Title : Dutch-PGS
Language : Dutch
Default : No
Forced : No

Text #13
ID : 29
Format : PGS
Muxing mode : zlib
Codec ID : S_HDMV/PGS
Codec ID/Info : Picture based subtitle format used on BDs/HD-DVDs
Duration : 1 h 52 min
Bit rate : 26.3 kb/s
Count of elements : 2016
Stream size : 21.1 MiB (0%)
Title : Finnish-PGS
Language : Finnish
Default : No
Forced : No

Text #14
ID : 30
Format : PGS
Muxing mode : zlib
Codec ID : S_HDMV/PGS
Codec ID/Info : Picture based subtitle format used on BDs/HD-DVDs
Duration : 2 h 1 min
Bit rate : 29.0 kb/s
Count of elements : 2394
Stream size : 25.3 MiB (0%)
Title : French-PGS
Language : French
Default : No
Forced : No

Text #15
ID : 31
Format : PGS
Muxing mode : zlib
Codec ID : S_HDMV/PGS
Codec ID/Info : Picture based subtitle format used on BDs/HD-DVDs
Duration : 1 h 55 min
Bit rate : 35.9 kb/s
Count of elements : 2338
Stream size : 29.6 MiB (0%)
Title : German-PGS
Language : German
Default : No
Forced : No

Text #16
ID : 32
Format : PGS
Muxing mode : zlib
Codec ID : S_HDMV/PGS
Codec ID/Info : Picture based subtitle format used on BDs/HD-DVDs
Duration : 1 h 56 min
Bit rate : 28.1 kb/s
Count of elements : 2136
Stream size : 23.3 MiB (0%)
Title : Greek-PGS
Language : Greek
Default : No
Forced : No

Text #17
ID : 33
Format : PGS
Muxing mode : zlib
Codec ID : S_HDMV/PGS
Codec ID/Info : Picture based subtitle format used on BDs/HD-DVDs
Duration : 1 h 55 min
Bit rate : 30.9 kb/s
Count of elements : 2338
Stream size : 25.5 MiB (0%)
Title : Hungarian-PGS
Language : Hungarian
Default : No
Forced : No

Text #18
ID : 34
Format : PGS
Muxing mode : zlib
Codec ID : S_HDMV/PGS
Codec ID/Info : Picture based subtitle format used on BDs/HD-DVDs
Duration : 1 h 55 min
Bit rate : 32.0 kb/s
Count of elements : 2354
Stream size : 26.4 MiB (0%)
Title : Italian-PGS
Language : Italian
Default : No
Forced : No

Text #19
ID : 35
Format : PGS
Muxing mode : zlib
Codec ID : S_HDMV/PGS
Codec ID/Info : Picture based subtitle format used on BDs/HD-DVDs
Duration : 1 h 55 min
Bit rate : 26.3 kb/s
Count of elements : 2750
Stream size : 21.8 MiB (0%)
Title : Japanese-PGS
Language : Japanese
Default : No
Forced : No

Text #20
ID : 36
Format : PGS
Muxing mode : zlib
Codec ID : S_HDMV/PGS
Codec ID/Info : Picture based subtitle format used on BDs/HD-DVDs
Duration : 2 h 4 min
Bit rate : 25.6 kb/s
Count of elements : 2577
Stream size : 22.8 MiB (0%)
Title : Korean-PGS
Language : Korean
Default : No
Forced : No

Text #21
ID : 37
Format : PGS
Muxing mode : zlib
Codec ID : S_HDMV/PGS
Codec ID/Info : Picture based subtitle format used on BDs/HD-DVDs
Duration : 2 h 1 min
Bit rate : 24.2 kb/s
Count of elements : 2017
Stream size : 21.1 MiB (0%)
Title : Norwegian-PGS
Language : Norwegian
Default : No
Forced : No

Text #22
ID : 38
Format : PGS
Muxing mode : zlib
Codec ID : S_HDMV/PGS
Codec ID/Info : Picture based subtitle format used on BDs/HD-DVDs
Duration : 2 h 1 min
Bit rate : 28.3 kb/s
Count of elements : 2340
Stream size : 24.7 MiB (0%)
Title : Polish-PGS
Language : Polish
Default : No
Forced : No

Text #23
ID : 39
Format : PGS
Muxing mode : zlib
Codec ID : S_HDMV/PGS
Codec ID/Info : Picture based subtitle format used on BDs/HD-DVDs
Duration : 1 h 58 min
Bit rate : 31.5 kb/s
Count of elements : 2354
Stream size : 26.6 MiB (0%)
Title : Portuguese-pGS
Language : Portuguese
Default : No
Forced : No

Text #24
ID : 40
Format : PGS
Muxing mode : zlib
Codec ID : S_HDMV/PGS
Codec ID/Info : Picture based subtitle format used on BDs/HD-DVDs
Duration : 2 h 1 min
Bit rate : 29.7 kb/s
Count of elements : 2397
Stream size : 25.9 MiB (0%)
Title : Romanian-PGS
Language : Romanian
Default : No
Forced : No

Text #25
ID : 41
Format : PGS
Muxing mode : zlib
Codec ID : S_HDMV/PGS
Codec ID/Info : Picture based subtitle format used on BDs/HD-DVDs
Duration : 1 h 58 min
Bit rate : 27.3 kb/s
Count of elements : 2029
Stream size : 23.1 MiB (0%)
Title : Russian-PGS
Language : Russian
Default : No
Forced : No

Text #26
ID : 42
Format : PGS
Muxing mode : zlib
Codec ID : S_HDMV/PGS
Codec ID/Info : Picture based subtitle format used on BDs/HD-DVDs
Duration : 1 h 55 min
Bit rate : 31.9 kb/s
Count of elements : 2336
Stream size : 26.3 MiB (0%)
Title : Spanish-PGS
Language : Spanish
Default : No
Forced : No

Text #27
ID : 43
Format : PGS
Muxing mode : zlib
Codec ID : S_HDMV/PGS
Codec ID/Info : Picture based subtitle format used on BDs/HD-DVDs
Duration : 1 h 58 min
Bit rate : 31.9 kb/s
Count of elements : 2873
Stream size : 26.9 MiB (0%)
Title : Spanish-PGS
Language : Spanish
Default : No
Forced : No

Text #28
ID : 44
Format : PGS
Muxing mode : zlib
Codec ID : S_HDMV/PGS
Codec ID/Info : Picture based subtitle format used on BDs/HD-DVDs
Duration : 2 h 1 min
Bit rate : 25.0 kb/s
Count of elements : 2001
Stream size : 21.8 MiB (0%)
Title : Swedish-PGS
Language : Swedish
Default : No
Forced : No

Text #29
ID : 45
Format : PGS
Muxing mode : zlib
Codec ID : S_HDMV/PGS
Codec ID/Info : Picture based subtitle format used on BDs/HD-DVDs
Duration : 1 h 55 min
Bit rate : 31.8 kb/s
Count of elements : 2394
Stream size : 26.2 MiB (0%)
Title : Thai-PGS
Language : Thai
Default : No
Forced : No

Text #30
ID : 46
Format : PGS
Muxing mode : zlib
Codec ID : S_HDMV/PGS
Codec ID/Info : Picture based subtitle format used on BDs/HD-DVDs
Duration : 1 h 55 min
Bit rate : 32.5 kb/s
Count of elements : 2402
Stream size : 26.8 MiB (0%)
Title : Turkish-pGS
Language : Turkish
Default : No
Forced : No

Text #31
ID : 47
Format : PGS
Muxing mode : zlib
Codec ID : S_HDMV/PGS
Codec ID/Info : Picture based subtitle format used on BDs/HD-DVDs
Duration : 2 h 0 min
Bit rate : 192 b/s
Count of elements : 24
Stream size : 170 KiB (0%)
Title : French-FORCED-pGS
Language : French
Default : No
Forced : No

Text #32
ID : 48
Format : PGS
Muxing mode : zlib
Codec ID : S_HDMV/PGS
Codec ID/Info : Picture based subtitle format used on BDs/HD-DVDs
Duration : 1 h 54 min
Bit rate : 665 b/s
Count of elements : 62
Stream size : 558 KiB (0%)
Title : Japanese-FORCED-pGS
Language : Japanese
Default : No
Forced : No

Menu
00:00:00.000 : :Chapter 1
00:05:42.091 : :Chapter 2
00:13:43.280 : :Chapter 3
00:24:50.989 : :Chapter 4
00:32:43.169 : :Chapter 5
00:39:50.846 : :Chapter 6
00:46:06.346 : :Chapter 7
00:55:22.569 : :Chapter 8
01:01:07.580 : :Chapter 9
01:07:20.953 : :Chapter 10
01:16:01.139 : :Chapter 11
01:26:39.527 : :Chapter 12
01:36:53.682 : :Chapter 13
01:44:12.371 : :Chapter 14
01:47:53.592 : :Chapter 15
01:55:40.558 : :Chapter 16
movie BDRip Video
ID : 1
Format : HEVC
Format/Info : High Efficiency Video Coding
Commercial name : HDR10
Format profile : Main 10@L5.1@High
Codec ID : V_MPEGH/ISO/HEVC
Duration : 2 h 5 min
Bit rate : 34.7 Mb/s
Width : 3 840 pixels
Height : 2 076 pixels
Display aspect ratio : 1.85:1
Frame rate mode : Constant
Frame rate : 23.976 (24000/1001) FPS
Color space : YUV
Chroma subsampling : 4:2:0 (Type 2)
Bit depth : 10 bits
Bits/(Pixel*Frame) : 0.182
Stream size : 30.4 GiB (83%)
Writing library : x265 2.9+8-27d8424c799d:[Windows][MSVC 1900][64 bit] 10bit
Encoding settings : cpuid=1176575 / frame-threads=6 / numa-pools=36 / wpp / no-pmode / no-pme / no-psnr / no-ssim / log-level=2 / input-csp=1 / input-res=3840x2076 / interlace=0 / total-frames=180504 / level-idc=51 / high-tier=1 / uhd-bd=0 / ref=4 / no-allow-non-conformance / repeat-headers / annexb / aud / hrd / info / hash=0 / no-temporal-layers / no-open-gop / min-keyint=24 / keyint=240 / gop-lookahead=0 / bframes=4 / b-adapt=2 / b-pyramid / bframe-bias=0 / rc-lookahead=25 / lookahead-slices=4 / scenecut=40 / radl=0 / no-intra-refresh / ctu=64 / min-cu-size=8 / rect / no-amp / max-tu-size=32 / tu-inter-depth=1 / tu-intra-depth=1 / limit-tu=0 / rdoq-level=2 / dynamic-rd=0.00 / no-ssim-rd / signhide / no-tskip / nr-intra=0 / nr-inter=0 / no-constrained-intra / no-strong-intra-smoothing / max-merge=3 / limit-refs=3 / limit-modes / me=3 / subme=3 / merange=57 / temporal-mvp / weightp / no-weightb / no-analyze-src-pics / deblock=-3:-3 / no-sao / no-sao-non-deblock / rd=4 / no-early-skip / rskip / no-fast-intra / no-tskip-fast / no-cu-lossless / no-b-intra / no-splitrd-skip / rdpenalty=0 / psy-rd=2.00 / psy-rdoq=1.00 / no-rd-refine / no-lossless / cbqpoffs=0 / crqpoffs=0 / rc=crf / crf=18.6 / qcomp=0.60 / qpstep=4 / stats-write=0 / stats-read=0 / vbv-maxrate=160000 / vbv-bufsize=160000 / vbv-init=0.9 / crf-max=0.0 / crf-min=0.0 / ipratio=1.40 / pbratio=1.30 / aq-mode=1 / aq-strength=1.00 / cutree / zone-count=0 / no-strict-cbr / qg-size=32 / no-rc-grain / qpmax=69 / qpmin=0 / no-const-vbv / sar=1 / overscan=0 / videoformat=5 / range=0 / colorprim=9 / transfer=16 / colormatrix=9 / chromaloc=1 / chromaloc-top=2 / chromaloc-bottom=2 / display-window=0 / master-display=G(13250,34500)B(7500,3000)R(34000,16000)WP(15635,16450)L(40000000,50) / max-cll=3392,205 / min-luma=0 / max-luma=1023 / log2-max-poc-lsb=8 / vui-timing-info / vui-hrd-info / slices=1 / no-opt-qp-pps / no-opt-ref-list-length-pps / no-multi-pass-opt-rps / scenecut-bias=0.05 / no-opt-cu-delta-qp / no-aq-motion / hdr / hdr-opt / no-dhdr10-opt / no-idr-recovery-sei / analysis-reuse-level=5 / scale-factor=0 / refine-intra=0 / refine-inter=0 / refine-mv=0 / no-limit-sao / ctu-info=0 / no-lowpass-dct / refine-mv-type=0 / copy-pic=1 / max-ausize-factor=1.0 / no-dynamic-refine / no-single-sei
Default : Yes
Forced : No
Color range : Limited
Color primaries : BT.2020
Transfer characteristics : PQ
Matrix coefficients : BT.2020 non-constant
Mastering display color primaries : Display P3
Mastering display luminance : min: 0.0050 cd/m2, max: 4000 cd/m2
Maximum Content Light Level : 3392 cd/m2
Maximum Frame-Average Light Level : 205 cd/m2

Audio #1
ID : 2
Format : MLP FBA 16-ch
Format/Info : Meridian Lossless Packing FBA with 16-channel presentation
Commercial name : Dolby TrueHD with Dolby Atmos
Codec ID : A_TRUEHD
Duration : 2 h 5 min
Bit rate mode : Variable
Bit rate : 3 826 kb/s
Maximum bit rate : 6 003 kb/s
Channel(s) : 8 channels
Channel layout : L R C LFE Ls Rs Lb Rb
Sampling rate : 48.0 kHz
Frame rate : 1 200.000 FPS (40 SPF)
Compression mode : Lossless
Stream size : 3.35 GiB (9%)
Title : Atmos 7.1
Language : English
Default : Yes
Forced : No
Number of dynamic objects : 11
Bed channel count : 1 channel
Bed channel configuration : LFE

Audio #2
ID : 3
Format : AC-3
Format/Info : Audio Coding 3
Commercial name : Dolby Digital
Codec ID : A_AC3
Duration : 2 h 5 min
Bit rate mode : Constant
Bit rate : 640 kb/s
Channel(s) : 5 channels
Channel layout : L R C Ls Rs
Sampling rate : 48.0 kHz
Frame rate : 31.250 FPS (1536 SPF)
Bit depth : 16 bits
Compression mode : Lossy
Stream size : 574 MiB (2%)
Title : AC-3 5.1
Language : English
Service kind : Complete Main
Default : No
Forced : No

Audio #3
ID : 4
Format : DTS XLL
Format/Info : Digital Theater Systems
Commercial name : DTS-HD Master Audio
Codec ID : A_DTS
Duration : 2 h 5 min
Bit rate mode : Variable
Bit rate : 2 028 kb/s
Channel(s) : 5 channels
Channel layout : C L R Ls Rs
Sampling rate : 48.0 kHz
Frame rate : 93.750 FPS (512 SPF)
Bit depth : 16 bits
Compression mode : Lossless
Stream size : 1.78 GiB (5%)
Title : DTS-HD MA 5.0
Language : English
Default : No
Forced : No

Text #1
ID : 5
Format : UTF-8
Codec ID : S_TEXT/UTF8
Codec ID/Info : UTF-8 Plain Text
Duration : 1 h 58 min
Bit rate : 69 b/s
Count of elements : 1467
Stream size : 60.3 KiB (0%)
Title : Stripped SRT (US)
Language : English
Default : No
Forced : No

Text #2
ID : 6
Format : UTF-8
Codec ID : S_TEXT/UTF8
Codec ID/Info : UTF-8 Plain Text
Duration : 1 h 55 min
Bit rate : 56 b/s
Count of elements : 1188
Stream size : 47.9 KiB (0%)
Title : Full SRT (US)
Language : English
Default : No
Forced : No

Text #3
ID : 7
Format : PGS
Muxing mode : zlib
Codec ID : S_HDMV/PGS
Codec ID/Info : Picture based subtitle format used on BDs/HD-DVDs
Duration : 1 h 55 min
Bit rate : 32.4 kb/s
Count of elements : 2377
Stream size : 26.8 MiB (0%)
Title : Full (US)
Language : English
Default : No
Forced : No

Text #4
ID : 8
Format : UTF-8
Codec ID : S_TEXT/UTF8
Codec ID/Info : UTF-8 Plain Text
Duration : 1 h 59 min
Bit rate : 73 b/s
Count of elements : 1599
Stream size : 63.8 KiB (0%)
Title : SDH SRT (US)
Language : English
Default : No
Forced : No

Text #5
ID : 9
Format : PGS
Muxing mode : zlib
Codec ID : S_HDMV/PGS
Codec ID/Info : Picture based subtitle format used on BDs/HD-DVDs
Duration : 1 h 59 min
Bit rate : 41.9 kb/s
Count of elements : 3200
Stream size : 35.8 MiB (0%)
Title : SDH (US)
Language : English
Default : No
Forced : No

Text #6
ID : 10
Format : PGS
Muxing mode : zlib
Codec ID : S_HDMV/PGS
Codec ID/Info : Picture based subtitle format used on BDs/HD-DVDs
Duration : 1 h 55 min
Bit rate : 32.5 kb/s
Count of elements : 2378
Stream size : 26.8 MiB (0%)
Title : Full (UK)
Language : English
Default : No
Forced : No

Text #7
ID : 11
Format : PGS
Muxing mode : zlib
Codec ID : S_HDMV/PGS
Codec ID/Info : Picture based subtitle format used on BDs/HD-DVDs
Duration : 1 h 59 min
Bit rate : 42.0 kb/s
Count of elements : 3200
Stream size : 35.9 MiB (0%)
Title : SDH (UK)
Language : English
Default : No
Forced : No

Text #8
ID : 12
Format : PGS
Muxing mode : zlib
Codec ID : S_HDMV/PGS
Codec ID/Info : Picture based subtitle format used on BDs/HD-DVDs
Duration : 2 h 1 min
Bit rate : 29.0 kb/s
Count of elements : 2394
Stream size : 25.3 MiB (0%)
Language : French
Default : No
Forced : No

Text #9
ID : 13
Format : PGS
Muxing mode : zlib
Codec ID : S_HDMV/PGS
Codec ID/Info : Picture based subtitle format used on BDs/HD-DVDs
Duration : 1 h 55 min
Bit rate : 31.9 kb/s
Count of elements : 2336
Stream size : 26.3 MiB (0%)
Language : Spanish
Default : No
Forced : No

Text #10
ID : 14
Format : PGS
Muxing mode : zlib
Codec ID : S_HDMV/PGS
Codec ID/Info : Picture based subtitle format used on BDs/HD-DVDs
Duration : 1 h 58 min
Bit rate : 31.9 kb/s
Count of elements : 2873
Stream size : 26.9 MiB (0%)
Language : Spanish
Default : No
Forced : No

Text #11
ID : 15
Format : PGS
Muxing mode : zlib
Codec ID : S_HDMV/PGS
Codec ID/Info : Picture based subtitle format used on BDs/HD-DVDs
Duration : 1 h 58 min
Bit rate : 31.5 kb/s
Count of elements : 2354
Stream size : 26.6 MiB (0%)
Language : Portuguese
Default : No
Forced : No

Text #12
ID : 16
Format : PGS
Muxing mode : zlib
Codec ID : S_HDMV/PGS
Codec ID/Info : Picture based subtitle format used on BDs/HD-DVDs
Duration : 1 h 55 min
Bit rate : 32.0 kb/s
Count of elements : 2354
Stream size : 26.4 MiB (0%)
Language : Italian
Default : No
Forced : No

Text #13
ID : 17
Format : PGS
Muxing mode : zlib
Codec ID : S_HDMV/PGS
Codec ID/Info : Picture based subtitle format used on BDs/HD-DVDs
Duration : 1 h 55 min
Bit rate : 35.9 kb/s
Count of elements : 2338
Stream size : 29.6 MiB (0%)
Language : German
Default : No
Forced : No

Text #14
ID : 18
Format : PGS
Muxing mode : zlib
Codec ID : S_HDMV/PGS
Codec ID/Info : Picture based subtitle format used on BDs/HD-DVDs
Duration : 2 h 1 min
Bit rate : 30.6 kb/s
Count of elements : 2256
Stream size : 26.7 MiB (0%)
Language : Dutch
Default : No
Forced : No

Text #15
ID : 19
Format : PGS
Muxing mode : zlib
Codec ID : S_HDMV/PGS
Codec ID/Info : Picture based subtitle format used on BDs/HD-DVDs
Duration : 2 h 1 min
Bit rate : 25.0 kb/s
Count of elements : 2001
Stream size : 21.8 MiB (0%)
Language : Swedish
Default : No
Forced : No

Text #16
ID : 20
Format : PGS
Muxing mode : zlib
Codec ID : S_HDMV/PGS
Codec ID/Info : Picture based subtitle format used on BDs/HD-DVDs
Duration : 2 h 1 min
Bit rate : 24.2 kb/s
Count of elements : 2017
Stream size : 21.1 MiB (0%)
Language : Norwegian
Default : No
Forced : No

Text #17
ID : 21
Format : PGS
Muxing mode : zlib
Codec ID : S_HDMV/PGS
Codec ID/Info : Picture based subtitle format used on BDs/HD-DVDs
Duration : 1 h 52 min
Bit rate : 26.1 kb/s
Count of elements : 1849
Stream size : 20.9 MiB (0%)
Language : Danish
Default : No
Forced : No

Text #18
ID : 22
Format : PGS
Muxing mode : zlib
Codec ID : S_HDMV/PGS
Codec ID/Info : Picture based subtitle format used on BDs/HD-DVDs
Duration : 1 h 52 min
Bit rate : 26.3 kb/s
Count of elements : 2016
Stream size : 21.1 MiB (0%)
Language : Finnish
Default : No
Forced : No

Text #19
ID : 23
Format : PGS
Muxing mode : zlib
Codec ID : S_HDMV/PGS
Codec ID/Info : Picture based subtitle format used on BDs/HD-DVDs
Duration : 1 h 58 min
Bit rate : 27.3 kb/s
Count of elements : 2029
Stream size : 23.1 MiB (0%)
Language : Russian
Default : No
Forced : No

Text #20
ID : 24
Format : PGS
Muxing mode : zlib
Codec ID : S_HDMV/PGS
Codec ID/Info : Picture based subtitle format used on BDs/HD-DVDs
Duration : 1 h 55 min
Bit rate : 27.0 kb/s
Count of elements : 2332
Stream size : 22.2 MiB (0%)
Language : Czech
Default : No
Forced : No

Text #21
ID : 25
Format : PGS
Muxing mode : zlib
Codec ID : S_HDMV/PGS
Codec ID/Info : Picture based subtitle format used on BDs/HD-DVDs
Duration : 2 h 1 min
Bit rate : 28.3 kb/s
Count of elements : 2340
Stream size : 24.7 MiB (0%)
Language : Polish
Default : No
Forced : No

Text #22
ID : 26
Format : PGS
Muxing mode : zlib
Codec ID : S_HDMV/PGS
Codec ID/Info : Picture based subtitle format used on BDs/HD-DVDs
Duration : 1 h 55 min
Bit rate : 30.9 kb/s
Count of elements : 2338
Stream size : 25.5 MiB (0%)
Language : Hungarian
Default : No
Forced : No

Text #23
ID : 27
Format : PGS
Muxing mode : zlib
Codec ID : S_HDMV/PGS
Codec ID/Info : Picture based subtitle format used on BDs/HD-DVDs
Duration : 2 h 1 min
Bit rate : 29.7 kb/s
Count of elements : 2397
Stream size : 25.9 MiB (0%)
Language : Romanian
Default : No
Forced : No

Text #24
ID : 28
Format : PGS
Muxing mode : zlib
Codec ID : S_HDMV/PGS
Codec ID/Info : Picture based subtitle format used on BDs/HD-DVDs
Duration : 1 h 56 min
Bit rate : 28.1 kb/s
Count of elements : 2136
Stream size : 23.3 MiB (0%)
Language : Greek
Default : No
Forced : No

Text #25
ID : 29
Format : PGS
Muxing mode : zlib
Codec ID : S_HDMV/PGS
Codec ID/Info : Picture based subtitle format used on BDs/HD-DVDs
Duration : 1 h 55 min
Bit rate : 32.5 kb/s
Count of elements : 2402
Stream size : 26.8 MiB (0%)
Language : Turkish
Default : No
Forced : No

Text #26
ID : 30
Format : PGS
Muxing mode : zlib
Codec ID : S_HDMV/PGS
Codec ID/Info : Picture based subtitle format used on BDs/HD-DVDs
Duration : 1 h 55 min
Bit rate : 17.5 kb/s
Count of elements : 2334
Stream size : 14.4 MiB (0%)
Language : Arabic
Default : No
Forced : No

Text #27
ID : 31
Format : PGS
Muxing mode : zlib
Codec ID : S_HDMV/PGS
Codec ID/Info : Picture based subtitle format used on BDs/HD-DVDs
Duration : 1 h 55 min
Bit rate : 26.3 kb/s
Count of elements : 2750
Stream size : 21.8 MiB (0%)
Language : Japanese
Default : No
Forced : No

Text #28
ID : 32
Format : PGS
Muxing mode : zlib
Codec ID : S_HDMV/PGS
Codec ID/Info : Picture based subtitle format used on BDs/HD-DVDs
Duration : 1 h 55 min
Bit rate : 25.1 kb/s
Count of elements : 2394
Stream size : 20.7 MiB (0%)
Language : Chinese
Default : No
Forced : No

Text #29
ID : 33
Format : PGS
Muxing mode : zlib
Codec ID : S_HDMV/PGS
Codec ID/Info : Picture based subtitle format used on BDs/HD-DVDs
Duration : 1 h 55 min
Bit rate : 24.5 kb/s
Count of elements : 2394
Stream size : 20.2 MiB (0%)
Language : Chinese
Default : No
Forced : No

Text #30
ID : 34
Format : PGS
Muxing mode : zlib
Codec ID : S_HDMV/PGS
Codec ID/Info : Picture based subtitle format used on BDs/HD-DVDs
Duration : 2 h 4 min
Bit rate : 25.6 kb/s
Count of elements : 2577
Stream size : 22.8 MiB (0%)
Language : Korean
Default : No
Forced : No

Text #31
ID : 35
Format : PGS
Muxing mode : zlib
Codec ID : S_HDMV/PGS
Codec ID/Info : Picture based subtitle format used on BDs/HD-DVDs
Duration : 1 h 55 min
Bit rate : 31.8 kb/s
Count of elements : 2394
Stream size : 26.2 MiB (0%)
Language : Thai
Default : No
Forced : No

Menu
00:00:00.000 : :00:00:00.000
00:05:42.092 : :00:05:42.092
00:13:43.281 : :00:13:43.281
00:24:50.989 : :00:24:50.989
00:32:43.170 : :00:32:43.170
00:39:50.847 : :00:39:50.847
00:46:06.347 : :00:46:06.347
00:55:22.569 : :00:55:22.569
01:01:07.581 : :01:01:07.581
01:07:20.954 : :01:07:20.954
01:16:01.140 : :01:16:01.140
01:26:39.528 : :01:26:39.528
01:36:53.683 : :01:36:53.683
01:44:12.371 : :01:44:12.371
01:47:53.592 : :01:47:53.592
01:55:40.559 : :01:55:40.559

Download

download 4k hdr movies download 4k hdr movies

Watch a movie trailer - Philadelphia 4K 1993 Ultra HD 2160p
Comments and Feedback
Add your comment:
Your name:
Your E-Mail:
Code:
reload, if the code cannot be seen
Enter code: