Select movie Search movie Close search My Account

The Hate U Give 2018 Ultra HD 2160p

The Hate U Give 2018 Ultra HD 2160p
BDRemux / BDRip
Country: USA
Time: 2h 13min
IMDB: 7.1
Director: George Tillman Jr.
Actors: Amandla Stenberg, Regina Hall, Russell Hornsby, Anthony Mackie, Issa Rae, Common, Algee Smith, Sabrina Carpenter, K.J. Apa, Dominique Fishback, Lamar Johnson, TJ Wright, Megan Lawless, Rhonda Johnson Dents, Tony Vaughn

Story Movie

The Hate U Give 2018 Ultra HD 2160p

The Hate U Give Rent 4K movies - Watching her struggle for justice is difficult, the picture's emotionality rolls over! Want to help the heroes through the screen, but you can not. It is very pitiable to realize that such problems exist in the world to this day. Feel the danger of those who should protect you, realize that for some reason people divide the world into black and white, when we are all people! Cinema The Hate U Give UHD will make you think and others to rethink their hatred for those who do not deserve it 4k.

Review 4K Movie

"A policeman shot a black teenager from Ferguson Michael Brown."

“In the city of Ferguson, after the grand jury decided not to bring to justice a policeman who had shot a black teenager, clashes of protesters with the police began.”

"In Chicago, Seattle, Boston and Los Angeles, protests are held in connection with the events in Ferguson"

“In the US, protests continue against the decision on the murder of a teenager in Ferguson. In New York, thousands of protesters gathered in Times Square and the surrounding streets. ”

“San Diego police took a cigarette in the hands of an African American and killed him.” (2016)

“A white police officer in South Carolina is charged with murder after publishing a videotape showing how he shoots an unarmed black man in the back.”

The film The Hate U Give Rent 4K movies is the adaptation of Angie Thomas’s novel The Hate U Give Ultra HD. Initially, Angie Thomas began writing this book even before the death of Michael Brown in 2014, but after the events described above, her determination to tell a story that saw the light only in 2017 increased. And even though the book is positioned as teenage literature, the topic touched upon in it is not at all childish. Submission from the face of a black teenage girl only enhances the effect of perception, because children see the world differently, not yet burdened with cynicism, indifference and hatred.

In the center of the plot is Starr Carter, located between two worlds - a poor neighborhood of the ghetto and a prosperous school. At school, she is a quiet, unpretentious girl, so God forbid not to be a black upstart, but at home she is still torn in an attempt to find a balance between the world and the reality surrounding it. She and her black brothers are those to whom there will always be increased attention from the rule of law. Here we must be frank - not without reason. Drug trafficking, robbery, gang clashes, high crime, all of this is the reality of the disadvantaged areas in which blacks live. In front of Starr, a policeman kills her best childhood friend holding a comb. From this moment begins the rethinking of its values ​​and ideology.

Mediainfo

movie BDRemux Video
ID : 1
Format : HEVC
Format/Info : High Efficiency Video Coding
Commercial name : HDR10
Format profile : Main 10@L5.1@High
Codec ID : V_MPEGH/ISO/HEVC
Duration : 2 h 13 min
Bit rate : 46.2 Mb/s
Width : 3 840 pixels
Height : 2 160 pixels
Display aspect ratio : 16:9
Frame rate mode : Constant
Frame rate : 23.976 (24000/1001) FPS
Color space : YUV
Chroma subsampling : 4:2:0 (Type 2)
Bit depth : 10 bits
Bits/(Pixel*Frame) : 0.232
Stream size : 42.9 GiB (88%)
Title : The.Hate.U.Give.2018.2160p.BluRay.REMUX.HEVC.DTS-HD.MA.7.1
Default : Yes
Forced : No
Color range : Limited
Color primaries : BT.2020
Transfer characteristics : PQ
Matrix coefficients : BT.2020 non-constant
Mastering display color primaries : Display P3
Mastering display luminance : min: 0.0050 cd/m2, max: 1000 cd/m2

Audio #1
ID : 2
Format : DTS XLL
Format/Info : Digital Theater Systems
Commercial name : DTS-HD Master Audio
Codec ID : A_DTS
Duration : 2 h 13 min
Bit rate mode : Variable
Bit rate : 4 545 kb/s
Channel(s) : 8 channels
Channel layout : C L R LFE Lb Rb Lss Rss
Sampling rate : 48.0 kHz
Frame rate : 93.750 FPS (512 SPF)
Bit depth : 24 bits
Compression mode : Lossless
Stream size : 4.22 GiB (9%)
Title : The.Hate.U.Give.2018.2160p.BluRay.REMUX.HEVC.DTS-HD.MA.7.1
Language : English
Default : Yes
Forced : No

Audio #2
ID : 3
Format : AC-3
Format/Info : Audio Coding 3
Commercial name : Dolby Digital
Codec ID : A_AC3
Duration : 2 h 13 min
Bit rate mode : Constant
Bit rate : 448 kb/s
Channel(s) : 6 channels
Channel layout : L R C LFE Ls Rs
Sampling rate : 48.0 kHz
Frame rate : 31.250 FPS (1536 SPF)
Bit depth : 16 bits
Compression mode : Lossy
Delay relative to video : 5 ms
Stream size : 426 MiB (1%)
Title : The.Hate.U.Give.2018.2160p.BluRay.REMUX.HEVC.DTS-HD.MA.7.1
Language : English
Service kind : Complete Main
Default : No
Forced : No

Audio #3
ID : 4
Format : AC-3
Format/Info : Audio Coding 3
Commercial name : Dolby Digital
Codec ID : A_AC3
Duration : 2 h 13 min
Bit rate mode : Constant
Bit rate : 448 kb/s
Channel(s) : 6 channels
Channel layout : L R C LFE Ls Rs
Sampling rate : 48.0 kHz
Frame rate : 31.250 FPS (1536 SPF)
Bit depth : 16 bits
Compression mode : Lossy
Delay relative to video : 5 ms
Stream size : 426 MiB (1%)
Title : The.Hate.U.Give.2018.2160p.BluRay.REMUX.HEVC.DTS-HD.MA.7.1-FGT
Language : Spanish
Service kind : Complete Main
Default : No
Forced : No

Audio #4
ID : 5
Format : AC-3
Format/Info : Audio Coding 3
Commercial name : Dolby Digital
Codec ID : A_AC3
Duration : 2 h 13 min
Bit rate mode : Constant
Bit rate : 448 kb/s
Channel(s) : 6 channels
Channel layout : L R C LFE Ls Rs
Sampling rate : 48.0 kHz
Frame rate : 31.250 FPS (1536 SPF)
Bit depth : 16 bits
Compression mode : Lossy
Delay relative to video : 5 ms
Stream size : 426 MiB (1%)
Title : The.Hate.U.Give.2018.2160p.BluRay.REMUX.HEVC.DTS-HD.MA.7.1
Language : French
Service kind : Complete Main
Default : No
Forced : No

Audio #5
ID : 6
Format : AC-3
Format/Info : Audio Coding 3
Commercial name : Dolby Digital
Codec ID : A_AC3
Duration : 2 h 13 min
Bit rate mode : Constant
Bit rate : 224 kb/s
Channel(s) : 2 channels
Channel layout : L R
Sampling rate : 48.0 kHz
Frame rate : 31.250 FPS (1536 SPF)
Bit depth : 16 bits
Compression mode : Lossy
Delay relative to video : 5 ms
Stream size : 213 MiB (0%)
Title : The.Hate.U.Give.2018.2160p.BluRay.REMUX.HEVC.DTS-HD.MA.7.1
Language : English
Service kind : Complete Main
Default : No
Forced : No

Text #1
ID : 7
Format : UTF-8
Codec ID : S_TEXT/UTF8
Codec ID/Info : UTF-8 Plain Text
Duration : 2 h 5 min
Bit rate : 67 b/s
Count of elements : 2030
Stream size : 61.7 KiB (0%)
Title : English-SRT
Language : English
Default : Yes
Forced : No

Text #2
ID : 8
Format : UTF-8
Codec ID : S_TEXT/UTF8
Codec ID/Info : UTF-8 Plain Text
Duration : 2 h 12 min
Bit rate : 80 b/s
Count of elements : 2456
Stream size : 78.1 KiB (0%)
Title : English-SDH-SRT
Language : English
Default : No
Forced : No

Text #3
ID : 9
Format : PGS
Muxing mode : zlib
Codec ID : S_HDMV/PGS
Codec ID/Info : Picture based subtitle format used on BDs/HD-DVDs
Duration : 2 h 12 min
Bit rate : 53.6 kb/s
Count of elements : 4913
Stream size : 50.9 MiB (0%)
Title : English-PGS
Language : English
Default : No
Forced : No

Text #4
ID : 10
Format : PGS
Muxing mode : zlib
Codec ID : S_HDMV/PGS
Codec ID/Info : Picture based subtitle format used on BDs/HD-DVDs
Duration : 2 h 12 min
Bit rate : 38.6 kb/s
Count of elements : 3556
Stream size : 36.5 MiB (0%)
Title : Spanish-PGS
Language : Spanish
Default : No
Forced : No

Text #5
ID : 11
Format : PGS
Muxing mode : zlib
Codec ID : S_HDMV/PGS
Codec ID/Info : Picture based subtitle format used on BDs/HD-DVDs
Duration : 2 h 12 min
Bit rate : 41.7 kb/s
Count of elements : 3832
Stream size : 39.4 MiB (0%)
Title : French-PGS
Language : French
Default : No
Forced : No

Text #6
ID : 12
Format : PGS
Muxing mode : zlib
Codec ID : S_HDMV/PGS
Codec ID/Info : Picture based subtitle format used on BDs/HD-DVDs
Duration : 2 h 12 min
Bit rat
movie BDRip Video
ID : 1
Format : HEVC
Format/Info : High Efficiency Video Coding
Commercial name : HDR10
Format profile : Main 10@L5.1@High
Codec ID : V_MPEGH/ISO/HEVC
Duration : 2 h 13 min
Bit rate : 14.7 Mb/s
Width : 3 840 pixels
Height : 1 600 pixels
Display aspect ratio : 2.40:1
Frame rate mode : Constant
Frame rate : 23.976 (24000/1001) FPS
Color space : YUV
Chroma subsampling : 4:2:0 (Type 2)
Bit depth : 10 bits
Bits/(Pixel*Frame) : 0.100
Stream size : 13.7 GiB (75%)
Writing library : x265 2.8+74-fd517ae68f93:[Windows][GCC 6.3.0][64 bit] 10bit
Encoding settings : cpuid=1111039 / frame-threads=4 / numa-pools=20 / wpp / no-pmode / no-pme / no-psnr / no-ssim / log-level=2 / input-csp=1 / input-res=3840x1600 / interlace=0 / total-frames=191448 / level-idc=51 / high-tier=1 / uhd-bd=0 / ref=4 / no-allow-non-conformance / repeat-headers / annexb / aud / hrd / info / hash=0 / no-temporal-layers / no-open-gop / min-keyint=1 / keyint=24 / gop-lookahead=0 / bframes=4 / b-adapt=2 / b-pyramid / bframe-bias=0 / rc-lookahead=25 / lookahead-slices=4 / scenecut=40 / radl=0 / no-intra-refresh / ctu=64 / min-cu-size=8 / rect / no-amp / max-tu-size=32 / tu-inter-depth=1 / tu-intra-depth=1 / limit-tu=0 / rdoq-level=2 / dynamic-rd=0.00 / no-ssim-rd / signhide / no-tskip / nr-intra=0 / nr-inter=0 / no-constrained-intra / no-strong-intra-smoothing / max-merge=3 / limit-refs=3 / limit-modes / me=3 / subme=3 / merange=57 / temporal-mvp / weightp / no-weightb / no-analyze-src-pics / deblock=-3:-3 / no-sao / no-sao-non-deblock / rd=4 / no-early-skip / rskip / no-fast-intra / no-tskip-fast / no-cu-lossless / no-b-intra / no-splitrd-skip / rdpenalty=0 / psy-rd=2.00 / psy-rdoq=1.00 / no-rd-refine / no-lossless / cbqpoffs=0 / crqpoffs=0 / rc=crf / crf=17.0 / qcomp=0.60 / qpstep=4 / stats-write=0 / stats-read=0 / vbv-maxrate=160000 / vbv-bufsize=160000 / vbv-init=0.9 / crf-max=0.0 / crf-min=0.0 / ipratio=1.40 / pbratio=1.30 / aq-mode=1 / aq-strength=1.00 / cutree / zone-count=0 / no-strict-cbr / qg-size=32 / no-rc-grain / qpmax=69 / qpmin=0 / no-const-vbv / sar=1 / overscan=0 / videoformat=5 / range=0 / colorprim=9 / transfer=16 / colormatrix=9 / chromaloc=1 / chromaloc-top=2 / chromaloc-bottom=2 / display-window=0 / master-display=G(13250,34500)B(7500,3000)R(34000,16000)WP(15635,16450)L(10000000,50) / max-cll=0,0 / min-luma=0 / max-luma=1023 / log2-max-poc-lsb=8 / vui-timing-info / vui-hrd-info / slices=1 / no-opt-qp-pps / no-opt-ref-list-length-pps / no-multi-pass-opt-rps / scenecut-bias=0.05 / no-opt-cu-delta-qp / no-aq-motion / hdr / hdr-opt / no-dhdr10-opt / no-idr-recovery-sei / analysis-reuse-level=5 / scale-factor=0 / refine-intra=0 / refine-inter=0 / refine-mv=0 / no-limit-sao / ctu-info=0 / no-lowpass-dct / refine-mv-type=0 / copy-pic=1 / max-ausize-factor=1.0 / no-dynamic-refine / no-single-sei
Default : Yes
Forced : No
Color range : Limited
Color primaries : BT.2020
Transfer characteristics : PQ
Matrix coefficients : BT.2020 non-constant
Mastering display color primaries : Display P3
Mastering display luminance : min: 0.0050 cd/m2, max: 1000 cd/m2

Audio #1
ID : 2
Format : DTS XLL
Format/Info : Digital Theater Systems
Commercial name : DTS-HD Master Audio
Codec ID : A_DTS
Duration : 2 h 13 min
Bit rate mode : Variable
Bit rate : 4 545 kb/s
Channel(s) : 8 channels
Channel layout : C L R LFE Lb Rb Lss Rss
Sampling rate : 48.0 kHz
Frame rate : 93.750 FPS (512 SPF)
Bit depth : 24 bits
Compression mode : Lossless
Stream size : 4.22 GiB (23%)
Language : English
Default : Yes
Forced : No

Audio #2
ID : 3
Format : AC-3
Format/Info : Audio Coding 3
Commercial name : Dolby Digital
Codec ID : A_AC3
Duration : 2 h 13 min
Bit rate mode : Constant
Bit rate : 224 kb/s
Channel(s) : 2 channels
Channel layout : L R
Sampling rate : 48.0 kHz
Frame rate : 31.250 FPS (1536 SPF)
Bit depth : 16 bits
Compression mode : Lossy
Stream size : 213 MiB (1%)
Title : Commentary
Language : English
Service kind : Complete Main
Default : No
Forced : No

Text #1
ID : 4
Format : PGS
Muxing mode : zlib
Codec ID : S_HDMV/PGS
Codec ID/Info : Picture based subtitle format used on BDs/HD-DVDs
Duration : 2 h 12 min
Bit rate : 53.6 kb/s
Count of elements : 4913
Stream size : 50.9 MiB (0%)
Language : English
Default : No
Forced : No

Text #2
ID : 5
Format : PGS
Muxing mode : zlib
Codec ID : S_HDMV/PGS
Codec ID/Info : Picture based subtitle format used on BDs/HD-DVDs
Duration : 2 h 12 min
Bit rate : 38.6 kb/s
Count of elements : 3556
Stream size : 36.5 MiB (0%)
Language : Spanish
Default : No
Forced : No

Text #3
ID : 6
Format : PGS
Muxing mode : zlib
Codec ID : S_HDMV/PGS
Codec ID/Info : Picture based subtitle format used on BDs/HD-DVDs
Duration : 2 h 12 min
Bit rate : 41.7 kb/s
Count of elements : 3832
Stream size : 39.4 MiB (0%)
Language : French
Default : No
Forced : No

Text #4
ID : 7
Format : PGS
Muxing mode : zlib
Codec ID : S_HDMV/PGS
Codec ID/Info : Picture based subtitle format used on BDs/HD-DVDs
Duration : 2 h 12 min
Bit rate : 81.7 kb/s
Count of elements : 5222
Stream size : 77.6 MiB (0%)
Title : Commentary
Language : English
Default : No
Forced : No

Text #5
ID : 8
Format : PGS
Muxing mode : zlib
Codec ID : S_HDMV/PGS
Codec ID/Info : Picture based subtitle format used on BDs/HD-DVDs
Duration : 2 h 12 min
Bit rate : 71.2 kb/s
Count of elements : 5134
Stream size : 67.7 MiB (0%)
Title : Commentary
Language : Spanish
Default : No
Forced : No

Text #6
ID : 9
Format : PGS
Muxing mode : zlib
Codec ID : S_HDMV/PGS
Codec ID/Info : Picture based subtitle format used on BDs/HD-DVDs
Duration : 2 h 12 min
Bit rate : 76.9 kb/s
Count of elements : 5248
Stream size : 73.2 MiB (0%)
Title : Commentary
Language : French
Default : No
Forced : No

Menu
00:00:00.000 : :Chapter 01
00:03:55.777 : :Chapter 02
00:08:18.081 : :Chapter 03
00:13:14.252 : :Chapter 04
00:19:32.129 : :Chapter 05
00:24:48.320 : :Chapter 06
00:29:34.314 : :Chapter 07
00:34:54.217 : :Chapter 08
00:40:09.532 : :Chapter 09
00:45:05.411 : :Chapter 10
00:50:09.215 : :Chapter 11
00:58:27.587 : :Chapter 12
01:03:58.376 : :Chapter 13
01:10:00.988 : :Chapter 14
01:14:51.278 : :Chapter 15
01:19:50.786 : :Chapter 16
01:27:09.599 : :Chapter 17
01:32:11.693 : :Chapter 18
01:37:36.225 : :Chapter 19
01:43:59.066 : :Chapter 20
01:49:39.156 : :Chapter 21
01:56:20.432 : :Chapter 22
01:58:00.156 : :Chapter 23
02:03:50.965 : :Chapter 24

Download

download 4k hdr movies download 4k hdr movies

Watch a movie trailer - The Hate U Give 2018 Ultra HD 2160p
Comments and Feedback
Add your comment:
Your name:
Your E-Mail:
Code:
reload, if the code cannot be seen
Enter code: