Select movie Search movie Close search My Account

Black Hawk Down 4K 2001 EXTENDED Ultra HD 2160p

Black Hawk Down 4K 2001 EXTENDED Ultra HD 2160p
BDRemux / BDRip
Country: USA
Time: 2h 24min
IMDB: 7.7
Director: Ridley Scott
Actors: Josh Hartnett, Ewan McGregor, Tom Sizemore, Eric Bana, William Fichtner, Ewen Bremner, Sam Shepard, Gabriel Casseus, Kim Coates, Hugh Dancy, Ron Eldard, Ioan Gruffudd, Tom Guiry, Charlie Hofheimer, Danny Hoch

Story Movie

Black Hawk Down 4K 2001 EXTENDED Ultra HD 2160p

Black Hawk Down 4K - The history of the Earth is the history of wars. Having barely left the blessed African Eden, mankind began its centuries-old battle: for fire, for survival, for territory, food, and women. The more people bred, the stronger the swords were forged, the battles became larger, and the ships went farther and farther to seize, grab, and snatch their fat piece of the desired prey. But Black Hawk Down 4k file format was only in the twentieth century that a new kind of wars appeared, when a kind and strong big brother came to visit the underdeveloped state, like a troubled child, who teaches the naughty man how to live so as not to get over the brazenly exhausted face from the well-fed, full-fledged special forces.

Review 4K Movie

Amazingly solid, meaningful and honest film Black Hawk Down 4k file format about the war. About how and for what they fought at the end of the twentieth century. About how in the world impossible the same for all values ​​and the same justice. The picture, which is available as a simple view, easy perception and linear understanding of the plot surface, and in-depth look at the root. The viewer is shown a story based on real events of the civil war in Somalia in the early nineties, where UN forces intervened to prevent a humanitarian catastrophe, a chronicle of a military operation that went astray due to ridiculous chance and claimed hundreds of lives.

On the screen - the everyday life of US rangers and Delta special forces soldiers serving in the African contingent. Perhaps they do not think much about why and against whom they are fighting, but they are clearly aware of their mission as the business of hiring Uncle Sam. By and large, they don't care - Kuwait, Afghanistan, Vietnam or Somalia. But these days also belong to the black guys, driven by their poverty, drugs and hormones to the brutal state and killing no longer for the sake of some idea, justice or leader, but simply Black Hawk Down UHD because they can not stop.

Black Hawk Down Ultra HD - Behind the screen is the drama of collision of order and chaos, humanism and barbarism, civilization and savagery. The fall of the Black Hawk is not only the fall of a combat helicopter, it is the fall of the very idea to civilize the whole world, to build a welfare society, to teach everyone to work and happily consume material values, living under the flag of the dollar and bourgeois democracy. Since the time of Alexander the Great, the white race has been breaking to conquer the colorful people, bearing the fruits of education, rationalism, division of labor and class inequality in its format. And from the same epoch he encounters fierce, desperate resistance from those peoples who do not want to be civilized, do not want to exchange their gods for drachmas and bucks, to drag from the bible and eat forks. They cherish their monstrous freedom, their bloody idols and original rage: Central Asia, Africa, the North Caucasus. They will prefer to die than to give up their freedom, which they understand quite differently from us.

Mediainfo

movie BDRemux Video
ID : 1
Format : HEVC
Format/Info : High Efficiency Video Coding
Commercial name : HDR10
Format profile : Main 10@L5.1@High
Codec ID : V_MPEGH/ISO/HEVC
Duration : 2 h 31 min
Bit rate : 51.7 Mb/s
Width : 3 840 pixels
Height : 2 160 pixels
Display aspect ratio : 16:9
Frame rate mode : Constant
Frame rate : 23.976 (24000/1001) FPS
Color space : YUV
Chroma subsampling : 4:2:0 (Type 2)
Bit depth : 10 bits
Bits/(Pixel*Frame) : 0.260
Stream size : 54.8 GiB (81%)
Title : Black.Hawk.Down.2001.EXTENDED.2160p.BluRay.REMUX.HEVC.DTS-HD.MA.TrueHD.7.1.Atmos
Language : English
Default : No
Forced : No
Color range : Limited
Color primaries : BT.2020
Transfer characteristics : PQ
Matrix coefficients : BT.2020 non-constant
Mastering display color primaries : Display P3
Mastering display luminance : min: 0.0050 cd/m2, max: 4000 cd/m2
Maximum Content Light Level : 4000 cd/m2
Maximum Frame-Average Light Level : 1391 cd/m2

Audio #1
ID : 2
Format : MLP FBA 16-ch
Format/Info : Meridian Lossless Packing FBA with 16-channel presentation
Commercial name : Dolby TrueHD with Dolby Atmos
Codec ID : A_TRUEHD
Duration : 2 h 31 min
Bit rate mode : Variable
Bit rate : 3 947 kb/s
Maximum bit rate : 6 000 kb/s
Channel(s) : 8 channels
Channel layout : L R C LFE Ls Rs Lb Rb
Sampling rate : 48.0 kHz
Frame rate : 1 200.000 FPS (40 SPF)
Compression mode : Lossless
Stream size : 4.19 GiB (6%)
Title : Black.Hawk.Down.2001.EXTENDED.2160p.BluRay.REMUX.HEVC.DTS-HD.MA.TrueHD.7.1.Atmos
Language : English
Default : Yes
Forced : No
Number of dynamic objects : 11
Bed channel count : 1 channel
Bed channel configuration : LFE

Audio #2
ID : 3
Format : DTS XLL
Format/Info : Digital Theater Systems
Commercial name : DTS-HD Master Audio
Codec ID : A_DTS
Duration : 2 h 31 min
Bit rate mode : Variable
Bit rate : 4 760 kb/s
Channel(s) : 8 channels
Channel layout : C L R LFE Lb Rb Lss Rss
Sampling rate : 48.0 kHz
Frame rate : 93.750 FPS (512 SPF)
Bit depth : 24 bits
Compression mode : Lossless
Stream size : 5.05 GiB (7%)
Title : Black.Hawk.Down.2001.EXTENDED.2160p.BluRay.REMUX.HEVC.DTS-HD.MA.TrueHD.7.1.Atmos
Language : English
Default : No
Forced : No

Audio #3
ID : 4
Format : AC-3
Format/Info : Audio Coding 3
Commercial name : Dolby Digital
Codec ID : A_AC3
Duration : 2 h 31 min
Bit rate mode : Constant
Bit rate : 640 kb/s
Channel(s) : 6 channels
Channel layout : L R C LFE Ls Rs
Sampling rate : 48.0 kHz
Frame rate : 31.250 FPS (1536 SPF)
Bit depth : 16 bits
Compression mode : Lossy
Stream size : 695 MiB (1%)
Title : Black.Hawk.Down.2001.EXTENDED.2160p.BluRay.REMUX.HEVC.DTS-HD.MA.TrueHD.7.1.Atmos
Language : English
Service kind : Complete Main
Default : No
Forced : No

Audio #4
ID : 5
Format : AC-3
Format/Info : Audio Coding 3
Commercial name : Dolby Digital
Codec ID : A_AC3
Duration : 2 h 31 min
Bit rate mode : Constant
Bit rate : 192 kb/s
Channel(s) : 2 channels
Channel layout : L R
Sampling rate : 48.0 kHz
Frame rate : 31.250 FPS (1536 SPF)
Bit depth : 16 bits
Compression mode : Lossy
Stream size : 209 MiB (0%)
Title : Black.Hawk.Down.2001.EXTENDED.2160p.BluRay.REMUX.HEVC.DTS-HD.MA.TrueHD.7.1.Atmos
Language : Czech
Service kind : Complete Main
Default : No
Forced : No

Audio #5
ID : 6
Format : AC-3
Format/Info : Audio Coding 3
Commercial name : Dolby Digital
Codec ID : A_AC3
Duration : 2 h 31 min
Bit rate mode : Constant
Bit rate : 448 kb/s
Channel(s) : 6 channels
Channel layout : L R C LFE Ls Rs
Sampling rate : 48.0 kHz
Frame rate : 31.250 FPS (1536 SPF)
Bit depth : 16 bits
Compression mode : Lossy
Stream size : 487 MiB (1%)
Title : Black.Hawk.Down.2001.EXTENDED.2160p.BluRay.REMUX.HEVC.DTS-HD.MA.TrueHD.7.1.Atmos
Language : French
Service kind : Complete Main
Default : No
Forced : No

Audio #6
ID : 7
Format : AC-3
Format/Info : Audio Coding 3
Commercial name : Dolby Digital
Codec ID : A_AC3
Duration : 2 h 31 min
Bit rate mode : Constant
Bit rate : 448 kb/s
Channel(s) : 6 channels
Channel layout : L R C LFE Ls Rs
Sampling rate : 48.0 kHz
Frame rate : 31.250 FPS (1536 SPF)
Bit depth : 16 bits
Compression mode : Lossy
Stream size : 487 MiB (1%)
Title : Black.Hawk.Down.2001.EXTENDED.2160p.BluRay.REMUX.HEVC.DTS-HD.MA.TrueHD.7.1.Atmos
Language : Italian
Service kind : Complete Main
Default : No
Forced : No

Audio #7
ID : 8
Format : AC-3
Format/Info : Audio Coding 3
Commercial name : Dolby Digital
Codec ID : A_AC3
Duration : 2 h 31 min
Bit rate mode : Constant
Bit rate : 192 kb/s
Channel(s) : 2 channels
Channel layout : L R
Sampling rate : 48.0 kHz
Frame rate : 31.250 FPS (1536 SPF)
Bit depth : 16 bits
Compression mode : Lossy
Stream size : 209 MiB (0%)
Title : Black.Hawk.Down.2001.EXTENDED.2160p.BluRay.REMUX.HEVC.DTS-HD.MA.TrueHD.7.1.Atmos
Language : Polish
Service kind : Complete Main
Default : No
Forced : No

Audio #8
ID : 9
Format : AC-3
Format/Info : Audio Coding 3
Commercial name : Dolby Digital
Codec ID : A_AC3
Duration : 2 h 31 min
Bit rate mode : Constant
Bit rate : 448 kb/s
Channel(s) : 6 channels
Channel layout : L R C LFE Ls Rs
Sampling rate : 48.0 kHz
Frame rate : 31.250 FPS (1536 SPF)
Bit depth : 16 bits
Compression mode : Lossy
Stream size : 487 MiB (1%)
Title : Black.Hawk.Down.2001.EXTENDED.2160p.BluRay.REMUX.HEVC.DTS-HD.MA.TrueHD.7.1.Atmos
Language : Portuguese
Service kind : Complete Main
Default : No
Forced : No

Audio #9
ID : 10
Format : AC-3
Format/Info : Audio Coding 3
Commercial name : Dolby Digital
Codec ID : A_AC3
Duration : 2 h 31 min
Bit rate mode : Constant
Bit rate : 448 kb/s
Channel(s) : 6 channels
Channel layout : L R C LFE Ls Rs
Sampling rate : 48.0 kHz
Frame rate : 31.250 FPS (1536 SPF)
Bit depth : 16 bits
Compression mode : Lossy
Stream size : 487 MiB (1%)
Title : Black.Hawk.Down.2001.EXTENDED.2160p.BluRay.REMUX.HEVC.DTS-HD.MA.TrueHD.7.1.Atmos
Language : Spanish
Service kind : Complete Main
Default : No
Forced : No

Audio #10
ID : 11
Format : AC-3
Format/Info : Audio Coding 3
Commercial name : Dolby Digital
Codec ID : A_AC3
Duration : 2 h 31 min
Bit rate mode : Constant
Bit rate : 192 kb/s
Channel(s) : 2 channels
Channel layout : L R
Sampling rate : 48.0 kHz
Frame rate : 31.250 FPS (1536 SPF)
Bit depth : 16 bits
Compression mode : Lossy
Stream size : 209 MiB (0%)
Title : Black.Hawk.Down.2001.EXTENDED.2160p.BluRay.REMUX.HEVC.DTS-HD.MA.TrueHD.7.1.Atmos
Language : Spanish
Service kind : Complete Main
Default : No
Forced : No

Text #1
ID : 12
Format : UTF-8
Codec ID : S_TEXT/UTF8
Codec ID/Info : UTF-8 Plain Text
Duration : 1 h 50 min
Bit rate : 0 b/s
Count of elements : 12
Stream size : 238 Bytes (0%)
Title : English-FORCED-SRT
Language : English
Default : Yes
Forced : Yes

Text #2
ID : 13
Format : UTF-8
Codec ID : S_TEXT/UTF8
Codec ID/Info : UTF-8 Plain Text
Duration : 2 h 24 min
Bit rate : 50 b/s
Count of elements : 1687
Stream size : 53.5 KiB (0%)
Title : English-SRT
Language : English
Default : No
Forced : No

Text #3
ID : 14
Format : UTF-8
Codec ID : S_TEXT/UTF8
Codec ID/Info : UTF-8 Plain Text
Duration : 2 h 30 min
Bit rate : 53 b/s
Count of elements : 1923
Stream size : 58.5 KiB (0%)
Title : English-SDH-SRT
Language : English
Default : No
Forced : No

Text #4
ID : 15
Format : PGS
Muxing mode : zlib
Codec ID : S_HDMV/PGS
Codec ID/Info : Picture based subtitle format used on BDs/HD-DVDs
Duration : 2 h 30 min
Bit rate : 35.7 kb/s
Count of elements : 3862
Stream size : 38.3 MiB (0%)
Title : English-SDH-PGS
Language : English
Default : No
Forced : No

Text #5
ID : 16
Format : PGS
Muxing mode : zlib
Codec ID : S_HDMV/PGS
Codec ID/Info : Picture based subtitle format used on BDs/HD-DVDs
Duration : 2 h 20 min
Bit rate : 31.5 kb/s
Count of elements : 3226
Stream size : 31.6 MiB (0%)
Title : English-PGS
Language : English
Default : No
Forced : No

Text #6
ID : 17
Format : PGS
Muxing mode : zlib
Codec ID : S_HDMV/PGS
Codec ID/Info : Picture based subtitle format used on BDs/HD-DVDs
Duration : 2 h 26 min
Bit rate : 16.2 kb/s
Count of elements : 3104
Stream size : 16.9 MiB (0%)
Title : Arabic-PGS
Language : Arabic
Default : No
Forced : No

Text #7
ID : 18
Format : PGS
Muxing mode : zlib
Codec ID : S_HDMV/PGS
Codec ID/Info : Picture based subtitle format used on BDs/HD-DVDs
Duration : 2 h 26 min
Bit rate : 28.8 kb/s
Count of elements : 3104
Stream size : 30.1 MiB (0%)
Title : Bulgarian-PGS
Language : Bulgarian
Default : No
Forced : No

Text #8
ID : 19
Format : PGS
Muxing mode : zlib
Codec ID : S_HDMV/PGS
Codec ID/Info : Picture based subtitle format used on BDs/HD-DVDs
Duration : 2 h 26 min
Bit rate : 20.2 kb/s
Count of elements : 3093
Stream size : 21.1 MiB (0%)
Title : Chinese-PGS
Language : Chinese
Default : No
Forced : No

Text #9
ID : 20
Format : PGS
Muxing mode : zlib
Codec ID : S_HDMV/PGS
Codec ID/Info : Picture based subtitle format used on BDs/HD-DVDs
Duration : 2 h 26 min
Bit rate : 26.1 kb/s
Count of elements : 2899
Stream size : 27.3 MiB (0%)
Title : Croatian-PGS
Language : Croatian
Default : No
Forced : No

Text #10
ID : 21
Format : PGS
Muxing mode : zlib
Codec ID : S_HDMV/PGS
Codec ID/Info : Picture based subtitle format used on BDs/HD-DVDs
Duration : 2 h 26 min
Bit rate : 27.2 kb/s
Count of elements : 3074
Stream size : 28.4 MiB (0%)
Title : Czech-PGS
Language : Czech
Default : No
Forced : No

Text #11
ID : 22
Format : PGS
Muxing mode : zlib
Codec ID : S_HDMV/PGS
Codec ID/Info : Picture based subtitle format used on BDs/HD-DVDs
Duration : 2 h 26 min
Bit rate : 28.8 kb/s
Count of elements : 3085
Stream size : 30.1 MiB (0%)
Title : Danish-PGS
Language : Danish
Default : No
Forced : No

Text #12
ID : 23
Format : PGS
Muxing mode : zlib
Codec ID : S_HDMV/PGS
Codec ID/Info : Picture based subtitle format used on BDs/HD-DVDs
Duration : 2 h 26 min
Bit rate : 30.1 kb/s
Count of elements : 3050
Stream size : 31.4 MiB (0%)
Title : Dutch-PGS
Language : Dutch
Default : No
Forced : No

Text #13
ID : 24
Format : PGS
Muxing mode : zlib
Codec ID : S_HDMV/PGS
Codec ID/Info : Picture based subtitle format used on BDs/HD-DVDs
Duration : 2 h 26 min
Bit rate : 29.2 kb/s
Count of elements : 3027
Stream size : 30.5 MiB (0%)
Title : Finnish-PGS
Language : Finnish
Default : No
Forced : No

Text #14
ID : 25
Format : PGS
Muxing mode : zlib
Codec ID : S_HDMV/PGS
Codec ID/Info : Picture based subtitle format used on BDs/HD-DVDs
Duration : 2 h 30 min
Bit rate : 23.0 kb/s
Count of elements : 2848
Stream size : 24.7 MiB (0%)
Title : French-PGS
Language : French
Default : No
Forced : No

Text #15
ID : 26
Format : PGS
Muxing mode : zlib
Codec ID : S_HDMV/PGS
Codec ID/Info : Picture based subtitle format used on BDs/HD-DVDs
Duration : 2 h 26 min
Bit rate : 30.5 kb/s
Count of elements : 3062
Stream size : 31.8 MiB (0%)
Title : Greek-PGS
Language : Greek
Default : No
Forced : No

Text #16
ID : 27
Format : PGS
Muxing mode : zlib
Codec ID : S_HDMV/PGS
Codec ID/Info : Picture based subtitle format used on BDs/HD-DVDs
Duration : 2 h 26 min
Bit rate : 22.3 kb/s
Count of elements : 3108
Stream size : 23.3 MiB (0%)
Title : Hindi-PGS
Language : Hindi
Default : No
Forced : No

Text #17
ID : 28
Format : PGS
Muxing mode : zlib
Codec ID : S_HDMV/PGS
Codec ID/Info : Picture based subtitle format used on BDs/HD-DVDs
Duration : 2 h 26 min
Bit rate : 30.2 kb/s
Count of elements : 3140
Stream size : 31.5 MiB (0%)
Title : Hungarian-PGS
Language : Hungarian
Default : No
Forced : No

Text #18
ID : 29
Format : PGS
Muxing mode : zlib
Codec ID : S_HDMV/PGS
Codec ID/Info : Picture based subtitle format used on BDs/HD-DVDs
Duration : 2 h 26 min
Bit rate : 28.2 kb/s
Count of elements : 3049
Stream size : 29.4 MiB (0%)
Title : Italian-PGS
Language : Italian
Default : No
Forced : No

Text #19
ID : 30
Format : PGS
Muxing mode : zlib
Codec ID : S_HDMV/PGS
Codec ID/Info : Picture based subtitle format used on BDs/HD-DVDs
Duration : 2 h 26 min
Bit rate : 14.9 kb/s
Count of elements : 3103
Stream size : 15.6 MiB (0%)
Title : Korean-PGS
Language : Korean
Default : No
Forced : No

Text #20
ID : 31
Format : PGS
Muxing mode : zlib
Codec ID : S_HDMV/PGS
Codec ID/Info : Picture based subtitle format used on BDs/HD-DVDs
Duration : 2 h 26 min
Bit rate : 27.6 kb/s
Count of elements : 3094
Stream size : 28.8 MiB (0%)
Title : Norwegian-PGS
Language : Norwegian
Default : No
Forced : No

Text #21
ID : 32
Format : PGS
Muxing mode : zlib
Codec ID : S_HDMV/PGS
Codec ID/Info : Picture based subtitle format used on BDs/HD-DVDs
Duration : 2 h 30 min
Bit rate : 28.4 kb/s
Count of elements : 3100
Stream size : 30.6 MiB (0%)
Title : Polish-PGS
Language : Polish
Default : No
Forced : No

Text #22
ID : 33
Format : PGS
Muxing mode : zlib
Codec ID : S_HDMV/PGS
Codec ID/Info : Picture based subtitle format used on BDs/HD-DVDs
Duration : 2 h 26 min
Bit rate : 28.1 kb/s
Count of elements : 2698
Stream size : 29.4 MiB (0%)
Title : Portuguese-PGS
Language : Portuguese
Default : No
Forced : No

Text #23
ID : 34
Format : PGS
Muxing mode : zlib
Codec ID : S_HDMV/PGS
Codec ID/Info : Picture based subtitle format used on BDs/HD-DVDs
Duration : 2 h 26 min
Bit rate : 28.6 kb/s
Count of elements : 3176
Stream size : 29.9 MiB (0%)
Title : Romanian-PGS
Language : Romanian
Default : No
Forced : No

Text #24
ID : 35
Format : PGS
Muxing mode : zlib
Codec ID : S_HDMV/PGS
Codec ID/Info : Picture based subtitle format used on BDs/HD-DVDs
Duration : 2 h 26 min
Bit rate : 28.4 kb/s
Count of elements : 3088
Stream size : 29.7 MiB (0%)
Title : Russian-PGS
Language : Russian
Default : No
Forced : No

Text #25
ID : 36
Format : PGS
Muxing mode : zlib
Codec ID : S_HDMV/PGS
Codec ID/Info : Picture based subtitle format used on BDs/HD-DVDs
Duration : 2 h 30 min
Bit rate : 23.1 kb/s
Count of elements : 2891
Stream size : 24.9 MiB (0%)
Title : Slovenian-PGS
Language : Slovenian
Default : No
Forced : No

Text #26
ID : 37
Format : PGS
Muxing mode : zlib
Codec ID : S_HDMV/PGS
Codec ID/Info : Picture based subtitle format used on BDs/HD-DVDs
Duration : 2 h 26 min
Bit rate : 31.2 kb/s
Count of elements : 3270
Stream size : 32.6 MiB (0%)
Title : Spanish-PGS
Language : Spanish
Default : No
Forced : No

Text #27
ID : 38
Format : PGS
Muxing mode : zlib
Codec ID : S_HDMV/PGS
Codec ID/Info : Picture based subtitle format used on BDs/HD-DVDs
Duration : 2 h 26 min
Bit rate : 29.8 kb/s
Count of elements : 3117
Stream size : 31.1 MiB (0%)
Title : Spanish-PGS
Language : Spanish
Default : No
Forced : No

Text #28
ID : 39
Format : PGS
Muxing mode : zlib
Codec ID : S_HDMV/PGS
Codec ID/Info : Picture based subtitle format used on BDs/HD-DVDs
Duration : 2 h 30 min
Bit rate : 28.4 kb/s
Count of elements : 3115
Stream size : 30.6 MiB (0%)
Title : Swedish-PGS
Language : Swedish
Default : No
Forced : No

Text #29
ID : 40
Format : PGS
Muxing mode : zlib
Codec ID : S_HDMV/PGS
Codec ID/Info : Picture based subtitle format used on BDs/HD-DVDs
Duration : 2 h 26 min
Bit rate : 19.3 kb/s
Count of elements : 3089
Stream size : 20.1 MiB (0%)
Title : Thai-PGS
Language : Thai
Default : No
Forced : No

Text #30
ID : 41
Format : PGS
Muxing mode : zlib
Codec ID : S_HDMV/PGS
Codec ID/Info : Picture based subtitle format used on BDs/HD-DVDs
Duration : 2 h 26 min
Bit rate : 29.1 kb/s
Count of elements : 3076
Stream size : 30.4 MiB (0%)
Title : Turkish-PGS
Language : Turkish
Default : No
Forced : No

Menu
00:00:00.000 : en:Chapter 01
00:21:48.682 : en:Chapter 02
00:31:39.939 : en:Chapter 03
00:39:19.940 : en:Chapter 04
00:43:25.519 : en:Chapter 05
00:54:04.074 : en:Chapter 06
01:02:18.317 : en:Chapter 07
01:10:22.051 : en:Chapter 08
01:28:36.811 : en:Chapter 09
01:30:26.671 : en:Chapter 10
01:43:36.376 : en:Chapter 11
01:48:49.648 : en:Chapter 12
02:02:18.873 : en:Chapter 13
02:06:20.489 : en:Chapter 14
02:11:28.630 : en:Chapter 15
02:20:13.029 : en:Chapter 16
movie BDRip Video
ID : 1
Format : HEVC
Format/Info : High Efficiency Video Coding
Commercial name : HDR10
Format profile : Main 10@L5.1@High
Codec ID : V_MPEGH/ISO/HEVC
Duration : 2 h 31 min
Bit rate : 37.2 Mb/s
Width : 3 840 pixels
Height : 1 600 pixels
Display aspect ratio : 2.40:1
Frame rate mode : Constant
Frame rate : 23.976 (24000/1001) FPS
Color space : YUV
Chroma subsampling : 4:2:0 (Type 2)
Bit depth : 10 bits
Bits/(Pixel*Frame) : 0.252
Stream size : 39.4 GiB (88%)
Writing library : x265 3.0_Au+14-c7e5878bdd31:[Windows][GCC 6.3.0][64 bit] 10bit
Encoding settings : cpuid=1111039 / frame-threads=4 / numa-pools=20 / wpp / no-pmode / no-pme / no-psnr / no-ssim / log-level=2 / input-csp=1 / input-res=3840x1600 / interlace=0 / total-frames=218436 / level-idc=51 / high-tier=1 / uhd-bd=0 / ref=4 / no-allow-non-conformance / repeat-headers / annexb / aud / hrd / info / hash=0 / no-temporal-layers / no-open-gop / min-keyint=1 / keyint=24 / gop-lookahead=0 / bframes=4 / b-adapt=2 / b-pyramid / bframe-bias=0 / rc-lookahead=25 / lookahead-slices=4 / scenecut=40 / radl=0 / no-splice / no-intra-refresh / ctu=64 / min-cu-size=8 / rect / no-amp / max-tu-size=32 / tu-inter-depth=1 / tu-intra-depth=1 / limit-tu=0 / rdoq-level=2 / dynamic-rd=0.00 / no-ssim-rd / signhide / no-tskip / nr-intra=0 / nr-inter=0 / no-constrained-intra / no-strong-intra-smoothing / max-merge=3 / limit-refs=3 / limit-modes / me=3 / subme=3 / merange=57 / temporal-mvp / weightp / no-weightb / no-analyze-src-pics / deblock=-3:-3 / no-sao / no-sao-non-deblock / rd=4 / no-early-skip / rskip / no-fast-intra / no-tskip-fast / no-cu-lossless / no-b-intra / no-splitrd-skip / rdpenalty=0 / psy-rd=2.00 / psy-rdoq=1.00 / no-rd-refine / no-lossless / cbqpoffs=0 / crqpoffs=0 / rc=crf / crf=19.0 / qcomp=0.60 / qpstep=4 / stats-write=0 / stats-read=0 / vbv-maxrate=160000 / vbv-bufsize=160000 / vbv-init=0.9 / crf-max=0.0 / crf-min=0.0 / ipratio=1.40 / pbratio=1.30 / aq-mode=2 / aq-strength=1.00 / cutree / zone-count=0 / no-strict-cbr / qg-size=32 / no-rc-grain / qpmax=69 / qpmin=0 / no-const-vbv / sar=1 / overscan=0 / videoformat=5 / range=0 / colorprim=9 / transfer=16 / colormatrix=9 / chromaloc=1 / chromaloc-top=2 / chromaloc-bottom=2 / display-window=0 / master-display=G(13250,34500)B(7500,3000)R(34000,16000)WP(15635,16450)L(40000000,50) / max-cll=4000,1391 / min-luma=0 / max-luma=1023 / log2-max-poc-lsb=8 / vui-timing-info / vui-hrd-info / slices=1 / no-opt-qp-pps / no-opt-ref-list-length-pps / no-multi-pass-opt-rps / scenecut-bias=0.05 / no-opt-cu-delta-qp / no-aq-motion / hdr / hdr-opt / no-dhdr10-opt / no-idr-recovery-sei / analysis-reuse-level=5 / scale-factor=0 / refine-intra=0 / refine-inter=0 / refine-mv=0 / refine-ctu-distortion=0 / no-limit-sao / ctu-info=0 / no-lowpass-dct / refine-analysis-type=0 / copy-pic=1 / max-ausize-factor=1.0 / no-dynamic-refine / no-single-sei / no-hevc-aq / no-svt / qp-adaptation-range=1.00
Default : Yes
Forced : No
Color range : Limited
Color primaries : BT.2020
Transfer characteristics : PQ
Matrix coefficients : BT.2020 non-constant
Mastering display color primaries : Display P3
Mastering display luminance : min: 0.0050 cd/m2, max: 4000 cd/m2
Maximum Content Light Level : 4000 cd/m2
Maximum Frame-Average Light Level : 1391 cd/m2

Audio #1
ID : 2
Format : MLP FBA 16-ch
Format/Info : Meridian Lossless Packing FBA with 16-channel presentation
Commercial name : Dolby TrueHD with Dolby Atmos
Codec ID : A_TRUEHD
Duration : 2 h 31 min
Bit rate mode : Variable
Bit rate : 3 947 kb/s
Maximum bit rate : 6 000 kb/s
Channel(s) : 8 channels
Channel layout : L R C LFE Ls Rs Lb Rb
Sampling rate : 48.0 kHz
Frame rate : 1 200.000 FPS (40 SPF)
Compression mode : Lossless
Stream size : 4.19 GiB (9%)
Language : English
Default : Yes
Forced : No
Number of dynamic objects : 11
Bed channel count : 1 channel
Bed channel configuration : LFE

Audio #2
ID : 3
Format : AC-3
Format/Info : Audio Coding 3
Commercial name : Dolby Digital
Codec ID : A_AC3
Duration : 2 h 31 min
Bit rate mode : Constant
Bit rate : 640 kb/s
Channel(s) : 6 channels
Channel layout : L R C LFE Ls Rs
Sampling rate : 48.0 kHz
Frame rate : 31.250 FPS (1536 SPF)
Bit depth : 16 bits
Compression mode : Lossy
Stream size : 695 MiB (2%)
Language : English
Service kind : Complete Main
Default : No
Forced : No

Text #1
ID : 4
Format : UTF-8
Codec ID : S_TEXT/UTF8
Codec ID/Info : UTF-8 Plain Text
Duration : 1 h 50 min
Bit rate : 0 b/s
Count of elements : 12
Stream size : 238 Bytes (0%)
Title : English Forced
Language : English
Default : Yes
Forced : Yes

Text #2
ID : 5
Format : PGS
Muxing mode : zlib
Codec ID : S_HDMV/PGS
Codec ID/Info : Picture based subtitle format used on BDs/HD-DVDs
Duration : 2 h 30 min
Bit rate : 35.7 kb/s
Count of elements : 3862
Stream size : 38.3 MiB (0%)
Title : English SDH
Language : English
Default : No
Forced : No

Text #3
ID : 6
Format : PGS
Muxing mode : zlib
Codec ID : S_HDMV/PGS
Codec ID/Info : Picture based subtitle format used on BDs/HD-DVDs
Duration : 2 h 20 min
Bit rate : 31.5 kb/s
Count of elements : 3226
Stream size : 31.6 MiB (0%)
Language : English
Default : No
Forced : No

Text #4
ID : 7
Format : PGS
Muxing mode : zlib
Codec ID : S_HDMV/PGS
Codec ID/Info : Picture based subtitle format used on BDs/HD-DVDs
Duration : 2 h 26 min
Bit rate : 16.2 kb/s
Count of elements : 3104
Stream size : 16.9 MiB (0%)
Language : Arabic
Default : No
Forced : No

Text #5
ID : 8
Format : PGS
Muxing mode : zlib
Codec ID : S_HDMV/PGS
Codec ID/Info : Picture based subtitle format used on BDs/HD-DVDs
Duration : 2 h 26 min
Bit rate : 28.8 kb/s
Count of elements : 3104
Stream size : 30.1 MiB (0%)
Language : Bulgarian
Default : No
Forced : No

Text #6
ID : 9
Format : PGS
Muxing mode : zlib
Codec ID : S_HDMV/PGS
Codec ID/Info : Picture based subtitle format used on BDs/HD-DVDs
Duration : 2 h 26 min
Bit rate : 20.2 kb/s
Count of elements : 3093
Stream size : 21.1 MiB (0%)
Language : Chinese
Default : No
Forced : No

Text #7
ID : 10
Format : PGS
Muxing mode : zlib
Codec ID : S_HDMV/PGS
Codec ID/Info : Picture based subtitle format used on BDs/HD-DVDs
Duration : 2 h 26 min
Bit rate : 26.1 kb/s
Count of elements : 2899
Stream size : 27.3 MiB (0%)
Language : Croatian
Default : No
Forced : No

Text #8
ID : 11
Format : PGS
Muxing mode : zlib
Codec ID : S_HDMV/PGS
Codec ID/Info : Picture based subtitle format used on BDs/HD-DVDs
Duration : 2 h 26 min
Bit rate : 27.2 kb/s
Count of elements : 3074
Stream size : 28.4 MiB (0%)
Language : Czech
Default : No
Forced : No

Text #9
ID : 12
Format : PGS
Muxing mode : zlib
Codec ID : S_HDMV/PGS
Codec ID/Info : Picture based subtitle format used on BDs/HD-DVDs
Duration : 2 h 26 min
Bit rate : 28.8 kb/s
Count of elements : 3085
Stream size : 30.1 MiB (0%)
Language : Danish
Default : No
Forced : No

Text #10
ID : 13
Format : PGS
Muxing mode : zlib
Codec ID : S_HDMV/PGS
Codec ID/Info : Picture based subtitle format used on BDs/HD-DVDs
Duration : 2 h 26 min
Bit rate : 30.1 kb/s
Count of elements : 3050
Stream size : 31.4 MiB (0%)
Language : Dutch
Default : No
Forced : No

Text #11
ID : 14
Format : PGS
Muxing mode : zlib
Codec ID : S_HDMV/PGS
Codec ID/Info : Picture based subtitle format used on BDs/HD-DVDs
Duration : 2 h 26 min
Bit rate : 29.2 kb/s
Count of elements : 3027
Stream size : 30.5 MiB (0%)
Language : Finnish
Default : No
Forced : No

Text #12
ID : 15
Format : PGS
Muxing mode : zlib
Codec ID : S_HDMV/PGS
Codec ID/Info : Picture based subtitle format used on BDs/HD-DVDs
Duration : 2 h 30 min
Bit rate : 23.0 kb/s
Count of elements : 2848
Stream size : 24.7 MiB (0%)
Language : French
Default : No
Forced : No

Text #13
ID : 16
Format : PGS
Muxing mode : zlib
Codec ID : S_HDMV/PGS
Codec ID/Info : Picture based subtitle format used on BDs/HD-DVDs
Duration : 2 h 26 min
Bit rate : 30.5 kb/s
Count of elements : 3062
Stream size : 31.8 MiB (0%)
Language : Greek
Default : No
Forced : No

Text #14
ID : 17
Format : PGS
Muxing mode : zlib
Codec ID : S_HDMV/PGS
Codec ID/Info : Picture based subtitle format used on BDs/HD-DVDs
Duration : 2 h 26 min
Bit rate : 22.3 kb/s
Count of elements : 3108
Stream size : 23.3 MiB (0%)
Language : Hindi
Default : No
Forced : No

Text #15
ID : 18
Format : PGS
Muxing mode : zlib
Codec ID : S_HDMV/PGS
Codec ID/Info : Picture based subtitle format used on BDs/HD-DVDs
Duration : 2 h 26 min
Bit rate : 30.2 kb/s
Count of elements : 3140
Stream size : 31.5 MiB (0%)
Language : Hungarian
Default : No
Forced : No

Text #16
ID : 19
Format : PGS
Muxing mode : zlib
Codec ID : S_HDMV/PGS
Codec ID/Info : Picture based subtitle format used on BDs/HD-DVDs
Duration : 2 h 26 min
Bit rate : 28.2 kb/s
Count of elements : 3049
Stream size : 29.4 MiB (0%)
Language : Italian
Default : No
Forced : No

Text #17
ID : 20
Format : PGS
Muxing mode : zlib
Codec ID : S_HDMV/PGS
Codec ID/Info : Picture based subtitle format used on BDs/HD-DVDs
Duration : 2 h 26 min
Bit rate : 14.9 kb/s
Count of elements : 3103
Stream size : 15.6 MiB (0%)
Language : Korean
Default : No
Forced : No

Text #18
ID : 21
Format : PGS
Muxing mode : zlib
Codec ID : S_HDMV/PGS
Codec ID/Info : Picture based subtitle format used on BDs/HD-DVDs
Duration : 2 h 26 min
Bit rate : 27.6 kb/s
Count of elements : 3094
Stream size : 28.8 MiB (0%)
Language : Norwegian
Default : No
Forced : No

Text #19
ID : 22
Format : PGS
Muxing mode : zlib
Codec ID : S_HDMV/PGS
Codec ID/Info : Picture based subtitle format used on BDs/HD-DVDs
Duration : 2 h 30 min
Bit rate : 28.4 kb/s
Count of elements : 3100
Stream size : 30.6 MiB (0%)
Language : Polish
Default : No
Forced : No

Text #20
ID : 23
Format : PGS
Muxing mode : zlib
Codec ID : S_HDMV/PGS
Codec ID/Info : Picture based subtitle format used on BDs/HD-DVDs
Duration : 2 h 26 min
Bit rate : 28.1 kb/s
Count of elements : 2698
Stream size : 29.4 MiB (0%)
Language : Portuguese
Default : No
Forced : No

Text #21
ID : 24
Format : PGS
Muxing mode : zlib
Codec ID : S_HDMV/PGS
Codec ID/Info : Picture based subtitle format used on BDs/HD-DVDs
Duration : 2 h 26 min
Bit rate : 28.6 kb/s
Count of elements : 3176
Stream size : 29.9 MiB (0%)
Language : Romanian
Default : No
Forced : No

Text #22
ID : 25
Format : PGS
Muxing mode : zlib
Codec ID : S_HDMV/PGS
Codec ID/Info : Picture based subtitle format used on BDs/HD-DVDs
Duration : 2 h 26 min
Bit rate : 28.4 kb/s
Count of elements : 3088
Stream size : 29.7 MiB (0%)
Language : Russian
Default : No
Forced : No

Text #23
ID : 26
Format : PGS
Muxing mode : zlib
Codec ID : S_HDMV/PGS
Codec ID/Info : Picture based subtitle format used on BDs/HD-DVDs
Duration : 2 h 30 min
Bit rate : 23.1 kb/s
Count of elements : 2891
Stream size : 24.9 MiB (0%)
Language : Slovenian
Default : No
Forced : No

Text #24
ID : 27
Format : PGS
Muxing mode : zlib
Codec ID : S_HDMV/PGS
Codec ID/Info : Picture based subtitle format used on BDs/HD-DVDs
Duration : 2 h 26 min
Bit rate : 31.2 kb/s
Count of elements : 3270
Stream size : 32.6 MiB (0%)
Language : Spanish
Default : No
Forced : No

Text #25
ID : 28
Format : PGS
Muxing mode : zlib
Codec ID : S_HDMV/PGS
Codec ID/Info : Picture based subtitle format used on BDs/HD-DVDs
Duration : 2 h 26 min
Bit rate : 29.8 kb/s
Count of elements : 3117
Stream size : 31.1 MiB (0%)
Language : Spanish
Default : No
Forced : No

Text #26
ID : 29
Format : PGS
Muxing mode : zlib
Codec ID : S_HDMV/PGS
Codec ID/Info : Picture based subtitle format used on BDs/HD-DVDs
Duration : 2 h 30 min
Bit rate : 28.4 kb/s
Count of elements : 3115
Stream size : 30.6 MiB (0%)
Language : Swedish
Default : No
Forced : No

Text #27
ID : 30
Format : PGS
Muxing mode : zlib
Codec ID : S_HDMV/PGS
Codec ID/Info : Picture based subtitle format used on BDs/HD-DVDs
Duration : 2 h 26 min
Bit rate : 19.3 kb/s
Count of elements : 3089
Stream size : 20.1 MiB (0%)
Language : Thai
Default : No
Forced : No

Text #28
ID : 31
Format : PGS
Muxing mode : zlib
Codec ID : S_HDMV/PGS
Codec ID/Info : Picture based subtitle format used on BDs/HD-DVDs
Duration : 2 h 26 min
Bit rate : 29.1 kb/s
Count of elements : 3076
Stream size : 30.4 MiB (0%)
Language : Turkish
Default : No
Forced : No

Text #29
ID : 32
Format : PGS
Muxing mode : zlib
Codec ID : S_HDMV/PGS
Codec ID/Info : Picture based subtitle format used on BDs/HD-DVDs
Duration : 2 h 30 min
Bit rate : 3 421 b/s
Count of elements : 382
Stream size : 3.68 MiB (0%)
Language : French
Default : No
Forced : No

Menu
00:00:00.000 : :Chapter 01
00:21:48.682 : :Chapter 02
00:31:40.315 : :Chapter 03
00:39:19.941 : :Chapter 04
00:43:25.519 : :Chapter 05
00:54:04.074 : :Chapter 06
01:02:18.359 : :Chapter 07
01:10:22.051 : :Chapter 08
01:28:36.811 : :Chapter 09
01:30:26.295 : :Chapter 10
01:43:36.043 : :Chapter 11
01:48:49.773 : :Chapter 12
02:02:18.914 : :Chapter 13
02:06:20.864 : :Chapter 14
02:11:28.630 : :Chapter 15
02:20:13.363 : :Chapter 16

Download

download 4k hdr movies download 4k hdr movies

Watch a movie trailer - Black Hawk Down 4K 2001 EXTENDED Ultra HD 2160p
Comments and Feedback
Add your comment:
Your name:
Your E-Mail:
Code:
reload, if the code cannot be seen
Enter code: