Select movie Search movie Close search My Account

Interstellar 4K 2014 Ultra HD 2160p

Interstellar 4K 2014 Ultra HD 2160p
BDRemux / BDRip
Country: USA | UK | Canada | Iceland
Time: 2h 49min
IMDB: 8.6
Director: Christopher Nolan
Actors: Ellen Burstyn, Matthew McConaughey, Mackenzie Foy, John Lithgow, Timothe Chalamet, David Oyelowo, Collette Wolfe, Francis X. McCarthy, Bill Irwin, Anne Hathaway, Andrew Borba, Wes Bentley, William Devane, Michael Caine, David Gyasi...

Story Movie

Interstellar 4K 2014 Ultra HD 2160p
The film 4K movie 2160p for download, narrates about a group of researchers who use a newly discovered tunnel in space, a wormhole, to go beyond the familiar cosmic boundaries and conquer grandiose distances during their interstellar 4K journey.

Review 4K Movie

The earth is dying. Wheat crops are destroyed by diseases, farmers who grow corn, pester dust storms, and the states hardly keep afloat. They no longer have the resources either on the army, on social programs, or on the support of science. Humanity can survive only if it immediately begins to explore the distant cosmos. And such an opportunity is given to him when telescopes find in the vicinity of Saturn a cosmic "wormhole" that opens a passage to the neighboring Galaxy. Probes detect within the limits of technical attainability several planets, theoretically capable of sustaining life, and expeditions are sent there for closer study of new worlds. A few years later, the second phase of the intelligence program begins - an assessment of the data collected and a final decision. For this, a new expedition is sent to space under the command of the former Cooper pilot (Matthew McConaughey) - the last cosmonaut prepared at a time when such missions did not yet have to be organized secretly from taxpayers.

"Interstellar 4K" was born as a project designed for Steven Spielberg as a director. Christopher Nolan became interested in him when his brother Jonathan was hired as a screenwriter
Why do we love the director Christopher Nolan and his brother-script writer Jonathan? For the fact that they manage to create simultaneously high-brow and emotional, as well as deep and exciting projects like "Beginning", "Remember ...", "In sight" and, to a lesser extent, "Dark Knight". How many creators, even recognized and distinguished, are sacrificed for one another! And how often the "clever" fantastic film in 4K turns out to be cold and almost lifeless, and the warm and emotional cinema, on the contrary, requires the viewers to turn off their head, because they will not need it during the viewing. The brothers Nolan also manage to sneak over and over again between Scylla and Charybdis. And they stand out so much against the general background that they have almost no competitors.

The space epic Interstellar is the next and most ambitious demonstration of Nolan's superiority to date. "Dancing" from the most important expedition in the history of the future of mankind, the film embraces myriads of highbrowed topics - from the nuances of quantum physics to approaches to designing robots and from strategies for saving humanity to a variety of conditions on planets revolving around other stars. However, this is by no means a tedious lecture, in the course of which the characters-mannequins set forth author's thoughts to each other (and, in fact, to the audience).

Of course, in the Ultra HD movie there are still moments when the characters stand in a pose and explain to the public what is going on, because hardcore science fiction can not be built otherwise. But Interstellar is basically not a scientific but a human story about a father who flew to save the world, although most of all he wanted to be with his children, and about his children who, because of the "twin paradox" (under certain conditions the time for the cosmonaut flows more slowly than for those who stayed on the Earth) have time to grow up and become parents themselves while their father spends several years of his time in wandering around the universe.

"Interstellar 4K Ultra HD" is the first collaboration between Christopher Nolan and the Dutch production director Hoyt Van Hoytem ("Let me in," "She"). Nolan completed his cooperation with his permanent operator, Wally Fister, when he began his own directorial career with the production of "Excellence"
This is a piercing, soul-taking narrative that only benefits from the selfishness inherent in present-day Americans. The Soviet cosmonauts and their families, brought up by the war, were ready to put up with personal losses for the sake of the country and humanity. For the heroes of Interstellar, this sacrifice is a novelty, and this makes them more vulnerable, more humane, and therefore more dramatically interesting characters than if they were "our people" in their place. Although, of course, it's a pity that the Nolans for the whole film never mentioned Russia and the Russian space program and did not include any non-Americans in action. Patriotism is patriotism, but the salvation of mankind can not be a nationalistic project, and formerly Western cosmic epics of such a scale have cut out a spot for "ours".

Another minus of the picture is the actual futility of the cosmonaut Amelia Brand flying with Cooper. The heroine Anne Hathaway needs a script only to discuss Cooper's ideas and sometimes fall into the trap. When you need to save the situation, Cooper does it alone or with the help of ship robots (by the way, their design is unique - it has no analogues either in life or on the screen, and this is an amazing find of the tape makers!).

In the framework of the film, this is due to the fact that Amelia is an expert on the creation of alien colonies, and before that, the hands do not reach the heroes in the course of the action. But this does not excuse the Nolans who brought the woman.

Mediainfo

movie BDRemux Video
ID : 1
Format : HEVC
Format/Info : High Efficiency Video Coding
Format profile : Main 10@L5.1@High
Codec ID : V_MPEGH/ISO/HEVC
Duration : 2 h 49 min
Bit rate : 51.7 Mb/s
Width : 3 840 pixels
Height : 2 160 pixels
Display aspect ratio : 16:9
Frame rate mode : Constant
Frame rate : 23.976 (24000/1001) FPS
Color space : YUV
Chroma subsampling : 4:2:0 (Type 2)
Bit depth : 10 bits
Bits/(Pixel*Frame) : 0.260
Stream size : 61.0 GiB (78%)
Title : Interstellar.2014.2160p.BluRay.REMUX.HEVC.DTS-HD.MA.5.1
Writing library : ATEME Titan File 3.8.3 (4.8.3.0)
Default : Yes
Forced : No
Color range : Limited
Color primaries : BT.2020
Transfer characteristics : PQ
Matrix coefficients : BT.2020 non-constant
Mastering display color primaries : Display P3
Mastering display luminance : min: 0.0050 cd/m2, max: 4000 cd/m2
Maximum Content Light Level : 1242 cd/m2
Maximum Frame-Average Light Level : 436 cd/m2

Audio #1
ID : 2
Format : DTS
Format/Info : Digital Theater Systems
Format profile : MA / Core
Codec ID : A_DTS
Duration : 2 h 49 min
Bit rate mode : Variable / Constant
Bit rate : 3 686 kb/s / 1 509 kb/s
Channel(s) : 6 channels
Channel positions : Front: L C R, Side: L R, LFE
Sampling rate : 48.0 kHz
Frame rate : 93.750 FPS (512 SPF)
Bit depth : 24 bits
Compression mode : Lossless / Lossy
Stream size : 4.35 GiB (6%)
Title : Interstellar.2014.2160p.BluRay.REMUX.HEVC.DTS-HD.MA.5.1
Language : English
Default : Yes
Forced : No

Audio #2
ID : 3
Format : AC-3
Format/Info : Audio Coding 3
Codec ID : A_AC3
Duration : 2 h 49 min
Bit rate mode : Constant
Bit rate : 640 kb/s
Channel(s) : 6 channels
Channel positions : Front: L C R, Side: L R, LFE
Sampling rate : 48.0 kHz
Frame rate : 31.250 FPS (1536 SPF)
Bit depth : 16 bits
Compression mode : Lossy
Stream size : 774 MiB (1%)
Title : Interstellar.2014.2160p.BluRay.REMUX.HEVC.DTS-HD.MA.5.1
Language : Japanese
Service kind : Complete Main
Default : No
Forced : No

Audio #3
ID : 4
Format : AC-3
Format/Info : Audio Coding 3
Codec ID : A_AC3
Duration : 2 h 49 min
Bit rate mode : Constant
Bit rate : 640 kb/s
Channel(s) : 6 channels
Channel positions : Front: L C R, Side: L R, LFE
Sampling rate : 48.0 kHz
Frame rate : 31.250 FPS (1536 SPF)
Bit depth : 16 bits
Compression mode : Lossy
Stream size : 774 MiB (1%)
Title : Interstellar.2014.2160p.BluRay.REMUX.HEVC.DTS-HD.MA.5.1
Language : English
Service kind : Complete Main
Default : No
Forced : No

Audio #4
ID : 5
Format : DTS
Format/Info : Digital Theater Systems
Format profile : MA / Core
Codec ID : A_DTS
Duration : 2 h 49 min
Bit rate mode : Variable / Constant
Bit rate : 2 225 kb/s / 1 509 kb/s
Channel(s) : 6 channels
Channel positions : Front: L C R, Side: L R, LFE
Sampling rate : 48.0 kHz
Frame rate : 93.750 FPS (512 SPF)
Bit depth : 16 bits
Compression mode : Lossless / Lossy
Stream size : 2.63 GiB (3%)
Title : Interstellar.2014.2160p.BluRay.REMUX.HEVC.DTS-HD.MA.5.1
Language : French
Default : No
Forced : No

Audio #5
ID : 6
Format : DTS
Format/Info : Digital Theater Systems
Format profile : MA / Core
Codec ID : A_DTS
Duration : 2 h 49 min
Bit rate mode : Variable / Constant
Bit rate : 2 205 kb/s / 1 509 kb/s
Channel(s) : 6 channels
Channel positions : Front: L C R, Side: L R, LFE
Sampling rate : 48.0 kHz
Frame rate : 93.750 FPS (512 SPF)
Bit depth : 16 bits
Compression mode : Lossless / Lossy
Stream size : 2.60 GiB (3%)
Title : Interstellar.2014.2160p.BluRay.REMUX.HEVC.DTS-HD.MA.5.1
Language : German
Default : No
Forced : No

Audio #6
ID : 7
Format : AC-3
Format/Info : Audio Coding 3
Codec ID : A_AC3
Duration : 2 h 49 min
Bit rate mode : Constant
Bit rate : 640 kb/s
Channel(s) : 6 channels
Channel positions : Front: L C R, Side: L R, LFE
Sampling rate : 48.0 kHz
Frame rate : 31.250 FPS (1536 SPF)
Bit depth : 16 bits
Compression mode : Lossy
Stream size : 774 MiB (1%)
Title : Interstellar.2014.2160p.BluRay.REMUX.HEVC.DTS-HD.MA.5.1
Language : Italian
Service kind : Complete Main
Default : No
Forced : No

Audio #7
ID : 8
Format : AC-3
Format/Info : Audio Coding 3
Codec ID : A_AC3
Duration : 2 h 49 min
Bit rate mode : Constant
Bit rate : 640 kb/s
Channel(s) : 6 channels
Channel positions : Front: L C R, Side: L R, LFE
Sampling rate : 48.0 kHz
Frame rate : 31.250 FPS (1536 SPF)
Bit depth : 16 bits
Compression mode : Lossy
Stream size : 774 MiB (1%)
Title : Interstellar.2014.2160p.BluRay.REMUX.HEVC.DTS-HD.MA.5.1
Language : Spanish
Service kind : Complete Main
Default : No
Forced : No

Audio #8
ID : 9
Format : AC-3
Format/Info : Audio Coding 3
Codec ID : A_AC3
Duration : 2 h 49 min
Bit rate mode : Constant
Bit rate : 640 kb/s
Channel(s) : 6 channels
Channel positions : Front: L C R, Side: L R, LFE
Sampling rate : 48.0 kHz
Frame rate : 31.250 FPS (1536 SPF)
Bit depth : 16 bits
Compression mode : Lossy
Stream size : 774 MiB (1%)
Title : Interstellar.2014.2160p.BluRay.REMUX.HEVC.DTS-HD.MA.5.1
Language : Spanish
Service kind : Complete Main
Default : No
Forced : No

Audio #9
ID : 10
Format : AC-3
Format/Info : Audio Coding 3
Codec ID : A_AC3
Duration : 2 h 49 min
Bit rate mode : Constant
Bit rate : 640 kb/s
Channel(s) : 6 channels
Channel positions : Front: L C R, Side: L R, LFE
Sampling rate : 48.0 kHz
Frame rate : 31.250 FPS (1536 SPF)
Bit depth : 16 bits
Compression mode : Lossy
Stream size : 774 MiB (1%)
Title : Interstellar.2014.2160p.BluRay.REMUX.HEVC.DTS-HD.MA.5.1
Language : Portuguese
Service kind : Complete Main
Default : No
Forced : No

Audio #10
ID : 11
Format : AC-3
Format/Info : Audio Coding 3
Codec ID : A_AC3
Duration : 2 h 49 min
Bit rate mode : Constant
Bit rate : 640 kb/s
Channel(s) : 6 channels
Channel positions : Front: L C R, Side: L R, LFE
Sampling rate : 48.0 kHz
Frame rate : 31.250 FPS (1536 SPF)
Bit depth : 16 bits
Compression mode : Lossy
Stream size : 774 MiB (1%)
Title : Interstellar.2014.2160p.BluRay.REMUX.HEVC.DTS-HD.MA.5.1
Language : Czech
Service kind : Complete Main
Default : No
Forced : No

Audio #11
ID : 12
Format : AC-3
Format/Info : Audio Coding 3
Codec ID : A_AC3
Duration : 2 h 49 min
Bit rate mode : Constant
Bit rate : 640 kb/s
Channel(s) : 6 channels
Channel positions : Front: L C R, Side: L R, LFE
Sampling rate : 48.0 kHz
Frame rate : 31.250 FPS (1536 SPF)
Bit depth : 16 bits
Compression mode : Lossy
Stream size : 774 MiB (1%)
Title : Interstellar.2014.2160p.BluRay.REMUX.HEVC.DTS-HD.MA.5.1
Language : Polish
Service kind : Complete Main
Default : No
Forced : No

Audio #12
ID : 13
Format : AC-3
Format/Info : Audio Coding 3
Codec ID : A_AC3
Duration : 2 h 49 min
Bit rate mode : Constant
Bit rate : 640 kb/s
Channel(s) : 6 channels
Channel positions : Front: L C R, Side: L R, LFE
Sampling rate : 48.0 kHz
Frame rate : 31.250 FPS (1536 SPF)
Bit depth : 16 bits
Compression mode : Lossy
Stream size : 774 MiB (1%)
Title : Interstellar.2014.2160p.BluRay.REMUX.HEVC.DTS-HD.MA.5.1
Language : Russian
Service kind : Complete Main
Default : No
Forced : No

Text #1
ID : 14
Format : PGS
Muxing mode : zlib
Codec ID : S_HDMV/PGS
Codec ID/Info : Picture based subtitle format used on BDs/HD-DVDs
Duration : 2 h 47 min
Bit rate : 31.5 kb/s
Count of elements : 4194
Stream size : 37.8 MiB (0%)
Title : English-PGS
Language : English
Default : Yes
Forced : No

Text #2
ID : 15
Format : PGS
Muxing mode : zlib
Codec ID : S_HDMV/PGS
Codec ID/Info : Picture based subtitle format used on BDs/HD-DVDs
Duration : 2 h 42 min
Bit rate : 23.1 kb/s
Count of elements : 4129
Stream size : 26.9 MiB (0%)
Title : Japanese-PGS
Language : Japanese
Default : No
Forced : No

Text #3
ID : 16
Format : PGS
Muxing mode : zlib
Codec ID : S_HDMV/PGS
Codec ID/Info : Picture based subtitle format used on BDs/HD-DVDs
Duration : 2 h 47 min
Bit rate : 25.2 kb/s
Count of elements : 4200
Stream size : 30.2 MiB (0%)
Title : French-PGS
Language : French
Default : No
Forced : No

Text #4
ID : 17
Format : PGS
Muxing mode : zlib
Codec ID : S_HDMV/PGS
Codec ID/Info : Picture based subtitle format used on BDs/HD-DVDs
Duration : 2 h 47 min
Bit rate : 35.7 kb/s
Count of elements : 4192
Stream size : 42.8 MiB (0%)
Title : German-PGS
Language : German
Default : No
Forced : No

Text #5
ID : 18
Format : PGS
Muxing mode : zlib
Codec ID : S_HDMV/PGS
Codec ID/Info : Picture based subtitle format used on BDs/HD-DVDs
Duration : 2 h 47 min
Bit rate : 31.8 kb/s
Count of elements : 4190
Stream size : 38.2 MiB (0%)
Title : Italian-PGS
Language : Italian
Default : No
Forced : No

Text #6
ID : 19
Format : PGS
Muxing mode : zlib
Codec ID : S_HDMV/PGS
Codec ID/Info : Picture based subtitle format used on BDs/HD-DVDs
Duration : 2 h 47 min
Bit rate : 28.5 kb/s
Count of elements : 4002
Stream size : 34.2 MiB (0%)
Title : Spanish-PGS
Language : Spanish
Default : No
Forced : No

Text #7
ID : 20
Format : PGS
Muxing mode : zlib
Codec ID : S_HDMV/PGS
Codec ID/Info : Picture based subtitle format used on BDs/HD-DVDs
Duration : 2 h 47 min
Bit rate : 25.1 kb/s
Count of elements : 3516
Stream size : 30.2 MiB (0%)
Title : Dutch-PGS
Language : Dutch
Default : No
Forced : No

Text #8
ID : 21
Format : PGS
Muxing mode : zlib
Codec ID : S_HDMV/PGS
Codec ID/Info : Picture based subtitle format used on BDs/HD-DVDs
Duration : 2 h 47 min
Bit rate : 24.2 kb/s
Count of elements : 3978
Stream size : 29.1 MiB (0%)
Title : Chinese-PGS
Language : Chinese
Default : No
Forced : No

Text #9
ID : 22
Format : PGS
Muxing mode : zlib
Codec ID : S_HDMV/PGS
Codec ID/Info : Picture based subtitle format used on BDs/HD-DVDs
Duration : 2 h 47 min
Bit rate : 23.9 kb/s
Count of elements : 3976
Stream size : 28.7 MiB (0%)
Title : Chinese-PGS
Language : Chinese
Default : No
Forced : No

Text #10
ID : 23
Format : PGS
Muxing mode : zlib
Codec ID : S_HDMV/PGS
Codec ID/Info : Picture based subtitle format used on BDs/HD-DVDs
Duration : 2 h 47 min
Bit rate : 21.1 kb/s
Count of elements : 3964
Stream size : 25.3 MiB (0%)
Title : Korean-PGS
Language : Korean
Default : No
Forced : No

Text #11
ID : 24
Format : PGS
Muxing mode : zlib
Codec ID : S_HDMV/PGS
Codec ID/Info : Picture based subtitle format used on BDs/HD-DVDs
Duration : 2 h 47 min
Bit rate : 30.2 kb/s
Count of elements : 3984
Stream size : 36.3 MiB (0%)
Title : Spanish-PGS
Language : Spanish
Default : No
Forced : No

Text #12
ID : 25
Format : PGS
Muxing mode : zlib
Codec ID : S_HDMV/PGS
Codec ID/Info : Picture based subtitle format used on BDs/HD-DVDs
Duration : 2 h 47 min
Bit rate : 29.0 kb/s
Count of elements : 3974
Stream size : 34.8 MiB (0%)
Title : Portuguese-PGS
Language : Portuguese
Default : No
Forced : No

Text #13
ID : 26
Format : PGS
Muxing mode : zlib
Codec ID : S_HDMV/PGS
Codec ID/Info : Picture based subtitle format used on BDs/HD-DVDs
Duration : 2 h 47 min
Bit rate : 14.1 kb/s
Count of elements : 3978
Stream size : 17.0 MiB (0%)
Title : Arabic-PGS
Language : Arabic
Default : No
Forced : No

Text #14
ID : 27
Format : PGS
Muxing mode : zlib
Codec ID : S_HDMV/PGS
Codec ID/Info : Picture based subtitle format used on BDs/HD-DVDs
Duration : 2 h 47 min
Bit rate : 28.4 kb/s
Count of elements : 3948
Stream size : 34.1 MiB (0%)
Title : Croatian-PGS
Language : Croatian
Default : No
Forced : No

Text #15
ID : 28
Format : PGS
Muxing mode : zlib
Codec ID : S_HDMV/PGS
Codec ID/Info : Picture based subtitle format used on BDs/HD-DVDs
Duration : 2 h 47 min
Bit rate : 25.1 kb/s
Count of elements : 3972
Stream size : 30.1 MiB (0%)
Title : Czech-PGS
Language : Czech
Default : No
Forced : No

Text #16
ID : 29
Format : PGS
Muxing mode : zlib
Codec ID : S_HDMV/PGS
Codec ID/Info : Picture based subtitle format used on BDs/HD-DVDs
Duration : 2 h 47 min
Bit rate : 28.3 kb/s
Count of elements : 3908
Stream size : 34.0 MiB (0%)
Title : Danish-PGS
Language : Danish
Default : No
Forced : No

Text #17
ID : 30
Format : PGS
Muxing mode : zlib
Codec ID : S_HDMV/PGS
Codec ID/Info : Picture based subtitle format used on BDs/HD-DVDs
Duration : 2 h 47 min
Bit rate : 23.0 kb/s
Count of elements : 3232
Stream size : 27.6 MiB (0%)
Title : Finnish-PGS
Language : Finnish
Default : No
Forced : No

Text #18
ID : 31
Format : PGS
Muxing mode : zlib
Codec ID : S_HDMV/PGS
Codec ID/Info : Picture based subtitle format used on BDs/HD-DVDs
Duration : 2 h 47 min
Bit rate : 27.5 kb/s
Count of elements : 3960
Stream size : 33.0 MiB (0%)
Title : Greek-PGS
Language : Greek
Default : No
Forced : No

Text #19
ID : 32
Format : PGS
Muxing mode : zlib
Codec ID : S_HDMV/PGS
Codec ID/Info : Picture based subtitle format used on BDs/HD-DVDs
Duration : 2 h 47 min
Bit rate : 21.9 kb/s
Count of elements : 3966
Stream size : 26.2 MiB (0%)
Title : Hebrew-PGS
Language : Hebrew
Default : No
Forced : No

Text #20
ID : 33
Format : PGS
Muxing mode : zlib
Codec ID : S_HDMV/PGS
Codec ID/Info : Picture based subtitle format used on BDs/HD-DVDs
Duration : 2 h 47 min
Bit rate : 28.9 kb/s
Count of elements : 3968
Stream size : 34.7 MiB (0%)
Title : Hungarian-PGS
Language : Hungarian
Default : No
Forced : No

Text #21
ID : 34
Format : PGS
Muxing mode : zlib
Codec ID : S_HDMV/PGS
Codec ID/Info : Picture based subtitle format used on BDs/HD-DVDs
Duration : 2 h 47 min
Bit rate : 26.5 kb/s
Count of elements : 3410
Stream size : 31.8 MiB (0%)
Title : Norwegian-PGS
Language : Norwegian
Default : No
Forced : No

Text #22
ID : 35
Format : PGS
Muxing mode : zlib
Codec ID : S_HDMV/PGS
Codec ID/Info : Picture based subtitle format used on BDs/HD-DVDs
Duration : 2 h 47 min
Bit rate : 24.2 kb/s
Count of elements : 3918
Stream size : 29.0 MiB (0%)
Title : Polish-PGS
Language : Polish
Default : No
Forced : No

Text #23
ID : 36
Format : PGS
Muxing mode : zlib
Codec ID : S_HDMV/PGS
Codec ID/Info : Picture based subtitle format used on BDs/HD-DVDs
Duration : 2 h 47 min
Bit rate : 30.3 kb/s
Count of elements : 3984
Stream size : 36.4 MiB (0%)
Title : Portuguese-PGS
Language : Portuguese
Default : No
Forced : No

Text #24
ID : 37
Format : PGS
Muxing mode : zlib
Codec ID : S_HDMV/PGS
Codec ID/Info : Picture based subtitle format used on BDs/HD-DVDs
Duration : 2 h 47 min
Bit rate : 27.6 kb/s
Count of elements : 3786
Stream size : 33.1 MiB (0%)
Title : Romanian-PGS
Language : Romanian
Default : No
Forced : No

Text #25
ID : 38
Format : PGS
Muxing mode : zlib
Codec ID : S_HDMV/PGS
Codec ID/Info : Picture based subtitle format used on BDs/HD-DVDs
Duration : 2 h 47 min
Bit rate : 30.3 kb/s
Count of elements : 4104
Stream size : 36.4 MiB (0%)
Title : Russian-PGS
Language : Russian
Default : No
Forced : No

Text #26
ID : 39
Format : PGS
Muxing mode : zlib
Codec ID : S_HDMV/PGS
Codec ID/Info : Picture based subtitle format used on BDs/HD-DVDs
Duration : 2 h 47 min
Bit rate : 27.4 kb/s
Count of elements : 3368
Stream size : 32.9 MiB (0%)
Title : Swedish-PGS
Language : Swedish
Default : No
Forced : No

Text #27
ID : 40
Format : PGS
Muxing mode : zlib
Codec ID : S_HDMV/PGS
Codec ID/Info : Picture based subtitle format used on BDs/HD-DVDs
Duration : 1 h 6 min
Bit rate : 79 b/s
Count of elements : 6
Stream size : 38.7 KiB (0%)
Title : Japanese-PGS
Language : Japanese
Default : No
Forced : No

Menu
00:00:00.000 : en:Chapter 1
00:09:35.491 : en:Chapter 2
00:17:12.322 : en:Chapter 3
00:25:00.749 : en:Chapter 4
00:35:45.393 : en:Chapter 5
00:42:16.867 : en:Chapter 6
00:50:19.891 : en:Chapter 7
00:54:48.076 : en:Chapter 8
00:58:59.702 : en:Chapter 9
01:06:15.012 : en:Chapter 10
01:17:28.185 : en:Chapter 11
01:25:32.001 : en:Chapter 12
01:34:31.999 : en:Chapter 13
01:46:14.701 : en:Chapter 14
01:55:34.552 : en:Chapter 15
02:02:14.368 : en:Chapter 16
02:12:56.843 : en:Chapter 17
02:20:53.820 : en:Chapter 18
02:35:12.094 : en:Chapter 19
02:43:59.830 : en:Chapter 20
movie BDRip Video
ID : 1
Format : HEVC
Format/Info : High Efficiency Video Coding
Format profile : Main 10@L5.1@High
Codec ID : V_MPEGH/ISO/HEVC
Duration : 2 h 49 min
Bit rate : 24.5 Mb/s
Width : 3 840 pixels
Height : 2 160 pixels
Display aspect ratio : 16:9
Frame rate mode : Constant
Frame rate : 23.976 (24000/1001) FPS
Color space : YUV
Chroma subsampling : 4:2:0 (Type 2)
Bit depth : 10 bits
Bits/(Pixel*Frame) : 0.123
Stream size : 29.0 GiB (87%)
Writing library : x265 2.6+22-ff02513b92c0:[Windows][GCC 6.3.0][64 bit] 10bit
Encoding settings : cpuid=1173503 / frame-threads=4 / numa-pools=20 / wpp / no-pmode / no-pme / no-psnr / no-ssim / log-level=2 / input-csp=1 / input-res=3840x2160 / interlace=0 / total-frames=243218 / level-idc=51 / high-tier=1 / uhd-bd=1 / ref=4 / no-allow-non-conformance / repeat-headers / annexb / aud / hrd / info / hash=0 / no-temporal-layers / no-open-gop / min-keyint=1 / keyint=24 / gop-lookahead=0 / bframes=4 / b-adapt=2 / b-pyramid / bframe-bias=0 / rc-lookahead=25 / lookahead-slices=4 / scenecut=40 / radl=0 / no-intra-refresh / ctu=64 / min-cu-size=8 / rect / no-amp / max-tu-size=32 / tu-inter-depth=1 / tu-intra-depth=1 / limit-tu=0 / rdoq-level=2 / dynamic-rd=0.00 / no-ssim-rd / signhide / no-tskip / nr-intra=0 / nr-inter=0 / no-constrained-intra / no-strong-intra-smoothing / max-merge=3 / limit-refs=3 / limit-modes / me=3 / subme=3 / merange=57 / temporal-mvp / weightp / no-weightb / no-analyze-src-pics / deblock=-3:-3 / no-sao / no-sao-non-deblock / rd=4 / no-early-skip / rskip / no-fast-intra / no-tskip-fast / no-cu-lossless / no-b-intra / no-splitrd-skip / rdpenalty=0 / psy-rd=2.00 / psy-rdoq=1.00 / no-rd-refine / no-lossless / cbqpoffs=0 / crqpoffs=0 / rc=crf / crf=17.0 / qcomp=0.60 / qpstep=4 / stats-write=0 / stats-read=0 / vbv-maxrate=160000 / vbv-bufsize=160000 / vbv-init=0.9 / crf-max=0.0 / crf-min=0.0 / ipratio=1.40 / pbratio=1.30 / aq-mode=1 / aq-strength=1.00 / cutree / zone-count=0 / no-strict-cbr / qg-size=32 / no-rc-grain / qpmax=69 / qpmin=0 / no-const-vbv / sar=1 / overscan=0 / videoformat=5 / range=0 / colorprim=9 / transfer=16 / colormatrix=9 / chromaloc=1 / chromaloc-top=2 / chromaloc-bottom=2 / display-window=0 / master-display=G(13250,34500)B(7500,3000)R(34000,16000)WP(15635,16450)L(40000000,50) / max-cll=1242,436 / min-luma=0 / max-luma=1023 / log2-max-poc-lsb=8 / vui-timing-info / vui-hrd-info / slices=1 / no-opt-qp-pps / no-opt-ref-list-length-pps / no-multi-pass-opt-rps / scenecut-bias=0.05 / no-opt-cu-delta-qp / no-aq-motion / hdr / hdr-opt / no-dhdr10-opt / analysis-save=(null) / analysis-load=(null) / analysis-reuse-level=5 / scale-factor=0 / refine-intra=0 / refine-inter=0 / refine-mv=0 / no-limit-sao / ctu-info=0 / no-lowpass-dct / refine-mv-type=0 / copy-pic=1
Default : Yes
Forced : No
Color range : Limited
Color primaries : BT.2020
Transfer characteristics : PQ
Matrix coefficients : BT.2020 non-constant
Mastering display color primaries : Display P3
Mastering display luminance : min: 0.0050 cd/m2, max: 4000 cd/m2
Maximum Content Light Level : 1242 cd/m2
Maximum Frame-Average Light Level : 436 cd/m2

Audio
ID : 2
Format : DTS
Format/Info : Digital Theater Systems
Format profile : MA / Core
Codec ID : A_DTS
Duration : 2 h 49 min
Bit rate mode : Variable / Constant
Bit rate : 3 686 kb/s / 1 509 kb/s
Channel(s) : 6 channels
Channel positions : Front: L C R, Side: L R, LFE
Sampling rate : 48.0 kHz
Frame rate : 93.750 FPS (512 SPF)
Bit depth : 24 bits
Compression mode : Lossless / Lossy
Stream size : 4.35 GiB (13%)
Language : English
Default : Yes
Forced : No

Text
ID : 3
Format : PGS
Muxing mode : zlib
Codec ID : S_HDMV/PGS
Codec ID/Info : Picture based subtitle format used on BDs/HD-DVDs
Duration : 2 h 47 min
Bit rate : 31.5 kb/s
Count of elements : 4194
Stream size : 37.8 MiB (0%)
Title : English SDH
Language : English
Default : No
Forced : No

Menu
00:00:00.000 : en:00:00:00.000
00:09:35.492 : en:00:09:35.492
00:17:12.323 : en:00:17:12.323
00:25:00.749 : en:00:25:00.749
00:35:45.393 : en:00:35:45.393
00:42:16.868 : en:00:42:16.868
00:50:19.892 : en:00:50:19.892
00:54:48.076 : en:00:54:48.076
00:58:59.703 : en:00:58:59.703
01:06:15.013 : en:01:06:15.013
01:17:28.185 : en:01:17:28.185
01:25:32.002 : en:01:25:32.002
01:34:32.000 : en:01:34:32.000
01:46:14.702 : en:01:46:14.702
01:55:34.553 : en:01:55:34.553
02:02:14.369 : en:02:02:14.369
02:12:56.844 : en:02:12:56.844
02:20:53.820 : en:02:20:53.820
02:35:12.094 : en:02:35:12.094
02:43:59.830 : en:02:43:59.830

Download

download 4k hdr movies download 4k hdr movies

Watch a movie trailer - Interstellar 4K 2014 Ultra HD 2160p
Comments and Feedback
  1. - 0 +
    RobertMor  пишет:
    9 August 2019 16:05
    Nicely put. With thanks. northwest pharmacy/com online canadian pharcharmy - https://www.trustedwebpharmacy.com/ discount prescription drugs online vect 554c94e
  2. - 0 +
    DeshawnGed  пишет:
    9 August 2019 17:03
    You have made your point! online rx pharmacy canadian pharcharmy online canadian pharmacies-24h canadian pharmacies canadian pharmacy cialis - http://canadianpharmacyntv.com/ canada prescription plus pharmacy Fap ca75e93
  3. - 0 +
    Michaelsweno  пишет:
    9 August 2019 18:14
    Nicely put, Cheers. overseas pharmacy forum best 10 online canadian pharmacies drug price canada drugs online canadian pharmacy drugs online - https://www.canadianpharmacyopen.com/ northwest pharmacy ka 6554c94
  4. - 0 +
    Charlesemorn  пишет:
    9 August 2019 21:35
    Thanks, Quite a lot of data! online pharmacy canada list of approved canadian pharmacies canadian online pharmacies prescription drugs ed meds online without doctor prescription canadian cialis - https://www.trustedwebpharmacy.com/ mexican pharmacy online medications Ma 75e93f0
  5. - 0 +
    EdwardKam  пишет:
    10 August 2019 05:39
    Really a good deal of wonderful facts! canadian pharmaceuticals online canadian drug store - https://www.safeonlinecanadian.com/ prescription cost comparison Fug 5dca75e
  6. - 0 +
    Ronaldged  пишет:
    10 August 2019 15:32
    Thanks a lot. An abundance of content. online canadian pharmacy walmart pharmacy price check - https://canadianpharmaciescubarx.com/ pharmacies in canada Rice d646b30
  7. - 0 +
    Patrickkeype  пишет:
    21 August 2019 02:59
    Good posts. Thanks a lot. generic viagra 100mg viagra lawsuits won in 2010 - https://www.viagraforsalemsn.com/ viagra sale online cyber pharmacy viagra Patrickcax e5690_a
  8. - 0 +
    LelandSaw  пишет:
    21 August 2019 06:31
    Reliable forum posts. Appreciate it! buy generic viagra kidney failure viagra - https://genericviagrarcp.com/ recommended viagra dose viagra 100mg in croatia LelandleP 02d646b
  9. - 0 +
    KennethBut  пишет:
    21 August 2019 10:27
    Thanks a lot. Plenty of tips! buy viagra aching legs viagra - https://www.viagraonlinemsn.com/ 36 hour viagra pen viagra KennethBED 30d4655
  10. - 0 +
    EdwardGok  пишет:
    21 August 2019 11:58
    Cheers, Loads of forum posts! viagra pills viagra online us news - https://www.viagraonlinemsn.com/ where to buy viagra safe viagra gross per year EdwardErers 54c94e5
  11. - 0 +
    JoshuaParma  пишет:
    21 August 2019 19:52
    Fine advice. Kudos! viagra generic levitra cialis viagra comparison - https://www.viagraonlinemsn.com/ female viagra in las vegas viagra visual change Joshuainvax 4c94e56
  12. - 0 +
    JasonTerne  пишет:
    22 August 2019 01:37
    Superb stuff. With thanks! viagra generic cheap viagra - https://www.viagraforsalemsn.com/ viagra multiple erections new viagra Jasonseips 46554c9
  13. - 0 +
    Jerryfah  пишет:
    24 August 2019 13:39
    Seriously quite a lot of beneficial info. Experience With Provigil buy modafinil How Hard Is It To Get Provigil Provigil 4 Hour Body
  14. - 0 +
    Brucefub  пишет:
    24 September 2019 15:31
    european internet gambling jackpot city casino casino machine games download spillespil baccarat best best casino casino online
  15. - 0 +
    Brianclacy  пишет:
    24 September 2019 19:17
    online roulette live dealer doubledown casino real cash online slots expekt casino nj online gaming on ipad
  16. - 0 +
    TrevorHuh  пишет:
    24 September 2019 21:57
    cialis instructions cialis 20mg is there a generic cialis available? buy generic cialis can i buy cialis at cvs
  17. - 0 +
    AustinHip  пишет:
    25 September 2019 01:21
    when will generic cialis be available in the us generic for cialis buy cialis online canada pharmacy cialis coupons cialis 20mg xssdjffmjesticappy
  18. - 0 +
    StevenNoich  пишет:
    27 September 2019 01:00
    legitimate place to buy viagra does viagra pill expire generic tadalafil cheapest cheap viagra in europe vardenafil levitra 10 mg 30 mg cialis safe viagra generika deutschland bestellen comprare cialis generico italia how to get viagra overnight buying viagra online guide viagra online from india viagra generico bh can you take half a viagra pill buy viagra uk tesco viagra generico do paraguai cialis pills women buy us viagra buy vardenafil cheap cialis 40 mg dose esiste il farmaco generico del viagra viagra price canada pills like viagra for women il migliore viagra generico nombre cialis genericos cutting a cialis pill buy cheap viagra blog generic viagra names generic viagra caverta buy viagra uk forum buy viagra on line i felt like a viagra pill with a face prices of levitra where can i buy cialis in toronto buy cheap levitra no prescription http://tbalces.com/browse.php?site=werpharmacy.com cheap viagra real viagra when trying to get pregnant http://www.google.com.na/url?q=http://werpharmacy.com half pilletje viagra gel viagra online https://www.azblue.com/redirect?url=http://werpharmacy.com taking extenze viagra together get sample cialis http://www.google.com.eg/url?q=http://werpharmacy.com kosten levitra 10 mg where to buy viagra in hyderabad https://hitkabina.ru/bitrix/rk.php?goto=http://werpharmacy.com buy generic viagra new zealand
  19. - 0 +
    Miltonheita  пишет:
    29 September 2019 02:42
    walmart viagra prices can i take more than 20 mg of cialis gebruiksaanwijzing viagra 100mg buy tadalafil dapoxetine how much is one viagra pill worth is generic viagra approved by fda buy cialis drugstore how to buy viagra in london watch viagra blue online how to get viagra chrono cross buy cialis europe viagra per pill safe split cialis pills price of viagra for men in india viagra bangalore buy can you buy viagra over the counter boots generic viagra drug cialis liquid for sale buy viagra in america qual o nome generico do viagra cialis existe generico buy viagra online without rx remedios genericos do viagra how can i get viagra in australia cialis buy online australia cialis 5 mg tabletta buy cialis australia paypal existe levitra generico buy cialis professional 20 mg cialis 20 mg 2 film tablet fiyat can you buy cialis online in australia tadalafil dosage 40 mg half of cialis pill 20mg of cialis http://shaferov.com/go.php?http://werpharmacy.com sildenafil tableta de 50 mg 30 mg of cialis too much http://29palms.ru/away.php?to=http%3A%2F%2Fwerpharmacy.com viagra super force 100mg 60mg pills generic name of viagra https://forum.multcloud.com/home/leaving?Target=http://werpharmacy.com generic cialis net diferencia cialis 10 mg y 20 mg https://maps.gngjd.com/url?q=http://werpharmacy.com tadalafil buy online do viagra pill look like https://forums.quattroworld.com/redirect.phtml?refresh&url=http%3A%2F%2Fwer
    pharmacy.com can you take more than 20mg of levitra
  20. - 0 +
    canadian pharmacies  пишет:
    12 October 2019 22:39
  21. - 0 +
    online pharmacies canada  пишет:
    13 October 2019 22:05
  22. - 0 +
    14 October 2019 01:51
  23. - 0 +
    Davidbeexy  пишет:
    17 October 2019 11:43
    precios de cialis 5 mg about company order cialis online with mastercard company's news cialis splitting pills
  24. - 0 +
    KeithSem  пишет:
    17 October 2019 13:09
    cialis 20 mg vs 5 mg the structure of the company viagra 50 mg effet about company viagra generico vendas
  25. - 0 +
    ErnestSit  пишет:
    17 October 2019 14:47
    which pill is better viagra cialis or levitra about company legal order viagra over internet about company viagra vs cialis which is cheaper
  26. - 0 +
    Davidmup  пишет:
    17 October 2019 15:38
    viagra 100 mg vs cialis 20 mg company employees viagra 100mg test the structure of the company cialis super active generico tadalafil 20mg
  27. - 0 +
    LonnieVok  пишет:
    17 October 2019 22:37
    sildenafil soft tabs generic about company viagra pill for men company events buy viagra online usa
  28. - 0 +
    Willieesoni  пишет:
    18 October 2019 10:02
    cialis tadalafil 80 mg company customers cheap cialis 40 mg company divisions cialis uk sale
  29. - 0 +
    25 October 2019 06:07
Add your comment:
Your name:
Your E-Mail:
Code:
reload, if the code cannot be seen
Enter code: