Select movie Search movie Close search My Account

Interstellar 4K 2014 Ultra HD 2160p

Interstellar 4K 2014 Ultra HD 2160p
BDRemux / BDRip
Country: USA | UK | Canada | Iceland
Time: 2h 49min
IMDB: 8.6
Director: Christopher Nolan
+56
72
Actors: Ellen Burstyn, Matthew McConaughey, Mackenzie Foy, John Lithgow, Timothe Chalamet, David Oyelowo, Collette Wolfe, Francis X. McCarthy, Bill Irwin, Anne Hathaway, Andrew Borba, Wes Bentley, William Devane, Michael Caine, David Gyasi...

Story Movie

Interstellar 4K 2014 Ultra HD 2160p
The film 4K movie 2160p for download, narrates about a group of researchers who use a newly discovered tunnel in space, a wormhole, to go beyond the familiar cosmic boundaries and conquer grandiose distances during their interstellar 4K journey.

Review 4K Movie

The earth is dying. Wheat crops are destroyed by diseases, farmers who grow corn, pester dust storms, and the states hardly keep afloat. They no longer have the resources either on the army, on social programs, or on the support of science. Humanity can survive only if it immediately begins to explore the distant cosmos. And such an opportunity is given to him when telescopes find in the vicinity of Saturn a cosmic "wormhole" that opens a passage to the neighboring Galaxy. Probes detect within the limits of technical attainability several planets, theoretically capable of sustaining life, and expeditions are sent there for closer study of new worlds. A few years later, the second phase of the intelligence program begins - an assessment of the data collected and a final decision. For this, a new expedition is sent to space under the command of the former Cooper pilot (Matthew McConaughey) - the last cosmonaut prepared at a time when such missions did not yet have to be organized secretly from taxpayers.

"Interstellar 4K" was born as a project designed for Steven Spielberg as a director. Christopher Nolan became interested in him when his brother Jonathan was hired as a screenwriter
Why do we love the director Christopher Nolan and his brother-script writer Jonathan? For the fact that they manage to create simultaneously high-brow and emotional, as well as deep and exciting projects like "Beginning", "Remember ...", "In sight" and, to a lesser extent, "Dark Knight". How many creators, even recognized and distinguished, are sacrificed for one another! And how often the "clever" fantastic film in 4K turns out to be cold and almost lifeless, and the warm and emotional cinema, on the contrary, requires the viewers to turn off their head, because they will not need it during the viewing. The brothers Nolan also manage to sneak over and over again between Scylla and Charybdis. And they stand out so much against the general background that they have almost no competitors.

The space epic Interstellar is the next and most ambitious demonstration of Nolan's superiority to date. "Dancing" from the most important expedition in the history of the future of mankind, the film embraces myriads of highbrowed topics - from the nuances of quantum physics to approaches to designing robots and from strategies for saving humanity to a variety of conditions on planets revolving around other stars. However, this is by no means a tedious lecture, in the course of which the characters-mannequins set forth author's thoughts to each other (and, in fact, to the audience).

Of course, in the Ultra HD movie there are still moments when the characters stand in a pose and explain to the public what is going on, because hardcore science fiction can not be built otherwise. But Interstellar is basically not a scientific but a human story about a father who flew to save the world, although most of all he wanted to be with his children, and about his children who, because of the "twin paradox" (under certain conditions the time for the cosmonaut flows more slowly than for those who stayed on the Earth) have time to grow up and become parents themselves while their father spends several years of his time in wandering around the universe.

"Interstellar 4K Ultra HD" is the first collaboration between Christopher Nolan and the Dutch production director Hoyt Van Hoytem ("Let me in," "She"). Nolan completed his cooperation with his permanent operator, Wally Fister, when he began his own directorial career with the production of "Excellence"
This is a piercing, soul-taking narrative that only benefits from the selfishness inherent in present-day Americans. The Soviet cosmonauts and their families, brought up by the war, were ready to put up with personal losses for the sake of the country and humanity. For the heroes of Interstellar, this sacrifice is a novelty, and this makes them more vulnerable, more humane, and therefore more dramatically interesting characters than if they were "our people" in their place. Although, of course, it's a pity that the Nolans for the whole film never mentioned Russia and the Russian space program and did not include any non-Americans in action. Patriotism is patriotism, but the salvation of mankind can not be a nationalistic project, and formerly Western cosmic epics of such a scale have cut out a spot for "ours".

Another minus of the picture is the actual futility of the cosmonaut Amelia Brand flying with Cooper. The heroine Anne Hathaway needs a script only to discuss Cooper's ideas and sometimes fall into the trap. When you need to save the situation, Cooper does it alone or with the help of ship robots (by the way, their design is unique - it has no analogues either in life or on the screen, and this is an amazing find of the tape makers!).

In the framework of the film, this is due to the fact that Amelia is an expert on the creation of alien colonies, and before that, the hands do not reach the heroes in the course of the action. But this does not excuse the Nolans who brought the woman.

Mediainfo

movie BDRemux Video
Codec: HEVC / H.265 (51.7 Mb/s)
Resolution: Native 4K (2160p)
HDR: HDR10
Aspect ratio: 2.40:1, 1.78:1
Original aspect ratio: 2.39:1

Audio
English: DTS-HD Master Audio 5.1 (48kHz, 24-bit)
Spanish: Dolby Digital 5.1
Spanish (Latino): Dolby Digital 5.1
English: Dolby Digital 5.1
French: DTS-HD Master Audio (48kHz, 16-bit)
German: DTS-HD Master Audio (48kHz, 16-bit)
Italian: Dolby Digital 5.1
Portuguese: Dolby Digital 5.1
Czech: Dolby Digital 5.1
Polish: Dolby Digital 5.1
Russian: Dolby Digital 5.1

Subtitles
English, Chinese (Simplified), Chinese (Traditional), French, German, Italian, Spanish, Dutch, Chinese, Korean, Portuguese, Arabic, Croatian, Czech, Danish, Finnish, Greek, Hebrew, Hungarian, Norwegian, Polish, Romanian, Russian, Swedish.
movie BDRip Video
ID : 1
Format : HEVC
Format/Info : High Efficiency Video Coding
Format profile : Main 10@L5.1@High
Codec ID : V_MPEGH/ISO/HEVC
Duration : 2 h 49 min
Bit rate : 24.5 Mb/s
Width : 3 840 pixels
Height : 2 160 pixels
Display aspect ratio : 16:9
Frame rate mode : Constant
Frame rate : 23.976 (24000/1001) FPS
Color space : YUV
Chroma subsampling : 4:2:0 (Type 2)
Bit depth : 10 bits
Bits/(Pixel*Frame) : 0.123
Stream size : 29.0 GiB (87%)
Writing library : x265 2.6+22-ff02513b92c0:[Windows][GCC 6.3.0][64 bit] 10bit
Encoding settings : cpuid=1173503 / frame-threads=4 / numa-pools=20 / wpp / no-pmode / no-pme / no-psnr / no-ssim / log-level=2 / input-csp=1 / input-res=3840x2160 / interlace=0 / total-frames=243218 / level-idc=51 / high-tier=1 / uhd-bd=1 / ref=4 / no-allow-non-conformance / repeat-headers / annexb / aud / hrd / info / hash=0 / no-temporal-layers / no-open-gop / min-keyint=1 / keyint=24 / gop-lookahead=0 / bframes=4 / b-adapt=2 / b-pyramid / bframe-bias=0 / rc-lookahead=25 / lookahead-slices=4 / scenecut=40 / radl=0 / no-intra-refresh / ctu=64 / min-cu-size=8 / rect / no-amp / max-tu-size=32 / tu-inter-depth=1 / tu-intra-depth=1 / limit-tu=0 / rdoq-level=2 / dynamic-rd=0.00 / no-ssim-rd / signhide / no-tskip / nr-intra=0 / nr-inter=0 / no-constrained-intra / no-strong-intra-smoothing / max-merge=3 / limit-refs=3 / limit-modes / me=3 / subme=3 / merange=57 / temporal-mvp / weightp / no-weightb / no-analyze-src-pics / deblock=-3:-3 / no-sao / no-sao-non-deblock / rd=4 / no-early-skip / rskip / no-fast-intra / no-tskip-fast / no-cu-lossless / no-b-intra / no-splitrd-skip / rdpenalty=0 / psy-rd=2.00 / psy-rdoq=1.00 / no-rd-refine / no-lossless / cbqpoffs=0 / crqpoffs=0 / rc=crf / crf=17.0 / qcomp=0.60 / qpstep=4 / stats-write=0 / stats-read=0 / vbv-maxrate=160000 / vbv-bufsize=160000 / vbv-init=0.9 / crf-max=0.0 / crf-min=0.0 / ipratio=1.40 / pbratio=1.30 / aq-mode=1 / aq-strength=1.00 / cutree / zone-count=0 / no-strict-cbr / qg-size=32 / no-rc-grain / qpmax=69 / qpmin=0 / no-const-vbv / sar=1 / overscan=0 / videoformat=5 / range=0 / colorprim=9 / transfer=16 / colormatrix=9 / chromaloc=1 / chromaloc-top=2 / chromaloc-bottom=2 / display-window=0 / master-display=G(13250,34500)B(7500,3000)R(34000,16000)WP(15635,16450)L(40000000,50) / max-cll=1242,436 / min-luma=0 / max-luma=1023 / log2-max-poc-lsb=8 / vui-timing-info / vui-hrd-info / slices=1 / no-opt-qp-pps / no-opt-ref-list-length-pps / no-multi-pass-opt-rps / scenecut-bias=0.05 / no-opt-cu-delta-qp / no-aq-motion / hdr / hdr-opt / no-dhdr10-opt / analysis-save=(null) / analysis-load=(null) / analysis-reuse-level=5 / scale-factor=0 / refine-intra=0 / refine-inter=0 / refine-mv=0 / no-limit-sao / ctu-info=0 / no-lowpass-dct / refine-mv-type=0 / copy-pic=1
Default : Yes
Forced : No
Color range : Limited
Color primaries : BT.2020
Transfer characteristics : PQ
Matrix coefficients : BT.2020 non-constant
Mastering display color primaries : Display P3
Mastering display luminance : min: 0.0050 cd/m2, max: 4000 cd/m2
Maximum Content Light Level : 1242 cd/m2
Maximum Frame-Average Light Level : 436 cd/m2

Audio
ID : 2
Format : DTS
Format/Info : Digital Theater Systems
Format profile : MA / Core
Codec ID : A_DTS
Duration : 2 h 49 min
Bit rate mode : Variable / Constant
Bit rate : 3 686 kb/s / 1 509 kb/s
Channel(s) : 6 channels
Channel positions : Front: L C R, Side: L R, LFE
Sampling rate : 48.0 kHz
Frame rate : 93.750 FPS (512 SPF)
Bit depth : 24 bits
Compression mode : Lossless / Lossy
Stream size : 4.35 GiB (13%)
Language : English
Default : Yes
Forced : No

Text
ID : 3
Format : PGS
Muxing mode : zlib
Codec ID : S_HDMV/PGS
Codec ID/Info : Picture based subtitle format used on BDs/HD-DVDs
Duration : 2 h 47 min
Bit rate : 31.5 kb/s
Count of elements : 4194
Stream size : 37.8 MiB (0%)
Title : English SDH
Language : English
Default : No
Forced : No

Menu
00:00:00.000 : en:00:00:00.000
00:09:35.492 : en:00:09:35.492
00:17:12.323 : en:00:17:12.323
00:25:00.749 : en:00:25:00.749
00:35:45.393 : en:00:35:45.393
00:42:16.868 : en:00:42:16.868
00:50:19.892 : en:00:50:19.892
00:54:48.076 : en:00:54:48.076
00:58:59.703 : en:00:58:59.703
01:06:15.013 : en:01:06:15.013
01:17:28.185 : en:01:17:28.185
01:25:32.002 : en:01:25:32.002
01:34:32.000 : en:01:34:32.000
01:46:14.702 : en:01:46:14.702
01:55:34.553 : en:01:55:34.553
02:02:14.369 : en:02:02:14.369
02:12:56.844 : en:02:12:56.844
02:20:53.820 : en:02:20:53.820
02:35:12.094 : en:02:35:12.094
02:43:59.830 : en:02:43:59.830

Download

download 4K Blu-Ray movies of MoonDL

download 4K Blu-Ray movies of TakeFile

You bought a premium on MoonDL. Contact the MoonDL support team, they will increase your traffic:
512 GB / every 2 days on plan Premium Full Moon
128 GB / every 2 days on plan Premium Moon

If you bought a premium account on TakeFile, you can also write to TakeFile support. And your traffic will be increased.

download 4k hdr movies

Watch a movie trailer - Interstellar 4K 2014 Ultra HD 2160p
Comments and Feedback
Add your comment:
Your name:
Your E-Mail:
Enter the two words shown in the image: *