Select movie Search movie Close search My Account

Unsane 4K 2018 Ultra HD 2160p

Unsane 4K 2018 Ultra HD 2160p
BDRemux / BDRip
Country: USA
Time: 1h 38min
IMDB: 6.5
Director: Steven Soderbergh
Actors: Joshua Leonard, Claire Foy, Sarah Stiles, Marc Kudisch, Amy Irving, Colin Woodell, Lynda Mauze, Polly McKie, Jay Pharoah, Ra?l Castillo, Juno Temple, Michael Mihm, Robert Kelly

Story Movie

Unsane 4K 2018 Ultra HD 2160p
A young girl does not give rest to her past. And she has no other choice. except to leave and try to start your life from scratch. But by chance I came to the clinic for the mentally ill. she again comes face to face with her past. Sometimes the girl seems that she is Unsane 4k movie download links. But whether she will be able to understand her past, arrange the points and close this story forever.

Review 4K Movie

Nothing unusual in the choice of Steven Soderbergh is not found, the experimental cinema was and is a characteristic of any experienced director, and "Unsane" 4k movie download links, in addition to the technical side, is shot quite in the spirit of the director, especially it can be seen how the director knows how to develop secondary storylines, and His own individual style was preserved in this film.

In history, a young girl who dreams of her pursuer almost everywhere she steps her foot, and one day her voluntary hospitalization turns into a real nightmare for her - her "beloved" allegedly works in this very medical institution. The advantage of the film is that it flirts with the viewer almost to the last scenes, that's why for the viewer the fact of the existence of an internal or external monster does not matter, because all together it works out a good effect.

Here, plus everything, in addition to what the main heroine faces on an individual level, the bureaucratic system with which the heroine also has to fight is rigidly shown. All these plot lines give the spectator a whole bunch of questions, how and how the whole story may end. What else is playing in favor of this project is that, contrary to fears of turkeys and expectations before watching, "Unsane" Ultra HD does not go into a drug trance and is a completely understandable and atmospheric thriller, with its promised portion of impressions.

I think that Soderberg did not spend time in the empty and did not lose the fans with this tape, "Unsane" UHD - in addition to the exclusive form of camera shooting, is a quality genre movie about the pursuit, with a quality atmosphere and an entertaining storyline.

Mediainfo

movie BDRemux Video
ID : 1
Format : HEVC
Format/Info : High Efficiency Video Coding
Commercial name : HDR10
Format profile : Main 10@L5.1@High
Codec ID : V_MPEGH/ISO/HEVC
Duration : 1 h 38 min
Bit rate : 72.7 Mb/s
Width : 3 840 pixels
Height : 2 160 pixels
Display aspect ratio : 16:9
Frame rate mode : Constant
Frame rate : 23.976 (24000/1001) FPS
Color space : YUV
Chroma subsampling : 4:2:0 (Type 2)
Bit depth : 10 bits
Bits/(Pixel*Frame) : 0.365
Stream size : 49.8 GiB (96%)
Title : Unsane.2018.2160p.BluRay.REMUX.HEVC.DTS-HD.MA.5.1
Writing library : ATEME Titan File 3.8.16 (4.8.16.0)
Default : Yes
Forced : No
Color range : Limited
Color primaries : BT.2020
Transfer characteristics : PQ
Matrix coefficients : BT.2020 non-constant
Mastering display color primaries : Display P3
Mastering display luminance : min: 0.0050 cd/m2, max: 1000 cd/m2
Maximum Content Light Level : 666 cd/m2
Maximum Frame-Average Light Level : 157 cd/m2

Audio
ID : 2
Format : DTS
Format/Info : Digital Theater Systems
Format profile : MA / Core
Codec ID : A_DTS
Duration : 1 h 38 min
Bit rate mode : Variable / Constant
Bit rate : 3 072 kb/s / 1 509 kb/s
Channel(s) : 6 channels
Channel positions : Front: L C R, Side: L R, LFE
Sampling rate : 48.0 kHz
Frame rate : 93.750 FPS (512 SPF)
Bit depth : 24 bits
Compression mode : Lossless / Lossy
Stream size : 2.14 GiB (4%)
Title : Unsane.2018.2160p.BluRay.REMUX.HEVC.DTS-HD.MA.5.1
Language : English
Default : Yes
Forced : No

Text #1
ID : 3
Format : PGS
Muxing mode : zlib
Codec ID : S_HDMV/PGS
Codec ID/Info : Picture based subtitle format used on BDs/HD-DVDs
Duration : 1 h 35 min
Bit rate : 43.4 kb/s
Count of elements : 2854
Stream size : 29.7 MiB (0%)
Title : English-PGS
Language : English
Default : Yes
Forced : No

Text #2
ID : 4
Format : PGS
Muxing mode : zlib
Codec ID : S_HDMV/PGS
Codec ID/Info : Picture based subtitle format used on BDs/HD-DVDs
Duration : 1 h 36 min
Bit rate : 33.9 kb/s
Count of elements : 2552
Stream size : 23.5 MiB (0%)
Title : Spanish-PGS
Language : Spanish
Default : No
Forced : No

Text #3
ID : 5
Format : PGS
Muxing mode : zlib
Codec ID : S_HDMV/PGS
Codec ID/Info : Picture based subtitle format used on BDs/HD-DVDs
Duration : 1 h 36 min
Bit rate : 34.3 kb/s
Count of elements : 2556
Stream size : 23.7 MiB (0%)
Title : French-PGS
Language : French
Default : No
Forced : No

Menu
00:00:00.000 : en:Chapter 1
00:05:40.256 : en:Chapter 2
00:10:21.912 : en:Chapter 3
00:14:24.697 : en:Chapter 4
00:19:26.331 : en:Chapter 5
00:24:46.234 : en:Chapter 6
00:29:10.165 : en:Chapter 7
00:36:35.401 : en:Chapter 8
00:40:25.089 : en:Chapter 9
00:45:23.595 : en:Chapter 10
00:50:14.803 : en:Chapter 11
00:56:12.285 : en:Chapter 12
00:59:06.834 : en:Chapter 13
01:04:44.463 : en:Chapter 14
01:07:30.046 : en:Chapter 15
01:15:37.449 : en:Chapter 16
01:23:25.333 : en:Chapter 17
01:26:39.652 : en:Chapter 18
01:30:23.167 : en:Chapter 19
01:35:08.411 : en:Chapter 20
movie BDRip Video
ID : 1
Format : HEVC
Format/Info : High Efficiency Video Coding
Commercial name : HDR10
Format profile : Main 10@L5.1@High
Codec ID : V_MPEGH/ISO/HEVC
Duration : 1 h 38 min
Bit rate : 32.1 Mb/s
Width : 3 376 pixels
Height : 2 160 pixels
Display aspect ratio : 16:10
Frame rate mode : Constant
Frame rate : 23.976 (24000/1001) FPS
Color space : YUV
Chroma subsampling : 4:2:0 (Type 2)
Bit depth : 10 bits
Bits/(Pixel*Frame) : 0.183
Stream size : 22.0 GiB (91%)
Writing library : x265 2.8+10-703eade86b53:[Windows][MSVC 1914][64 bit] 10bit
Encoding settings : cpuid=1111039 / frame-threads=6 / numa-pools=36 / wpp / no-pmode / no-pme / no-psnr / no-ssim / log-level=2 / input-csp=1 / input-res=3376x2160 / interlace=0 / total-frames=141255 / level-idc=51 / high-tier=1 / uhd-bd=0 / ref=4 / no-allow-non-conformance / repeat-headers / annexb / aud / hrd / info / hash=0 / no-temporal-layers / no-open-gop / min-keyint=1 / keyint=24 / gop-lookahead=0 / bframes=4 / b-adapt=2 / b-pyramid / bframe-bias=0 / rc-lookahead=25 / lookahead-slices=4 / scenecut=40 / radl=0 / no-intra-refresh / ctu=64 / min-cu-size=8 / rect / no-amp / max-tu-size=32 / tu-inter-depth=1 / tu-intra-depth=1 / limit-tu=0 / rdoq-level=2 / dynamic-rd=0.00 / no-ssim-rd / signhide / no-tskip / nr-intra=0 / nr-inter=0 / no-constrained-intra / no-strong-intra-smoothing / max-merge=3 / limit-refs=3 / limit-modes / me=3 / subme=3 / merange=57 / temporal-mvp / weightp / no-weightb / no-analyze-src-pics / deblock=-3:-3 / no-sao / no-sao-non-deblock / rd=4 / no-early-skip / rskip / no-fast-intra / no-tskip-fast / no-cu-lossless / no-b-intra / no-splitrd-skip / rdpenalty=0 / psy-rd=2.00 / psy-rdoq=1.00 / no-rd-refine / no-lossless / cbqpoffs=0 / crqpoffs=0 / rc=crf / crf=17.0 / qcomp=0.60 / qpstep=4 / stats-write=0 / stats-read=0 / vbv-maxrate=160000 / vbv-bufsize=160000 / vbv-init=0.9 / crf-max=0.0 / crf-min=0.0 / ipratio=1.40 / pbratio=1.30 / aq-mode=1 / aq-strength=1.00 / cutree / zone-count=0 / no-strict-cbr / qg-size=32 / no-rc-grain / qpmax=69 / qpmin=0 / no-const-vbv / sar=1 / overscan=0 / videoformat=5 / range=0 / colorprim=9 / transfer=16 / colormatrix=9 / chromaloc=1 / chromaloc-top=2 / chromaloc-bottom=2 / display-window=0 / master-display=G(13250,34500)B(7500,3000)R(34000,16000)WP(15635,16450)L(10000000,50) / max-cll=666,157 / min-luma=0 / max-luma=1023 / log2-max-poc-lsb=8 / vui-timing-info / vui-hrd-info / slices=1 / no-opt-qp-pps / no-opt-ref-list-length-pps / no-multi-pass-opt-rps / scenecut-bias=0.05 / no-opt-cu-delta-qp / no-aq-motion / hdr / hdr-opt / no-dhdr10-opt / no-idr-recovery-sei / analysis-reuse-level=5 / scale-factor=0 / refine-intra=0 / refine-inter=0 / refine-mv=0 / no-limit-sao / ctu-info=0 / no-lowpass-dct / refine-mv-type=0 / copy-pic=1 / max-ausize-factor=1.0 / no-dynamic-refine / no-single-sei
Default : Yes
Forced : No
Color range : Limited
Color primaries : BT.2020
Transfer characteristics : PQ
Matrix coefficients : BT.2020 non-constant
Mastering display color primaries : Display P3
Mastering display luminance : min: 0.0050 cd/m2, max: 1000 cd/m2
Maximum Content Light Level : 666 cd/m2
Maximum Frame-Average Light Level : 157 cd/m2

Audio
ID : 2
Format : DTS
Format/Info : Digital Theater Systems
Format profile : MA / Core
Codec ID : A_DTS
Duration : 1 h 38 min
Bit rate mode : Variable / Constant
Bit rate : 3 072 kb/s / 1 509 kb/s
Channel(s) : 6 channels
Channel positions : Front: L C R, Side: L R, LFE
Sampling rate : 48.0 kHz
Frame rate : 93.750 FPS (512 SPF)
Bit depth : 24 bits
Compression mode : Lossless / Lossy
Stream size : 2.14 GiB (9%)
Language : English
Default : Yes
Forced : No

Text #1
ID : 3
Format : PGS
Muxing mode : zlib
Codec ID : S_HDMV/PGS
Codec ID/Info : Picture based subtitle format used on BDs/HD-DVDs
Duration : 1 h 35 min
Bit rate : 43.4 kb/s
Count of elements : 2854
Stream size : 29.7 MiB (0%)
Language : English
Default : No
Forced : No

Text #2
ID : 4
Format : PGS
Muxing mode : zlib
Codec ID : S_HDMV/PGS
Codec ID/Info : Picture based subtitle format used on BDs/HD-DVDs
Duration : 1 h 36 min
Bit rate : 33.9 kb/s
Count of elements : 2552
Stream size : 23.5 MiB (0%)
Language : Spanish
Default : No
Forced : No

Text #3
ID : 5
Format : PGS
Muxing mode : zlib
Codec ID : S_HDMV/PGS
Codec ID/Info : Picture based subtitle format used on BDs/HD-DVDs
Duration : 1 h 36 min
Bit rate : 34.3 kb/s
Count of elements : 2556
Stream size : 23.7 MiB (0%)
Language : French
Default : No
Forced : No

Menu
00:00:00.000 : en:00:00:00.000
00:05:40.257 : en:00:05:40.257
00:10:21.913 : en:00:10:21.913
00:14:24.697 : en:00:14:24.697
00:19:26.332 : en:00:19:26.332
00:24:46.235 : en:00:24:46.235
00:29:10.165 : en:00:29:10.165
00:36:35.402 : en:00:36:35.402
00:40:25.089 : en:00:40:25.089
00:45:23.596 : en:00:45:23.596
00:50:14.803 : en:00:50:14.803
00:56:12.286 : en:00:56:12.286
00:59:06.835 : en:00:59:06.835
01:04:44.464 : en:01:04:44.464
01:07:30.046 : en:01:07:30.046
01:15:37.450 : en:01:15:37.450
01:23:25.334 : en:01:23:25.334
01:26:39.653 : en:01:26:39.653
01:30:23.168 : en:01:30:23.168
01:35:08.411 : en:01:35:08.411

Download

download 4k hdr movies download 4k hdr movies

Watch a movie trailer - Unsane 4K 2018 Ultra HD 2160p
Comments and Feedback
Add your comment:
Your name:
Your E-Mail:
Code:
reload, if the code cannot be seen
Enter code: