Select movie Search movie Close search My Account

Halloween 4K 1978 Ultra HD 2160p

Halloween 4K 1978 Ultra HD 2160p
BDRemux / BDRip
Country: USA
Time: 1h 31min
IMDB: 7.8
Director: John Carpenter
Actors: Donald Pleasence, Jamie Lee Curtis, Nancy Kyes, P.J. Soles, Charles Cyphers, Kyle Richards, Brian Andrews, John Michael, Nancy Stephens, Arthur Malet, Mickey Yablans, Brent Le Page, Adam Hollander, Robert Phalen, Tony Moran

Story Movie

Halloween 4K 1978 Ultra HD 2160p
Michael Myers, the protagonist of the movie Halloween 4k, commits the murder of his sister just on the eve of this holiday. But the young murderer manages to escape punishment and who would have thought. that, exactly 15 years later, having already become an adult, the maniac again will undertake to kill people, but now with special cruelty. For this, he escaped from a shelter and committed a series of daring crimes in the movie Halloween UHD.

Review 4K Movie

Autumn night. In the yard in 1963. The wind howls in the street. The cries of neighbors' children suggest - today is the eve of All Saints Day! While most people expect Halloween Ultra HD to cut out Jack’s flashlight, Michael Myers is equally eagerly waiting for him to cut some people. Here, he puts on a mask and slowly climbs the stairs. In his hands the blade of a kitchen knife gleams. Just a couple of seconds and Michael will carry out the death sentence.

Fifteen years after that day, Myers escapes from a psychiatric institution and returns to his hometown, where he is looking for suitable victims to throw out his accumulated internal anger.

Who would have guessed that the low-cost Halloween project would have such an impact on the film industry? Of course, neither director John Carpenter, nor his original audience, who probably left the cinema with a paranoid mood, could find a safe space for themselves and wrapped in a blanket as soon as possible to forget what they saw, they could not even guess about it. One of the obvious moments of the success of "Halloween" is the attention to detail, which manifests itself in each frame. For example, in Lori’s room, you can see a reproduction of a self-portrait of the Belgian expressionist painter James Ensor, who among other things depicted in his paintings by means of grotesque carnivals of clowns - a look at human society as a masquerade. The words of the English writer Oscar Wilde that “the mask is always more expressive than the face; a masked man becomes liberated and can express the most secret and vicious movements of his soul, which he would never do in his usual state, ”fully reflected the worldview of Ensor, who drew images from his childhood memories. Perhaps Michael also tried on only someone else’s mask, letting the demon who was sleeping in him break out ?! Myers has no motive, he just kills indiscriminately. Perhaps this is just someone's curse, in which Michael is only a machine enforcing instructions? A machine perceived as the pure embodiment of evil. He does not say a word, and only an icy look under the bleached mask of Captain Kirk appears to the gaze, but nevertheless one turn of his head creates greater tension and anxiety than the villains owning a chainsaw or machete. The camera floats somewhere behind Michael’s shoulder hoping to solve his riddle, but as a result he finds only new questions. We do not know when he will strike his blow again. Only a blurred silhouette of his shadow, ominously sliding along the walls of dark rooms, as well as a terrible musical score with sharp themes, can tell about the approaching moment.

Although there are many memorable scenes, the episode from the prologue is the most prominent, in which young Myers puts on a clown mask and kills his victim. Shooting is carried out on behalf of the killer, which allows the viewer to become an unwitting participant, immersing him in the very epicenter of events and giving a hint that what happened on the screen could happen to absolutely anyone. To reinforce this sense of identification with the screen characters, most of the film is engaged in creating their worldly lives. The cozy home spaces where they live create a sense of security that is lost overnight when Myers invades these shelters. Even if at first glance there is nothing here, or there is no one, one should not rejoice ahead of time, because Carpenter is likely to correct this little misunderstanding in the next second. A very successful accusation of a security institution that is ultimately incapable of protecting lives in unforeseen situations.

Carpenter, faithful to his Hitchcock influence, creates a cavalcade of moments mostly consisting of scenes of persecution, combined with clearly absent episodes of bloody violence, which concludes with a clear hit to the main theme - evil never dies. Where is Michael now, who is he and what about him? We will never know (at least in the first part), but his heavy breathing seems to be remembered for a long time.

Yes, Halloween 4k is not perfect. The characters here behave foolishly and seem to have no peripheral vision at all, but this is already a feature of the genre that did not prevent Carpenter’s work from becoming a classic of cinema. “Halloween UHD” is a film that really made a significant revolution in the horror genre, creating a platform not only for modern films, but also becoming the godfather of the slasher genre!

Mediainfo

movie BDRemux Video #1
ID : 1
Format : HEVC
Format/Info : High Efficiency Video Coding
Commercial name : HDR10
Format profile : Main 10@L5.1@High
Codec ID : V_MPEGH/ISO/HEVC
Duration : 1 h 31 min
Width : 3 840 pixels
Height : 2 160 pixels
Display aspect ratio : 16:9
Frame rate mode : Constant
Frame rate : 23.976 (24000/1001) FPS
Color space : YUV
Chroma subsampling : 4:2:0 (Type 2)
Bit depth : 10 bits
Title : Halloween.1978.2160p.BluRay.REMUX.HEVC.DTS-HD.MA.TrueHD.7.1.Atmos
Default : Yes
Forced : No
Color range : Limited
Color primaries : BT.2020
Transfer characteristics : PQ
Matrix coefficients : BT.2020 non-constant
Mastering display color primaries : Display P3
Mastering display luminance : min: 0.0001 cd/m2, max: 1000 cd/m2
Maximum Content Light Level : 1000 cd/m2
Maximum Frame-Average Light Level : 884 cd/m2

Video #2
ID : 2
Format : HEVC
Format/Info : High Efficiency Video Coding
Commercial name : HDR10
Format profile : Main 10@L5.1@High
Codec ID : V_MPEGH/ISO/HEVC
Duration : 1 h 31 min
Width : 1 920 pixels
Height : 1 080 pixels
Display aspect ratio : 16:9
Frame rate mode : Constant
Frame rate : 23.976 (24000/1001) FPS
Color space : YUV
Chroma subsampling : 4:2:0 (Type 2)
Bit depth : 10 bits
Title : Halloween.1978.2160p.BluRay.REMUX.HEVC.DTS-HD.MA.TrueHD.7.1.Atmos
Default : No
Forced : No
Color range : Limited
Color primaries : BT.2020
Transfer characteristics : PQ
Matrix coefficients : BT.2020 non-constant
Mastering display color primaries : Display P3
Mastering display luminance : min: 0.0001 cd/m2, max: 1000 cd/m2

Audio #1
ID : 3
Format : TrueHD
Codec ID : A_TRUEHD
Duration : 1 h 31 min
Bit rate mode : Variable
Maximum bit rate : 6 144 kb/s
Channel(s) : 8 channels
Channel positions : Front: L C R, Side: L R, Back: L R, LFE
Sampling rate : 48.0 kHz
Frame rate : 1 200.000 FPS (40 SPF)
Compression mode : Lossless
Title : Halloween.1978.2160p.BluRay.REMUX.HEVC.DTS-HD.MA.TrueHD.7.1.Atmos
Language : English
Default : Yes
Forced : No

Audio #2
ID : 4
Format : DTS
Format/Info : Digital Theater Systems
Format profile : MA / Core
Codec ID : A_DTS
Duration : 1 h 31 min
Bit rate mode : Variable / Constant
Bit rate : Unknown / 1 509 kb/s
Channel(s) : 8 channels / 6 channels
Channel positions : Front: L C R, Side: L R, Back: L R, LFE / Front: L C R, Side: L R, LFE
Sampling rate : 48.0 kHz
Frame rate : 93.750 FPS (512 SPF)
Bit depth : 24 bits
Compression mode : Lossless / Lossy
Delay relative to video : -9 ms
Title : Halloween.1978.2160p.BluRay.REMUX.HEVC.DTS-HD.MA.TrueHD.7.1.Atmos
Language : English
Default : No
Forced : No

Audio #3
ID : 5
Format : AC-3
Format/Info : Audio Coding 3
Codec ID : A_AC3
Duration : 1 h 31 min
Bit rate mode : Constant
Bit rate : 448 kb/s
Channel(s) : 6 channels
Channel positions : Front: L C R, Side: L R, LFE
Sampling rate : 48.0 kHz
Frame rate : 31.250 FPS (1536 SPF)
Bit depth : 16 bits
Compression mode : Lossy
Stream size : 294 MiB (1%)
Language : English
Service kind : Complete Main
Default : No
Forced : No

Audio #4
ID : 6
Format : AC-3
Format/Info : Audio Coding 3
Codec ID : A_AC3
Duration : 1 h 31 min
Bit rate mode : Constant
Bit rate : 384 kb/s
Channel(s) : 1 channel
Channel positions : Front: C
Sampling rate : 48.0 kHz
Frame rate : 31.250 FPS (1536 SPF)
Bit depth : 16 bits
Compression mode : Lossy
Delay relative to video : 23 ms
Stream size : 252 MiB (0%)
Language : English
Service kind : Complete Main
Default : No
Forced : No

Audio #5
ID : 7
Format : AC-3
Format/Info : Audio Coding 3
Codec ID : A_AC3
Duration : 1 h 31 min
Bit rate mode : Constant
Bit rate : 192 kb/s
Channel(s) : 2 channels
Channel positions : Front: L R
Sampling rate : 48.0 kHz
Frame rate : 31.250 FPS (1536 SPF)
Bit depth : 16 bits
Compression mode : Lossy
Delay relative to video : 23 ms
Stream size : 126 MiB (0%)
Language : English
Service kind : Complete Main
Default : No
Forced : No

Text #1
ID : 8
Format : PGS
Muxing mode : zlib
Codec ID : S_HDMV/PGS
Codec ID/Info : Picture based subtitle format used on BDs/HD-DVDs
Language : English
Default : Yes
Forced : No

Text #2
ID : 9
Format : PGS
Muxing mode : zlib
Codec ID : S_HDMV/PGS
Codec ID/Info : Picture based subtitle format used on BDs/HD-DVDs
Language : English
Default : No
Forced : No

Text #3
ID : 10
Format : PGS
Muxing mode : zlib
Codec ID : S_HDMV/PGS
Codec ID/Info : Picture based subtitle format used on BDs/HD-DVDs
Language : Spanish
Default : No
Forced : No

Menu
00:00:00.000 : :Chapter 1
00:07:21.566 : :Chapter 2
00:11:29.230 : :Chapter 3
00:16:46.755 : :Chapter 4
00:20:15.047 : :Chapter 5
00:28:26.996 : :Chapter 6
00:33:44.897 : :Chapter 7
00:40:19.834 : :Chapter 8
00:44:26.080 : :Chapter 9
00:49:25.629 : :Chapter 10
00:54:36.773 : :Chapter 11
01:00:41.596 : :Chapter 12
01:09:33.544 : :Chapter 13
01:13:16.058 : :Chapter 14
01:22:09.257 : :Chapter 15
01:27:56.896 : :Chapter 16
movie BDRip Video
ID : 1
Format : HEVC
Format/Info : High Efficiency Video Coding
Commercial name : HDR10
Format profile : Main 10@L5.1@High
Codec ID : V_MPEGH/ISO/HEVC
Duration : 1 h 31 min
Width : 3 840 pixels
Height : 1 634 pixels
Display aspect ratio : 2.35:1
Frame rate mode : Constant
Frame rate : 23.976 (24000/1001) FPS
Color space : YUV
Chroma subsampling : 4:2:0 (Type 2)
Bit depth : 10 bits
Writing library : x265 2.8+58-d17bc7714ed2:[Windows][GCC 8.2.0][64 bit] 10bit
Encoding settings : cpuid=1176575 / frame-threads=5 / numa-pools=36 / wpp / no-pmode / no-pme / no-psnr / no-ssim / log-level=2 / input-csp=1 / input-res=3840x1634 / interlace=0 / total-frames=131769 / level-idc=51 / high-tier=1 / uhd-bd=0 / ref=4 / no-allow-non-conformance / repeat-headers / annexb / aud / hrd / info / hash=0 / no-temporal-layers / no-open-gop / min-keyint=24 / keyint=240 / gop-lookahead=0 / bframes=4 / b-adapt=2 / b-pyramid / bframe-bias=0 / rc-lookahead=25 / lookahead-slices=4 / scenecut=40 / radl=0 / no-intra-refresh / ctu=64 / min-cu-size=8 / rect / no-amp / max-tu-size=32 / tu-inter-depth=1 / tu-intra-depth=1 / limit-tu=0 / rdoq-level=2 / dynamic-rd=0.00 / no-ssim-rd / signhide / no-tskip / nr-intra=0 / nr-inter=0 / no-constrained-intra / no-strong-intra-smoothing / max-merge=3 / limit-refs=3 / limit-modes / me=3 / subme=3 / merange=57 / temporal-mvp / weightp / no-weightb / no-analyze-src-pics / deblock=-3:-3 / no-sao / no-sao-non-deblock / rd=4 / no-early-skip / rskip / no-fast-intra / no-tskip-fast / no-cu-lossless / no-b-intra / no-splitrd-skip / rdpenalty=0 / psy-rd=2.00 / psy-rdoq=1.00 / no-rd-refine / no-lossless / cbqpoffs=0 / crqpoffs=0 / rc=crf / crf=17.0 / qcomp=0.60 / qpstep=4 / stats-write=0 / stats-read=0 / vbv-maxrate=160000 / vbv-bufsize=160000 / vbv-init=0.9 / crf-max=0.0 / crf-min=0.0 / ipratio=1.40 / pbratio=1.30 / aq-mode=1 / aq-strength=1.00 / cutree / zone-count=0 / no-strict-cbr / qg-size=32 / no-rc-grain / qpmax=69 / qpmin=0 / no-const-vbv / sar=1 / overscan=0 / videoformat=5 / range=0 / colorprim=9 / transfer=16 / colormatrix=9 / chromaloc=1 / chromaloc-top=2 / chromaloc-bottom=2 / display-window=0 / master-display=G(13250,34500)B(7500,3000)R(34000,16000)WP(15635,16450)L(10000000,1) / max-cll=1000,884 / min-luma=0 / max-luma=1023 / log2-max-poc-lsb=8 / vui-timing-info / vui-hrd-info / slices=1 / no-opt-qp-pps / no-opt-ref-list-length-pps / no-multi-pass-opt-rps / scenecut-bias=0.05 / no-opt-cu-delta-qp / no-aq-motion / hdr / hdr-opt / no-dhdr10-opt / no-idr-recovery-sei / analysis-reuse-level=5 / scale-factor=0 / refine-intra=0 / refine-inter=0 / refine-mv=0 / no-limit-sao / ctu-info=0 / no-lowpass-dct / refine-mv-type=0 / copy-pic=1 / max-ausize-factor=1.0 / no-dynamic-refine / no-single-sei
Default : Yes
Forced : No
Color range : Limited
Color primaries : BT.2020
Transfer characteristics : PQ
Matrix coefficients : BT.2020 non-constant
Statistics Tags Issue : no_variable_data 1970-01-01 00:00:00 / no_variable_data 2010-02-22 21:41:29
FromStats_BitRate : 42135993
FromStats_Duration : 01:31:35.866000000
FromStats_FrameCount : 131769
FromStats_StreamSize : 28946721584
Mastering display color primaries : Display P3
Mastering display luminance : min: 0.0001 cd/m2, max: 1000 cd/m2
Maximum Content Light Level : 1000 cd/m2
Maximum Frame-Average Light Level : 884 cd/m2

Audio #1
ID : 2
Format : TrueHD
Codec ID : A_TRUEHD
Duration : 1 h 31 min
Bit rate mode : Variable
Maximum bit rate : 6 144 kb/s
Channel(s) : 8 channels
Channel positions : Front: L C R, Side: L R, Back: L R, LFE
Sampling rate : 48.0 kHz
Frame rate : 1 200.000 FPS (40 SPF)
Compression mode : Lossless
Title : Atmos 7.1
Language : English
Default : Yes
Forced : No
Statistics Tags Issue : no_variable_data 1970-01-01 00:00:00 / no_variable_data 2010-02-22 21:41:29
FromStats_BitRate : 4615223
FromStats_Duration : 01:31:35.866000000
FromStats_FrameCount : 6595039
FromStats_StreamSize : 3170581268

Audio #2
ID : 3
Format : AC-3
Format/Info : Audio Coding 3
Codec ID : A_AC3
Duration : 1 h 31 min
Bit rate mode : Constant
Bit rate : 640 kb/s
Channel(s) : 6 channels
Channel positions : Front: L C R, Side: L R, LFE
Sampling rate : 48.0 kHz
Frame rate : 31.250 FPS (1536 SPF)
Bit depth : 16 bits
Compression mode : Lossy
Stream size : 419 MiB (1%)
Title : AC-3 5.1
Language : English
Service kind : Complete Main
Default : No
Forced : No
Statistics Tags Issue : no_variable_data 1970-01-01 00:00:00 / no_variable_data 2010-02-22 21:41:29
FromStats_BitRate : 640000
FromStats_Duration : 01:31:35.872000000
FromStats_FrameCount : 171746
FromStats_StreamSize : 439669760

Audio #3
ID : 4
Format : AC-3
Format/Info : Audio Coding 3
Codec ID : A_AC3
Duration : 1 h 31 min
Bit rate mode : Constant
Bit rate : 384 kb/s
Channel(s) : 1 channel
Channel positions : Front: C
Sampling rate : 48.0 kHz
Frame rate : 31.250 FPS (1536 SPF)
Bit depth : 16 bits
Compression mode : Lossy
Stream size : 252 MiB (1%)
Title : AC-3 Mono 1.0
Language : English
Service kind : Complete Main
Default : No
Forced : No
Statistics Tags Issue : no_variable_data 1970-01-01 00:00:00 / no_variable_data 2010-02-22 21:41:29
FromStats_BitRate : 384000
FromStats_Duration : 01:31:35.904000000
FromStats_FrameCount : 171747
FromStats_StreamSize : 263803392

Audio #4
ID : 5
Format : AC-3
Format/Info : Audio Coding 3
Codec ID : A_AC3
Duration : 1 h 31 min
Bit rate mode : Constant
Bit rate : 192 kb/s
Channel(s) : 2 channels
Channel positions : Front: L R
Sampling rate : 48.0 kHz
Frame rate : 31.250 FPS (1536 SPF)
Bit depth : 16 bits
Compression mode : Lossy
Stream size : 126 MiB (0%)
Title : Commentary with writer director John Carpenter and actress Jamie Lee Curtis
Language : English
Service kind : Complete Main
Default : No
Forced : No
Statistics Tags Issue : no_variable_data 1970-01-01 00:00:00 / no_variable_data 2010-02-22 21:41:29
FromStats_BitRate : 192000
FromStats_Duration : 01:31:35.904000000
FromStats_FrameCount : 171747
FromStats_StreamSize : 131901696

Text #1
ID : 6
Format : UTF-8
Codec ID : S_TEXT/UTF8
Codec ID/Info : UTF-8 Plain Text
Title : Stripped SRT
Language : English
Default : No
Forced : No
Statistics Tags Issue : no_variable_data 1970-01-01 00:00:00 / no_variable_data 2010-02-22 21:41:29
FromStats_BitRate : 39
FromStats_Duration : 01:25:21.700000000
FromStats_FrameCount : 703
FromStats_StreamSize : 25223

Text #2
ID : 7
Format : UTF-8
Codec ID : S_TEXT/UTF8
Codec ID/Info : UTF-8 Plain Text
Title : Full SRT
Language : English
Default : No
Forced : No
Statistics Tags Issue : no_variable_data 1970-01-01 00:00:00 / no_variable_data 2010-02-22 21:41:29
FromStats_BitRate : 39
FromStats_Duration : 01:25:21.700000000
FromStats_FrameCount : 698
FromStats_StreamSize : 25101

Text #3
ID : 8
Format : PGS
Muxing mode : zlib
Codec ID : S_HDMV/PGS
Codec ID/Info : Picture based subtitle format used on BDs/HD-DVDs
Title : Full
Language : English
Default : No
Forced : No
Statistics Tags Issue : no_variable_data 1970-01-01 00:00:00 / no_variable_data 2010-02-22 21:41:29
FromStats_BitRate : 23469
FromStats_Duration : 01:25:21.700000000
FromStats_FrameCount : 1396
FromStats_StreamSize : 15025735

Text #4
ID : 9
Format : UTF-8
Codec ID : S_TEXT/UTF8
Codec ID/Info : UTF-8 Plain Text
Title : SDH SRT
Language : English
Default : No
Forced : No
Statistics Tags Issue : no_variable_data 1970-01-01 00:00:00 / no_variable_data 2010-02-22 21:41:29
FromStats_BitRate : 43
FromStats_Duration : 01:28:41.691000000
FromStats_FrameCount : 888
FromStats_StreamSize : 29071

Text #5
ID : 10
Format : PGS
Muxing mode : zlib
Codec ID : S_HDMV/PGS
Codec ID/Info : Picture based subtitle format used on BDs/HD-DVDs
Title : SDH
Language : English
Default : No
Forced : No
Statistics Tags Issue : no_variable_data 1970-01-01 00:00:00 / no_variable_data 2010-02-22 21:41:29
FromStats_BitRate : 26522
FromStats_Duration : 01:28:41.692000000
FromStats_FrameCount : 1776
FromStats_StreamSize : 17643014

Text #6
ID : 11
Format : PGS
Muxing mode : zlib
Codec ID : S_HDMV/PGS
Codec ID/Info : Picture based subtitle format used on BDs/HD-DVDs
Language : Spanish
Default : No
Forced : No
Statistics Tags Issue : no_variable_data 1970-01-01 00:00:00 / no_variable_data 2010-02-22 21:41:29
FromStats_BitRate : 22421
FromStats_Duration : 01:25:21.700000000
FromStats_FrameCount : 1376
FromStats_StreamSize : 14354583

Menu
00:00:00.000 : :00:00:00.000
00:07:21.566 : :00:07:21.566
00:11:29.230 : :00:11:29.230
00:16:46.756 : :00:16:46.756
00:20:15.047 : :00:20:15.047
00:28:26.997 : :00:28:26.997
00:33:44.898 : :00:33:44.898
00:40:19.834 : :00:40:19.834
00:44:26.080 : :00:44:26.080
00:49:25.629 : :00:49:25.629
00:54:36.773 : :00:54:36.773
01:00:41.596 : :01:00:41.596
01:09:33.544 : :01:09:33.544
01:13:16.058 : :01:13:16.058
01:22:09.258 : :01:22:09.258
01:27:56.897 : :01:27:56.897

Download

download 4k hdr movies download 4k hdr movies

Watch a movie trailer - Halloween 4K 1978 Ultra HD 2160p
Comments and Feedback
Add your comment:
Your name:
Your E-Mail:
Code:
reload, if the code cannot be seen
Enter code: