Select movie Search movie Close search My Account

Rise of the Planet of the Apes 4K 2011 Ultra HD 2160p

Rise of the Planet of the Apes 4K 2011 Ultra HD 2160p
BDRemux / BDRip
Country: USA
Time: 1h 45min
IMDB: 7.6
Director: Rupert Wyatt
Actors: Andy Serkis, Karin Konoval, Terry Notary, Richard Ridings, Christopher Gordon, Devyn Dalton, Jay Caputo, James Franco, Freida Pinto, John Lithgow, Brian Cox, Tom Felton, David Oyelowo, Tyler Labine, Jamie Harris...

Story Movie

A substance designed to help the brain repair itself gives rise to a super-intelligent chimpanzee who leads an ape uprising.

At the story's heart is Caesar (Andy Serkis), a chimpanzee who gains human-like intelligence and emotions from an experimental drug. Raised like a child by the drug's creator, Will Rodman (James Franco) and a primatologist Caroline Aranha (Freida Pinto), Caesar ultimately finds himself taken from the humans he loves and imprisoned in an ape sanctuary in San Bruno. Seeking justice for his fellow inmates, Caesar gives the fellow apes the same drug that he inherited. He then assembles a simian army and escapes the sanctuary - putting man and ape on a collision course that could change the planet forever.

Review 4K Movie

I had extremely low expectations for Rise of the Planet of the Apes (2011). I loved the original 1968 classic, but every sequel/remake after it sucked. I was surprised they were going to make a prequel of the classic and I thought it was a good idea. But still after so many bad sequels and remakes, I still had my big doubts. Also I didn't like how the monkeys were made by CGI/Special Effects, why not use a robotic monkey or a real one, it would look more real.

After my viewing of the film, I was pleasantly surprised and I liked it overall. But there were definitely flaws in the movie, no doubt about it. The characters were a bit uninteresting at times, there were subplots that went pretty much nowhere and indicated that there could sequels in the works, but it all depends on how much money it makes. The movie, at some points turned to an average summer blockbuster with all the action scenes and explosions, but it redeems itself later on.

However there are plenty of positive qualities, the movie has. Andy Serkis delivers a great performance as the lead ape in the film and is pretty much the star of the film. James Franco and Freida Pinto, both did a good job portraying their characters. The movie also poses ethical/moral questions, which I found very interesting. The movie is easily on of the most thrilling films we've had this summer. Finally a movie that pays respect to the 1968 original science fiction classic!

Mediainfo

movie BDRemux Video
ID : 1
Format : HEVC
Format/Info : High Efficiency Video Coding
Format profile : Main 10@L5.1@High
Codec ID : V_MPEGH/ISO/HEVC
Duration : 1 h 44 min
Bit rate : 35.0 Mb/s
Width : 3 840 pixels
Height : 2 160 pixels
Display aspect ratio : 16:9
Frame rate mode : Constant
Frame rate : 23.976 (24000/1001) FPS
Color space : YUV
Chroma subsampling : 4:2:0 (Type 2)
Bit depth : 10 bits
Bits/(Pixel*Frame) : 0.176
Stream size : 25.6 GiB (79%)
Title : Rise.of.the.Planet.of.the.Apes.2011.2160p.BluRay.REMUX.HEVC.DTS-HD.MA.5.1-FGT
Writing library : ATEME Titan File 3.7.8 (4.7.8.0)
Default : Yes
Forced : No
Color range : Limited
Color primaries : BT.2020
Transfer characteristics : PQ
Matrix coefficients : BT.2020 non-constant
Mastering display color primaries : R: x=0.680000 y=0.320000, G: x=0.265000 y=0.690000, B: x=0.150000 y=0.060000, White point: x=0.312700 y=0.329000
Mastering display luminance : min: 0.0000 cd/m2, max: 1000.0000 cd/m2

Audio #1
ID : 2
Format : DTS
Format/Info : Digital Theater Systems
Format profile : MA / Core
Codec ID : A_DTS
Duration : 1 h 44 min
Bit rate mode : Variable / Constant
Bit rate : 4 008 kb/s / 1 509 kb/s
Channel(s) : 6 channels
Channel positions : Front: L C R, Side: L R, LFE
Sampling rate : 48.0 kHz
Frame rate : 93.750 FPS (512 SPF)
Bit depth : 24 bits
Compression mode : Lossless / Lossy
Stream size : 2.94 GiB (9%)
Title : Rise.of.the.Planet.of.the.Apes.2011.2160p.BluRay.REMUX.HEVC.DTS-HD.MA.5.1-FGT
Language : English
Default : Yes
Forced : No

Audio #2
ID : 3
Format : AC-3
Format/Info : Audio Coding 3
Codec ID : A_AC3
Duration : 1 h 44 min
Bit rate mode : Constant
Bit rate : 448 kb/s
Channel(s) : 6 channels
Channel positions : Front: L C R, Side: L R, LFE
Sampling rate : 48.0 kHz
Frame rate : 31.250 FPS (1536 SPF)
Bit depth : 16 bits
Compression mode : Lossy
Stream size : 336 MiB (1%)
Title : Rise.of.the.Planet.of.the.Apes.2011.2160p.BluRay.REMUX.HEVC.DTS-HD.MA.5.1-FGT
Language : English
Service kind : Complete Main
Default : No
Forced : No

Audio #3
ID : 4
Format : AC-3
Format/Info : Audio Coding 3
Codec ID : A_AC3
Duration : 1 h 44 min
Bit rate mode : Constant
Bit rate : 448 kb/s
Channel(s) : 6 channels
Channel positions : Front: L C R, Side: L R, LFE
Sampling rate : 48.0 kHz
Frame rate : 31.250 FPS (1536 SPF)
Bit depth : 16 bits
Compression mode : Lossy
Stream size : 336 MiB (1%)
Title : Rise.of.the.Planet.of.the.Apes.2011.2160p.BluRay.REMUX.HEVC.DTS-HD.MA.5.1-FGT
Language : Spanish
Service kind : Complete Main
Default : No
Forced : No

Audio #4
ID : 5
Format : DTS
Format/Info : Digital Theater Systems
Codec ID : A_DTS
Duration : 1 h 44 min
Bit rate mode : Constant
Bit rate : 768 kb/s
Channel(s) : 6 channels
Channel positions : Front: L C R, Side: L R, LFE
Sampling rate : 48.0 kHz
Frame rate : 93.750 FPS (512 SPF)
Bit depth : 24 bits
Compression mode : Lossy
Stream size : 576 MiB (2%)
Title : Rise.of.the.Planet.of.the.Apes.2011.2160p.BluRay.REMUX.HEVC.DTS-HD.MA.5.1-FGT
Language : French
Default : No
Forced : No

Audio #5
ID : 6
Format : DTS
Format/Info : Digital Theater Systems
Codec ID : A_DTS
Duration : 1 h 44 min
Bit rate mode : Constant
Bit rate : 768 kb/s
Channel(s) : 6 channels
Channel positions : Front: L C R, Side: L R, LFE
Sampling rate : 48.0 kHz
Frame rate : 93.750 FPS (512 SPF)
Bit depth : 24 bits
Compression mode : Lossy
Stream size : 576 MiB (2%)
Title : Rise.of.the.Planet.of.the.Apes.2011.2160p.BluRay.REMUX.HEVC.DTS-HD.MA.5.1-FGT
Language : Spanish
Default : No
Forced : No

Audio #6
ID : 7
Format : DTS
Format/Info : Digital Theater Systems
Codec ID : A_DTS
Duration : 1 h 44 min
Bit rate mode : Constant
Bit rate : 768 kb/s
Channel(s) : 6 channels
Channel positions : Front: L C R, Side: L R, LFE
Sampling rate : 48.0 kHz
Frame rate : 93.750 FPS (512 SPF)
Bit depth : 24 bits
Compression mode : Lossy
Stream size : 576 MiB (2%)
Title : Rise.of.the.Planet.of.the.Apes.2011.2160p.BluRay.REMUX.HEVC.DTS-HD.MA.5.1-FGT
Language : German
Default : No
Forced : No

Audio #7
ID : 8
Format : DTS
Format/Info : Digital Theater Systems
Codec ID : A_DTS
Duration : 1 h 44 min
Bit rate mode : Constant
Bit rate : 768 kb/s
Channel(s) : 6 channels
Channel positions : Front: L C R, Side: L R, LFE
Sampling rate : 48.0 kHz
Frame rate : 93.750 FPS (512 SPF)
Bit depth : 24 bits
Compression mode : Lossy
Stream size : 576 MiB (2%)
Title : Rise.of.the.Planet.of.the.Apes.2011.2160p.BluRay.REMUX.HEVC.DTS-HD.MA.5.1-FGT
Language : Italian
Default : No
Forced : No

Audio #8
ID : 9
Format : DTS
Format/Info : Digital Theater Systems
Codec ID : A_DTS
Duration : 1 h 44 min
Bit rate mode : Constant
Bit rate : 768 kb/s
Channel(s) : 6 channels
Channel positions : Front: L C R, Side: L R, LFE
Sampling rate : 48.0 kHz
Frame rate : 93.750 FPS (512 SPF)
Bit depth : 24 bits
Compression mode : Lossy
Stream size : 576 MiB (2%)
Title : Rise.of.the.Planet.of.the.Apes.2011.2160p.BluRay.REMUX.HEVC.DTS-HD.MA.5.1-FGT
Language : Japanese
Default : No
Forced : No

Audio #9
ID : 10
Format : AC-3
Format/Info : Audio Coding 3
Codec ID : A_AC3
Duration : 1 h 44 min
Bit rate mode : Constant
Bit rate : 224 kb/s
Channel(s) : 2 channels
Channel positions : Front: L R
Sampling rate : 48.0 kHz
Frame rate : 31.250 FPS (1536 SPF)
Bit depth : 16 bits
Compression mode : Lossy
Stream size : 168 MiB (1%)
Title : Rise.of.the.Planet.of.the.Apes.2011.2160p.BluRay.REMUX.HEVC.DTS-HD.MA.5.1-FGT
Language : English
Service kind : Complete Main
Default : No
Forced : No

Audio #10
ID : 11
Format : AC-3
Format/Info : Audio Coding 3
Codec ID : A_AC3
Duration : 1 h 44 min
Bit rate mode : Constant
Bit rate : 224 kb/s
Channel(s) : 2 channels
Channel positions : Front: L R
Sampling rate : 48.0 kHz
Frame rate : 31.250 FPS (1536 SPF)
Bit depth : 16 bits
Compression mode : Lossy
Stream size : 168 MiB (1%)
Title : Rise.of.the.Planet.of.the.Apes.2011.2160p.BluRay.REMUX.HEVC.DTS-HD.MA.5.1-FGT
Language : English
Service kind : Complete Main
Default : No
Forced : No

Text #1
ID : 12
Format : PGS
Muxing mode : zlib
Codec ID : S_HDMV/PGS
Codec ID/Info : Picture based subtitle format used on BDs/HD-DVDs
Duration : 1 h 43 min
Bit rate : 24.5 kb/s
Count of elements : 2076
Stream size : 18.1 MiB (0%)
Title : English-PGS
Language : English
Default : Yes
Forced : No

Text #2
ID : 13
Format : PGS
Muxing mode : zlib
Codec ID : S_HDMV/PGS
Codec ID/Info : Picture based subtitle format used on BDs/HD-DVDs
Duration : 1 h 35 min
Bit rate : 12.9 kb/s
Count of elements : 1417
Stream size : 8.82 MiB (0%)
Title : Japanese-PGS
Language : Japanese
Default : No
Forced : No

Text #3
ID : 14
Format : PGS
Muxing mode : zlib
Codec ID : S_HDMV/PGS
Codec ID/Info : Picture based subtitle format used on BDs/HD-DVDs
Duration : 1 h 28 min
Bit rate : 598 b/s
Count of elements : 56
Stream size : 389 KiB (0%)
Title : Japanese-PGS
Language : Japanese
Default : No
Forced : No

Text #4
ID : 15
Format : PGS
Muxing mode : zlib
Codec ID : S_HDMV/PGS
Codec ID/Info : Picture based subtitle format used on BDs/HD-DVDs
Duration : 1 h 43 min
Bit rate : 19.8 kb/s
Count of elements : 1624
Stream size : 14.7 MiB (0%)
Title : Spanish-PGS
Language : Spanish
Default : No
Forced : No

Text #5
ID : 16
Format : PGS
Muxing mode : zlib
Codec ID : S_HDMV/PGS
Codec ID/Info : Picture based subtitle format used on BDs/HD-DVDs
Duration : 1 h 43 min
Bit rate : 14.1 kb/s
Count of elements : 1358
Stream size : 10.5 MiB (0%)
Title : French-PGS
Language : French
Default : No
Forced : No

Text #6
ID : 17
Format : PGS
Muxing mode : zlib
Codec ID : S_HDMV/PGS
Codec ID/Info : Picture based subtitle format used on BDs/HD-DVDs
Duration : 1 h 41 min
Bit rate : 20.1 kb/s
Count of elements : 1652
Stream size : 14.7 MiB (0%)
Title : Spanish-PGS
Language : Spanish
Default : No
Forced : No

Text #7
ID : 18
Format : PGS
Muxing mode : zlib
Codec ID : S_HDMV/PGS
Codec ID/Info : Picture based subtitle format used on BDs/HD-DVDs
Duration : 1 h 41 min
Bit rate : 17.6 kb/s
Count of elements : 1366
Stream size : 12.8 MiB (0%)
Title : Danish-PGS
Language : Danish
Default : No
Forced : No

Text #8
ID : 19
Format : PGS
Muxing mode : zlib
Codec ID : S_HDMV/PGS
Codec ID/Info : Picture based subtitle format used on BDs/HD-DVDs
Duration : 1 h 41 min
Bit rate : 15.6 kb/s
Count of elements : 1440
Stream size : 11.4 MiB (0%)
Title : Dutch-PGS
Language : Dutch
Default : No
Forced : No

Text #9
ID : 20
Format : PGS
Muxing mode : zlib
Codec ID : S_HDMV/PGS
Codec ID/Info : Picture based subtitle format used on BDs/HD-DVDs
Duration : 1 h 43 min
Bit rate : 15.4 kb/s
Count of elements : 1346
Stream size : 11.4 MiB (0%)
Title : Finnish-PGS
Language : Finnish
Default : No
Forced : No

Text #10
ID : 21
Format : PGS
Muxing mode : zlib
Codec ID : S_HDMV/PGS
Codec ID/Info : Picture based subtitle format used on BDs/HD-DVDs
Duration : 1 h 41 min
Bit rate : 19.2 kb/s
Count of elements : 1604
Stream size : 14.0 MiB (0%)
Title : German-PGS
Language : German
Default : No
Forced : No

Text #11
ID : 22
Format : PGS
Muxing mode : zlib
Codec ID : S_HDMV/PGS
Codec ID/Info : Picture based subtitle format used on BDs/HD-DVDs
Duration : 1 h 41 min
Bit rate : 19.3 kb/s
Count of elements : 1650
Stream size : 14.0 MiB (0%)
Title : Italian-PGS
Language : Italian
Default : No
Forced : No

Text #12
ID : 23
Format : PGS
Muxing mode : zlib
Codec ID : S_HDMV/PGS
Codec ID/Info : Picture based subtitle format used on BDs/HD-DVDs
Duration : 1 h 41 min
Bit rate : 17.1 kb/s
Count of elements : 1674
Stream size : 12.5 MiB (0%)
Title : Norwegian-PGS
Language : Norwegian
Default : No
Forced : No

Text #13
ID : 24
Format : PGS
Muxing mode : zlib
Codec ID : S_HDMV/PGS
Codec ID/Info : Picture based subtitle format used on BDs/HD-DVDs
Duration : 1 h 43 min
Bit rate : 15.4 kb/s
Count of elements : 1150
Stream size : 11.4 MiB (0%)
Title : Swedish-PGS
Language : Swedish
Default : No
Forced : No

Text #14
ID : 25
Format : PGS
Muxing mode : zlib
Codec ID : S_HDMV/PGS
Codec ID/Info : Picture based subtitle format used on BDs/HD-DVDs
Duration : 1 h 43 min
Bit rate : 13.7 kb/s
Count of elements : 1712
Stream size : 10.2 MiB (0%)
Title : Chinese-PGS
Language : Chinese
Default : No
Forced : No

Text #15
ID : 26
Format : PGS
Muxing mode : zlib
Codec ID : S_HDMV/PGS
Codec ID/Info : Picture based subtitle format used on BDs/HD-DVDs
Duration : 1 h 43 min
Bit rate : 15.7 kb/s
Count of elements : 1860
Stream size : 11.7 MiB (0%)
Title : Chinese-PGS
Language : Chinese
Default : No
Forced : No

Text #16
ID : 27
Format : PGS
Muxing mode : zlib
Codec ID : S_HDMV/PGS
Codec ID/Info : Picture based subtitle format used on BDs/HD-DVDs
Duration : 55 min 48 s
Bit rate : 169 b/s
Count of elements : 20
Stream size : 69.4 KiB (0%)
Title : English-FORCED-PGS
Language : English
Default : No
Forced : No

Text #17
ID : 28
Format : PGS
Muxing mode : zlib
Codec ID : S_HDMV/PGS
Codec ID/Info : Picture based subtitle format used on BDs/HD-DVDs
Duration : 1 h 38 min
Bit rate : 24.0 kb/s
Count of elements : 1550
Stream size : 16.9 MiB (0%)
Title : Japanese-FORCED-PGS
Language : Japanese
Default : No
Forced : No

Text #18
ID : 29
Format : PGS
Muxing mode : zlib
Codec ID : S_HDMV/PGS
Codec ID/Info : Picture based subtitle format used on BDs/HD-DVDs
Duration : 1 h 44 min
Bit rate : 53.8 kb/s
Count of elements : 2986
Stream size : 40.2 MiB (0%)
Title : English-SDH-PGS
Language : English
Default : No
Forced : No

Text #19
ID : 30
Format : PGS
Muxing mode : zlib
Codec ID : S_HDMV/PGS
Codec ID/Info : Picture based subtitle format used on BDs/HD-DVDs
Duration : 1 h 44 min
Bit rate : 47.7 kb/s
Count of elements : 2802
Stream size : 35.7 MiB (0%)
Title : Spanish-SDH-PGS
Language : Spanish
Default : No
Forced : No

Text #20
ID : 31
Format : PGS
Muxing mode : zlib
Codec ID : S_HDMV/PGS
Codec ID/Info : Picture based subtitle format used on BDs/HD-DVDs
Duration : 1 h 44 min
Bit rate : 41.8 kb/s
Count of elements : 2804
Stream size : 31.2 MiB (0%)
Title : French-SDH-PGS
Language : French
Default : No
Forced : No

Text #21
ID : 32
Format : PGS
Muxing mode : zlib
Codec ID : S_HDMV/PGS
Codec ID/Info : Picture based subtitle format used on BDs/HD-DVDs
Duration : 1 h 44 min
Bit rate : 47.3 kb/s
Count of elements : 2804
Stream size : 35.3 MiB (0%)
Title : Spanish-SDH-PGS
Language : Spanish
Default : No
Forced : No

Text #22
ID : 33
Format : PGS
Muxing mode : zlib
Codec ID : S_HDMV/PGS
Codec ID/Info : Picture based subtitle format used on BDs/HD-DVDs
Duration : 1 h 44 min
Bit rate : 49.7 kb/s
Count of elements : 2800
Stream size : 37.1 MiB (0%)
Title : German-SDH-PGS
Language : German
Default : No
Forced : No

Text #23
ID : 34
Format : PGS
Muxing mode : zlib
Codec ID : S_HDMV/PGS
Codec ID/Info : Picture based subtitle format used on BDs/HD-DVDs
Duration : 1 h 44 min
Bit rate : 43.8 kb/s
Count of elements : 2802
Stream size : 32.7 MiB (0%)
Title : Italian-SDH-PGS
Language : Italian
Default : No
Forced : No

Text #24
ID : 35
Format : PGS
Muxing mode : zlib
Codec ID : S_HDMV/PGS
Codec ID/Info : Picture based subtitle format used on BDs/HD-DVDs
Duration : 1 h 43 min
Bit rate : 34.1 kb/s
Count of elements : 2146
Stream size : 25.4 MiB (0%)
Title : Japanese-SDH-PGS
Language : Japanese
Default : No
Forced : No

Text #25
ID : 36
Format : PGS
Muxing mode : zlib
Codec ID : S_HDMV/PGS
Codec ID/Info : Picture based subtitle format used on BDs/HD-DVDs
Duration : 1 h 44 min
Bit rate : 68.3 kb/s
Count of elements : 3552
Stream size : 51.2 MiB (0%)
Title : English-COMMENTARY-PGS
Language : English
Default : No
Forced : No

Text #26
ID : 37
Format : PGS
Muxing mode : zlib
Codec ID : S_HDMV/PGS
Codec ID/Info : Picture based subtitle format used on BDs/HD-DVDs
Duration : 1 h 44 min
Bit rate : 59.2 kb/s
Count of elements : 3406
Stream size : 44.4 MiB (0%)
Title : Spanish-COMMENTARY-PGS
Language : Spanish
Default : No
Forced : No

Text #27
ID : 38
Format : PGS
Muxing mode : zlib
Codec ID : S_HDMV/PGS
Codec ID/Info : Picture based subtitle format used on BDs/HD-DVDs
Duration : 1 h 44 min
Bit rate : 55.8 kb/s
Count of elements : 3408
Stream size : 41.9 MiB (0%)
Title : French-COMMENTARY-PGS
Language : French
Default : No
Forced : No

Text #28
ID : 39
Format : PGS
Muxing mode : zlib
Codec ID : S_HDMV/PGS
Codec ID/Info : Picture based subtitle format used on BDs/HD-DVDs
Duration : 1 h 44 min
Bit rate : 59.7 kb/s
Count of elements : 3408
Stream size : 44.7 MiB (0%)
Title : Spanish-COMMENTARY-PGS
Language : Spanish
Default : No
Forced : No

Text #29
ID : 40
Format : PGS
Muxing mode : zlib
Codec ID : S_HDMV/PGS
Codec ID/Info : Picture based subtitle format used on BDs/HD-DVDs
Duration : 1 h 44 min
Bit rate : 57.9 kb/s
Count of elements : 3402
Stream size : 43.4 MiB (0%)
Title : German-COMMENTARY-PGS
Language : German
Default : No
Forced : No

Text #30
ID : 41
Format : PGS
Muxing mode : zlib
Codec ID : S_HDMV/PGS
Codec ID/Info : Picture based subtitle format used on BDs/HD-DVDs
Duration : 1 h 44 min
Bit rate : 56.6 kb/s
Count of elements : 3402
Stream size : 42.5 MiB (0%)
Title : Italian-COMMENTARY-PGS
Language : Italian
Default : No
Forced : No

Menu
00:00:00.000 : en:Chapter 1
00:05:24.407 : en:Chapter 2
00:09:17.974 : en:Chapter 3
00:14:19.066 : en:Chapter 4
00:18:07.544 : en:Chapter 5
00:20:03.785 : en:Chapter 6
00:22:38.148 : en:Chapter 7
00:25:17.015 : en:Chapter 8
00:29:42.655 : en:Chapter 9
00:33:38.266 : en:Chapter 10
00:38:29.098 : en:Chapter 11
00:41:12.595 : en:Chapter 12
00:45:19.007 : en:Chapter 13
00:48:50.177 : en:Chapter 14
00:52:56.631 : en:Chapter 15
00:57:30.280 : en:Chapter 16
00:59:26.729 : en:Chapter 17
01:01:30.144 : en:Chapter 18
01:05:03.608 : en:Chapter 19
01:06:20.267 : en:Chapter 20
01:09:34.962 : en:Chapter 21
01:11:15.688 : en:Chapter 22
01:15:44.122 : en:Chapter 23
01:18:29.204 : en:Chapter 24
01:23:09.275 : en:Chapter 25
01:27:50.390 : en:Chapter 26
01:33:00.366 : en:Chapter 27
01:37:08.948 : en:Chapter 28
movie BDRip Video
ID : 1
Format : HEVC
Format/Info : High Efficiency Video Coding
Format profile : Main 10@L5.1@High
Codec ID : V_MPEGH/ISO/HEVC
Duration : 1 h 44 min
Bit rate : 18.0 Mb/s
Width : 3 840 pixels
Height : 1 636 pixels
Display aspect ratio : 2.35:1
Frame rate mode : Constant
Frame rate : 23.976 (24000/1001) FPS
Color space : YUV
Chroma subsampling : 4:2:0 (Type 2)
Bit depth : 10 bits
Bits/(Pixel*Frame) : 0.119
Stream size : 13.2 GiB (80%)
Writing library : x265 2.5+38-8a121d8cc134:[Windows][GCC 6.2.1][64 bit] 10bit
Encoding settings : cpuid=1173503 / frame-threads=4 / numa-pools=20 / wpp / no-pmode / no-pme / no-psnr / no-ssim / log-level=2 / input-csp=1 / input-res=3840x1636 / interlace=0 / total-frames=150964 / level-idc=51 / high-tier=1 / uhd-bd=0 / ref=4 / no-allow-non-conformance / repeat-headers / annexb / aud / hrd / info / hash=0 / no-temporal-layers / no-open-gop / min-keyint=1 / keyint=24 / bframes=4 / b-adapt=2 / b-pyramid / bframe-bias=0 / rc-lookahead=25 / lookahead-slices=4 / scenecut=40 / no-intra-refresh / ctu=64 / min-cu-size=8 / rect / no-amp / max-tu-size=32 / tu-inter-depth=1 / tu-intra-depth=1 / limit-tu=0 / rdoq-level=2 / dynamic-rd=0.00 / no-ssim-rd / signhide / no-tskip / nr-intra=0 / nr-inter=0 / no-constrained-intra / no-strong-intra-smoothing / max-merge=3 / limit-refs=3 / limit-modes / me=3 / subme=3 / merange=57 / temporal-mvp / weightp / no-weightb / no-analyze-src-pics / deblock=-3:-3 / no-sao / no-sao-non-deblock / rd=4 / no-early-skip / rskip / no-fast-intra / no-tskip-fast / no-cu-lossless / no-b-intra / no-splitrd-skip / rdpenalty=0 / psy-rd=2.00 / psy-rdoq=1.00 / no-rd-refine / analysis-reuse-mode=0 / no-lossless / cbqpoffs=0 / crqpoffs=0 / rc=crf / crf=18.0 / qcomp=0.60 / qpstep=4 / stats-write=0 / stats-read=0 / vbv-maxrate=160000 / vbv-bufsize=160000 / vbv-init=0.9 / crf-max=0.0 / crf-min=0.0 / ipratio=1.40 / pbratio=1.30 / aq-mode=1 / aq-strength=1.00 / cutree / zone-count=0 / no-strict-cbr / qg-size=32 / no-rc-grain / qpmax=69 / qpmin=0 / no-const-vbv / sar=1 / overscan=0 / videoformat=5 / range=0 / colorprim=9 / transfer=16 / colormatrix=9 / chromaloc=1 / chromaloc-top=2 / chromaloc-bottom=2 / display-window=0 / master-display=G(13250,34500)B(7500,3000)R(34000,16000)WP(15635,16450)L(10000000,0) / max-cll=0,0 / min-luma=0 / max-luma=1023 / log2-max-poc-lsb=8 / vui-timing-info / vui-hrd-info / slices=1 / opt-qp-pps / opt-ref-list-length-pps / no-multi-pass-opt-rps / scenecut-bias=0.05 / no-opt-cu-delta-qp / no-aq-motion / hdr / hdr-opt / no-dhdr10-opt / analysis-reuse-level=5 / scale-factor=0 / refine-intra=0 / refine-inter=0 / refine-mv=0 / no-limit-sao / ctu-info=0 / no-lowpass-dct
Default : Yes
Forced : No
Color range : Limited
Color primaries : BT.2020
Transfer characteristics : PQ
Matrix coefficients : BT.2020 non-constant
Mastering display color primaries : R: x=0.680000 y=0.320000, G: x=0.265000 y=0.690000, B: x=0.150000 y=0.060000, White point: x=0.312700 y=0.329000
Mastering display luminance : min: 0.0000 cd/m2, max: 1000.0000 cd/m2

Audio #1
ID : 2
Format : DTS
Format/Info : Digital Theater Systems
Format profile : MA / Core
Codec ID : A_DTS
Duration : 1 h 44 min
Bit rate mode : Variable / Constant
Bit rate : 4 008 kb/s / 1 509 kb/s
Channel(s) : 6 channels
Channel positions : Front: L C R, Side: L R, LFE
Sampling rate : 48.0 kHz
Frame rate : 93.750 FPS (512 SPF)
Bit depth : 24 bits
Compression mode : Lossless / Lossy
Stream size : 2.94 GiB (18%)
Language : English
Default : No
Forced : No

Audio #2
ID : 3
Format : AAC
Format/Info : Advanced Audio Codec
Format profile : LC
Codec ID : A_AAC-2
Duration : 1 h 44 min
Bit rate : 120 kb/s
Channel(s) : 2 channels
Channel positions : Front: L R
Sampling rate : 48.0 kHz
Frame rate : 46.875 FPS (1024 SPF)
Compression mode : Lossy
Delay relative to video : 9 ms
Stream size : 90.0 MiB (1%)
Title : Commentary 1 with director Rupert Wyatt
Language : English
Default : No
Forced : No

Audio #3
ID : 4
Format : AAC
Format/Info : Advanced Audio Codec
Format profile : LC
Codec ID : A_AAC-2
Duration : 1 h 44 min
Bit rate : 112 kb/s
Channel(s) : 2 channels
Channel positions : Front: L R
Sampling rate : 48.0 kHz
Frame rate : 46.875 FPS (1024 SPF)
Compression mode : Lossy
Delay relative to video : 9 ms
Stream size : 84.2 MiB (0%)
Title : Commentary 2 with writers/producers Amanda Silver and Rick Jaffa
Language : English
Default : No
Forced : No

Text #1
ID : 5
Format : PGS
Muxing mode : zlib
Codec ID : S_HDMV/PGS
Codec ID/Info : Picture based subtitle format used on BDs/HD-DVDs
Duration : 55 min 48 s
Bit rate : 169 b/s
Count of elements : 20
Stream size : 69.4 KiB (0%)
Title : Forced
Language : English
Default : Yes
Forced : No

Text #2
ID : 6
Format : PGS
Muxing mode : zlib
Codec ID : S_HDMV/PGS
Codec ID/Info : Picture based subtitle format used on BDs/HD-DVDs
Duration : 1 h 43 min
Bit rate : 24.5 kb/s
Count of elements : 2076
Stream size : 18.1 MiB (0%)
Title : SDH
Language : English
Default : No
Forced : No

Text #3
ID : 7
Format : PGS
Muxing mode : zlib
Codec ID : S_HDMV/PGS
Codec ID/Info : Picture based subtitle format used on BDs/HD-DVDs
Duration : 1 h 35 min
Bit rate : 12.9 kb/s
Count of elements : 1417
Stream size : 8.82 MiB (0%)
Language : Japanese
Default : No
Forced : No

Text #4
ID : 8
Format : PGS
Muxing mode : zlib
Codec ID : S_HDMV/PGS
Codec ID/Info : Picture based subtitle format used on BDs/HD-DVDs
Duration : 1 h 43 min
Bit rate : 19.8 kb/s
Count of elements : 1624
Stream size : 14.7 MiB (0%)
Language : Spanish
Default : No
Forced : No

Text #5
ID : 9
Format : PGS
Muxing mode : zlib
Codec ID : S_HDMV/PGS
Codec ID/Info : Picture based subtitle format used on BDs/HD-DVDs
Duration : 1 h 43 min
Bit rate : 14.1 kb/s
Count of elements : 1358
Stream size : 10.5 MiB (0%)
Language : French
Default : No
Forced : No

Text #6
ID : 10
Format : PGS
Muxing mode : zlib
Codec ID : S_HDMV/PGS
Codec ID/Info : Picture based subtitle format used on BDs/HD-DVDs
Duration : 1 h 41 min
Bit rate : 20.1 kb/s
Count of elements : 1652
Stream size : 14.7 MiB (0%)
Language : Spanish
Default : No
Forced : No

Text #7
ID : 11
Format : PGS
Muxing mode : zlib
Codec ID : S_HDMV/PGS
Codec ID/Info : Picture based subtitle format used on BDs/HD-DVDs
Duration : 1 h 41 min
Bit rate : 17.6 kb/s
Count of elements : 1366
Stream size : 12.8 MiB (0%)
Language : Danish
Default : No
Forced : No

Text #8
ID : 12
Format : PGS
Muxing mode : zlib
Codec ID : S_HDMV/PGS
Codec ID/Info : Picture based subtitle format used on BDs/HD-DVDs
Duration : 1 h 41 min
Bit rate : 15.6 kb/s
Count of elements : 1440
Stream size : 11.4 MiB (0%)
Language : Dutch
Default : No
Forced : No

Text #9
ID : 13
Format : PGS
Muxing mode : zlib
Codec ID : S_HDMV/PGS
Codec ID/Info : Picture based subtitle format used on BDs/HD-DVDs
Duration : 1 h 43 min
Bit rate : 15.4 kb/s
Count of elements : 1346
Stream size : 11.4 MiB (0%)
Language : Finnish
Default : No
Forced : No

Text #10
ID : 14
Format : PGS
Muxing mode : zlib
Codec ID : S_HDMV/PGS
Codec ID/Info : Picture based subtitle format used on BDs/HD-DVDs
Duration : 1 h 41 min
Bit rate : 19.2 kb/s
Count of elements : 1604
Stream size : 14.0 MiB (0%)
Language : German
Default : No
Forced : No

Text #11
ID : 15
Format : PGS
Muxing mode : zlib
Codec ID : S_HDMV/PGS
Codec ID/Info : Picture based subtitle format used on BDs/HD-DVDs
Duration : 1 h 41 min
Bit rate : 19.3 kb/s
Count of elements : 1650
Stream size : 14.0 MiB (0%)
Language : Italian
Default : No
Forced : No

Text #12
ID : 16
Format : PGS
Muxing mode : zlib
Codec ID : S_HDMV/PGS
Codec ID/Info : Picture based subtitle format used on BDs/HD-DVDs
Duration : 1 h 41 min
Bit rate : 17.1 kb/s
Count of elements : 1674
Stream size : 12.5 MiB (0%)
Language : Norwegian
Default : No
Forced : No

Text #13
ID : 17
Format : PGS
Muxing mode : zlib
Codec ID : S_HDMV/PGS
Codec ID/Info : Picture based subtitle format used on BDs/HD-DVDs
Duration : 1 h 43 min
Bit rate : 15.4 kb/s
Count of elements : 1150
Stream size : 11.4 MiB (0%)
Language : Swedish
Default : No
Forced : No

Text #14
ID : 18
Format : PGS
Muxing mode : zlib
Codec ID : S_HDMV/PGS
Codec ID/Info : Picture based subtitle format used on BDs/HD-DVDs
Duration : 1 h 43 min
Bit rate : 13.7 kb/s
Count of elements : 1712
Stream size : 10.2 MiB (0%)
Language : Chinese
Default : No
Forced : No

Text #15
ID : 19
Format : PGS
Muxing mode : zlib
Codec ID : S_HDMV/PGS
Codec ID/Info : Picture based subtitle format used on BDs/HD-DVDs
Duration : 1 h 43 min
Bit rate : 15.7 kb/s
Count of elements : 1860
Stream size : 11.7 MiB (0%)
Language : Chinese
Default : No
Forced : No

Text #16
ID : 20
Format : PGS
Muxing mode : zlib
Codec ID : S_HDMV/PGS
Codec ID/Info : Picture based subtitle format used on BDs/HD-DVDs
Duration : 1 h 44 min
Bit rate : 53.8 kb/s
Count of elements : 2986
Stream size : 40.2 MiB (0%)
Title : Commentary 1
Language : English
Default : No
Forced : No

Text #17
ID : 21
Format : PGS
Muxing mode : zlib
Codec ID : S_HDMV/PGS
Codec ID/Info : Picture based subtitle format used on BDs/HD-DVDs
Duration : 1 h 38 min
Bit rate : 24.0 kb/s
Count of elements : 1550
Stream size : 16.9 MiB (0%)
Title : Commentary 1
Language : Japanese
Default : No
Forced : No

Text #18
ID : 22
Format : PGS
Muxing mode : zlib
Codec ID : S_HDMV/PGS
Codec ID/Info : Picture based subtitle format used on BDs/HD-DVDs
Duration : 1 h 44 min
Bit rate : 47.7 kb/s
Count of elements : 2802
Stream size : 35.7 MiB (0%)
Title : Commentary 1
Language : Spanish
Default : No
Forced : No

Text #19
ID : 23
Format : PGS
Muxing mode : zlib
Codec ID : S_HDMV/PGS
Codec ID/Info : Picture based subtitle format used on BDs/HD-DVDs
Duration : 1 h 44 min
Bit rate : 41.8 kb/s
Count of elements : 2804
Stream size : 31.2 MiB (0%)
Title : Commentary 1
Language : French
Default : No
Forced : No

Text #20
ID : 24
Format : PGS
Muxing mode : zlib
Codec ID : S_HDMV/PGS
Codec ID/Info : Picture based subtitle format used on BDs/HD-DVDs
Duration : 1 h 44 min
Bit rate : 47.3 kb/s
Count of elements : 2804
Stream size : 35.3 MiB (0%)
Title : Commentary 1
Language : Spanish
Default : No
Forced : No

Text #21
ID : 25
Format : PGS
Muxing mode : zlib
Codec ID : S_HDMV/PGS
Codec ID/Info : Picture based subtitle format used on BDs/HD-DVDs
Duration : 1 h 44 min
Bit rate : 49.7 kb/s
Count of elements : 2800
Stream size : 37.1 MiB (0%)
Title : Commentary 1
Language : German
Default : No
Forced : No

Text #22
ID : 26
Format : PGS
Muxing mode : zlib
Codec ID : S_HDMV/PGS
Codec ID/Info : Picture based subtitle format used on BDs/HD-DVDs
Duration : 1 h 44 min
Bit rate : 43.8 kb/s
Count of elements : 2802
Stream size : 32.7 MiB (0%)
Title : Commentary 1
Language : Italian
Default : No
Forced : No

Text #23
ID : 27
Format : PGS
Muxing mode : zlib
Codec ID : S_HDMV/PGS
Codec ID/Info : Picture based subtitle format used on BDs/HD-DVDs
Duration : 1 h 44 min
Bit rate : 68.3 kb/s
Count of elements : 3552
Stream size : 51.2 MiB (0%)
Title : Commentary 2
Language : English
Default : No
Forced : No

Text #24
ID : 28
Format : PGS
Muxing mode : zlib
Codec ID : S_HDMV/PGS
Codec ID/Info : Picture based subtitle format used on BDs/HD-DVDs
Duration : 1 h 43 min
Bit rate : 34.1 kb/s
Count of elements : 2146
Stream size : 25.4 MiB (0%)
Title : Commentary 2
Language : Japanese
Default : No
Forced : No

Text #25
ID : 29
Format : PGS
Muxing mode : zlib
Codec ID : S_HDMV/PGS
Codec ID/Info : Picture based subtitle format used on BDs/HD-DVDs
Duration : 1 h 44 min
Bit rate : 59.2 kb/s
Count of elements : 3406
Stream size : 44.4 MiB (0%)
Title : Commentary 2
Language : Spanish
Default : No
Forced : No

Text #26
ID : 30
Format : PGS
Muxing mode : zlib
Codec ID : S_HDMV/PGS
Codec ID/Info : Picture based subtitle format used on BDs/HD-DVDs
Duration : 1 h 44 min
Bit rate : 55.8 kb/s
Count of elements : 3408
Stream size : 41.9 MiB (0%)
Title : Commentary 2
Language : French
Default : No
Forced : No

Text #27
ID : 31
Format : PGS
Muxing mode : zlib
Codec ID : S_HDMV/PGS
Codec ID/Info : Picture based subtitle format used on BDs/HD-DVDs
Duration : 1 h 44 min
Bit rate : 59.7 kb/s
Count of elements : 3408
Stream size : 44.7 MiB (0%)
Title : Commentary 2
Language : Spanish
Default : No
Forced : No

Text #28
ID : 32
Format : PGS
Muxing mode : zlib
Codec ID : S_HDMV/PGS
Codec ID/Info : Picture based subtitle format used on BDs/HD-DVDs
Duration : 1 h 44 min
Bit rate : 57.9 kb/s
Count of elements : 3402
Stream size : 43.4 MiB (0%)
Title : Commentary 2
Language : German
Default : No
Forced : No

Text #29
ID : 33
Format : PGS
Muxing mode : zlib
Codec ID : S_HDMV/PGS
Codec ID/Info : Picture based subtitle format used on BDs/HD-DVDs
Duration : 1 h 44 min
Bit rate : 56.6 kb/s
Count of elements : 3402
Stream size : 42.5 MiB (0%)
Title : Commentary 2
Language : Italian
Default : No
Forced : No

Menu
00:00:00.000 : en:00:00:00.000
00:05:24.407 : en:00:05:24.407
00:09:17.974 : en:00:09:17.974
00:14:19.067 : en:00:14:19.067
00:18:07.545 : en:00:18:07.545
00:20:03.786 : en:00:20:03.786
00:22:38.148 : en:00:22:38.148
00:25:17.015 : en:00:25:17.015
00:29:42.656 : en:00:29:42.656
00:33:38.266 : en:00:33:38.266
00:38:29.098 : en:00:38:29.098
00:41:12.595 : en:00:41:12.595
00:45:19.008 : en:00:45:19.008
00:48:50.177 : en:00:48:50.177
00:52:56.632 : en:00:52:56.632
00:57:30.280 : en:00:57:30.280
00:59:26.730 : en:00:59:26.730
01:01:30.145 : en:01:01:30.145
01:05:03.608 : en:01:05:03.608
01:06:20.268 : en:01:06:20.268
01:09:34.962 : en:01:09:34.962
01:11:15.688 : en:01:11:15.688
01:15:44.123 : en:01:15:44.123
01:18:29.204 : en:01:18:29.204
01:23:09.276 : en:01:23:09.276
01:27:50.390 : en:01:27:50.390
01:33:00.366 : en:01:33:00.366
01:37:08.948 : en:01:37:08.948

Download

download 4k hdr movies download 4k hdr movies

Rise of the Planet of the Apes 4K 2011 Ultra HD 2160p


Watch a movie trailer - Rise of the Planet of the Apes 4K 2011 Ultra HD 2160p
Comments and Feedback
Add your comment:
Your name:
Your E-Mail:
Enter the two words shown in the image: *