Select movie Search movie Close search My Account

Sicario: Day of the Soldado 4K 2018 Ultra HD 2160p

Sicario: Day of the Soldado 4K 2018 Ultra HD 2160p
BDRemux / BDRip
Country: USA | Mexico
Time: 2h 2min
IMDB: 7.2
Director: Stefano Sollima
Actors: Benicio Del, Josh Brolin, Isabela Moner, Jeffrey Donovan, Catherine Keener, Manuel Garcia-Rulfo, Matthew Modine, Shea Whigham, Elijah Rodriguez, Howard Ferguson Jr., David Casta?eda, Jacqueline Torres, Raoul Max Trujillo, Bruno Bichir, Jake Picking

Story Movie

Sicario: Day of the Soldado 4K 2018 Ultra HD 2160p
The situation on the border of America and Mexico has never been calm, and smuggling of drugs and drugs constantly crosses the border. But when the heads of the drug tickles begin to transfer trained terrorists to the United States in Sicario 4K 2018. Secret agent Matt Graver again forced to take up arms in order to deal with illegal crime along with his partner in the film Sicario: Day of the Soldado 4k movie 2018.

Review 4K Movie

The era of the cardboard fighters of Stalone / Schwarznegger is over, Jackie Chan no longer surprises anyone with new fractures and jumps from skyscrapers. The Disney epoch “hit me, but it didn't hurt.” Johnny Depp turned into an “elite clown” Jack Sparrow, Marvel stamps various characters from the same material, and Dwayne “The Rock” Johnson is the ideal of American society, different movies, but the hero is the same everywhere. Not surprisingly, fairy tales for adults are no longer staged. But all such exceptions exist.

Sicario: Day of the Soldado 4k movie 2018 - a brutal film for men. Cinema keeps the spark, and the viewer can see the real villains with their motives. Good guys suffer no less, and happy end does not mean that everything ends well. Life goes on, and with it a struggle.

Many will disagree with me, but the first film was a drama of one hero. In the sequel, the global problem of three parties (the US authorities, the authorities of Mexico, drug cartels) is transferred to specific people and their views. Surrounding situations and just innocent citizens suffer from this situation.

I think that this film Sicario 4K 2018 has surpassed the original. Josh Brolin is not just an immortal Cable, he is a killer soldier, just as alive as his team. Bennisio del Torro is a strong oppositionist with a tough stance. If you want to feel the taste of blood, death and why simple boys become bad guys poisoning the lives of others, then Killer 2 is the same film with a rating of 18+

Mediainfo

movie BDRemux Video
ID : 1
Format : HEVC
Format/Info : High Efficiency Video Coding
Commercial name : HDR10
Format profile : Main 10@L5.1@High
Codec ID : V_MPEGH/ISO/HEVC
Duration : 2 h 2 min
Bit rate : 50.1 Mb/s
Width : 3 840 pixels
Height : 2 160 pixels
Display aspect ratio : 16:9
Frame rate mode : Constant
Frame rate : 23.976 (24000/1001) FPS
Color space : YUV
Chroma subsampling : 4:2:0 (Type 2)
Bit depth : 10 bits
Bits/(Pixel*Frame) : 0.252
Stream size : 42.8 GiB (78%)
Title : Sicario.Day.of.the.Soldado.2018.2160p.BluRay.REMUX.HEVC.DTS-HD.MA.TrueHD.7.1.Atmos
Default : Yes
Forced : No
Color range : Limited
Color primaries : BT.2020
Transfer characteristics : PQ
Matrix coefficients : BT.2020 non-constant
Mastering display color primaries : Display P3
Mastering display luminance : min: 0.0001 cd/m2, max: 1000 cd/m2
Maximum Content Light Level : 8325 cd/m2
Maximum Frame-Average Light Level : 775 cd/m2

Audio #1
ID : 2
Format : TrueHD
Format profile : TrueHD+Atmos / TrueHD
Codec ID : A_TRUEHD
Duration : 2 h 2 min
Bit rate mode : Variable
Bit rate : 2 990 kb/s
Maximum bit rate : 5 031 kb/s
Channel(s) : Object Based / 8 channels
Channel positions : Object Based / Front: L C R, Side: L R, Back: L R, LFE
Sampling rate : / 48.0 kHz
Frame rate : 1 200.000 FPS (40 SPF)
Compression mode : Lossless
Stream size : 2.56 GiB (5%)
Title : Sicario.Day.of.the.Soldado.2018.2160p.BluRay.REMUX.HEVC.DTS-HD.MA.TrueHD.7.1.Atmos
Language : English
Default : Yes
Forced : No

Audio #2
ID : 3
Format : DTS
Format/Info : Digital Theater Systems
Format profile : MA / Core
Codec ID : A_DTS
Duration : 2 h 2 min
Bit rate mode : Variable / Constant
Bit rate : 4 152 kb/s / 1 509 kb/s
Channel(s) : 8 channels / 6 channels
Channel positions : Front: L C R, Side: L R, Back: L R, LFE / Front: L C R, Side: L R, LFE
Sampling rate : 48.0 kHz
Frame rate : 93.750 FPS (512 SPF)
Bit depth : 24 bits
Compression mode : Lossless / Lossy
Stream size : 3.55 GiB (6%)
Title : Sicario.Day.of.the.Soldado.2018.2160p.BluRay.REMUX.HEVC.DTS-HD.MA.TrueHD.7.1.Atmos
Language : English
Default : No
Forced : No

Audio #3
ID : 4
Format : AC-3
Format/Info : Audio Coding 3
Codec ID : A_AC3
Duration : 2 h 2 min
Bit rate mode : Constant
Bit rate : 640 kb/s
Channel(s) : 6 channels
Channel positions : Front: L C R, Side: L R, LFE
Sampling rate : 48.0 kHz
Frame rate : 31.250 FPS (1536 SPF)
Bit depth : 16 bits
Compression mode : Lossy
Stream size : 560 MiB (1%)
Title : Sicario.Day.of.the.Soldado.2018.2160p.BluRay.REMUX.HEVC.DTS-HD.MA.TrueHD.7.1.Atmos
Language : English
Service kind : Complete Main
Default : No
Forced : No

Audio #4
ID : 5
Format : AC-3
Format/Info : Audio Coding 3
Codec ID : A_AC3
Duration : 2 h 2 min
Bit rate mode : Constant
Bit rate : 640 kb/s
Channel(s) : 6 channels
Channel positions : Front: L C R, Side: L R, LFE
Sampling rate : 48.0 kHz
Frame rate : 31.250 FPS (1536 SPF)
Bit depth : 16 bits
Compression mode : Lossy
Stream size : 560 MiB (1%)
Title : Sicario.Day.of.the.Soldado.2018.2160p.BluRay.REMUX.HEVC.DTS-HD.MA.TrueHD.7.1.Atmos
Language : English
Service kind : Complete Main
Default : No
Forced : No

Audio #5
ID : 6
Format : AC-3
Format/Info : Audio Coding 3
Codec ID : A_AC3
Duration : 2 h 2 min
Bit rate mode : Constant
Bit rate : 640 kb/s
Channel(s) : 6 channels
Channel positions : Front: L C R, Side: L R, LFE
Sampling rate : 48.0 kHz
Frame rate : 31.250 FPS (1536 SPF)
Bit depth : 16 bits
Compression mode : Lossy
Stream size : 560 MiB (1%)
Title : Sicario.Day.of.the.Soldado.2018.2160p.BluRay.REMUX.HEVC.DTS-HD.MA.TrueHD.7.1.Atmos
Language : French
Service kind : Complete Main
Default : No
Forced : No

Audio #6
ID : 7
Format : AC-3
Format/Info : Audio Coding 3
Codec ID : A_AC3
Duration : 2 h 2 min
Bit rate mode : Constant
Bit rate : 640 kb/s
Channel(s) : 6 channels
Channel positions : Front: L C R, Side: L R, LFE
Sampling rate : 48.0 kHz
Frame rate : 31.250 FPS (1536 SPF)
Bit depth : 16 bits
Compression mode : Lossy
Stream size : 560 MiB (1%)
Title : Sicario.Day.of.the.Soldado.2018.2160p.BluRay.REMUX.HEVC.DTS-HD.MA.TrueHD.7.1.Atmos
Language : French
Service kind : Complete Main
Default : No
Forced : No

Audio #7
ID : 8
Format : DTS
Format/Info : Digital Theater Systems
Format profile : MA / Core
Codec ID : A_DTS
Duration : 2 h 2 min
Bit rate mode : Variable / Constant
Bit rate : 2 187 kb/s / 1 509 kb/s
Channel(s) : 6 channels
Channel positions : Front: L C R, Side: L R, LFE
Sampling rate : 48.0 kHz
Frame rate : 93.750 FPS (512 SPF)
Bit depth : 16 bits
Compression mode : Lossless / Lossy
Stream size : 1.87 GiB (3%)
Title : Sicario.Day.of.the.Soldado.2018.2160p.BluRay.REMUX.HEVC.DTS-HD.MA.TrueHD.7.1.Atmos
Language : Portuguese
Default : No
Forced : No

Audio #8
ID : 9
Format : DTS
Format/Info : Digital Theater Systems
Format profile : MA / Core
Codec ID : A_DTS
Duration : 2 h 2 min
Bit rate mode : Variable / Constant
Bit rate : 2 178 kb/s / 1 509 kb/s
Channel(s) : 6 channels
Channel positions : Front: L C R, Side: L R, LFE
Sampling rate : 48.0 kHz
Frame rate : 93.750 FPS (512 SPF)
Bit depth : 16 bits
Compression mode : Lossless / Lossy
Stream size : 1.86 GiB (3%)
Title : Sicario.Day.of.the.Soldado.2018.2160p.BluRay.REMUX.HEVC.DTS-HD.MA.TrueHD.7.1.Atmos
Language : Spanish
Default : No
Forced : No

Text #1
ID : 10
Format : PGS
Muxing mode : zlib
Codec ID : S_HDMV/PGS
Codec ID/Info : Picture based subtitle format used on BDs/HD-DVDs
Duration : 1 h 52 min
Bit rate : 20.3 kb/s
Count of elements : 1624
Stream size : 16.4 MiB (0%)
Title : English-PGS
Language : English
Default : Yes
Forced : No

Text #2
ID : 11
Format : PGS
Muxing mode : zlib
Codec ID : S_HDMV/PGS
Codec ID/Info : Picture based subtitle format used on BDs/HD-DVDs
Duration : 2 h 1 min
Bit rate : 24.1 kb/s
Count of elements : 2098
Stream size : 20.9 MiB (0%)
Title : English-SDH-PGS
Language : English
Default : No
Forced : No

Text #3
ID : 12
Format : PGS
Muxing mode : zlib
Codec ID : S_HDMV/PGS
Codec ID/Info : Picture based subtitle format used on BDs/HD-DVDs
Duration : 1 h 52 min
Bit rate : 20.3 kb/s
Count of elements : 1624
Stream size : 16.4 MiB (0%)
Title : English-PGS
Language : English
Default : No
Forced : No

Text #4
ID : 13
Format : PGS
Muxing mode : zlib
Codec ID : S_HDMV/PGS
Codec ID/Info : Picture based subtitle format used on BDs/HD-DVDs
Duration : 2 h 1 min
Bit rate : 24.1 kb/s
Count of elements : 2098
Stream size : 20.9 MiB (0%)
Title : English-SDH-PGS
Language : English
Default : No
Forced : No

Text #5
ID : 14
Format : PGS
Muxing mode : zlib
Codec ID : S_HDMV/PGS
Codec ID/Info : Picture based subtitle format used on BDs/HD-DVDs
Duration : 2 h 1 min
Bit rate : 16.9 kb/s
Count of elements : 1588
Stream size : 14.7 MiB (0%)
Title : French-PGS
Language : French
Default : No
Forced : No

Text #6
ID : 15
Format : PGS
Muxing mode : zlib
Codec ID : S_HDMV/PGS
Codec ID/Info : Picture based subtitle format used on BDs/HD-DVDs
Duration : 2 h 1 min
Bit rate : 17.6 kb/s
Count of elements : 1648
Stream size : 15.3 MiB (0%)
Title : Portuguese-PGS
Language : Portuguese
Default : No
Forced : No

Text #7
ID : 16
Format : PGS
Muxing mode : zlib
Codec ID : S_HDMV/PGS
Codec ID/Info : Picture based subtitle format used on BDs/HD-DVDs
Duration : 2 h 1 min
Bit rate : 12.8 kb/s
Count of elements : 1336
Stream size : 11.1 MiB (0%)
Title : Spanish-PGS
Language : Spanish
Default : No
Forced : No

Text #8
ID : 17
Format : PGS
Muxing mode : zlib
Codec ID : S_HDMV/PGS
Codec ID/Info : Picture based subtitle format used on BDs/HD-DVDs
Duration : 2 h 1 min
Bit rate : 13.9 kb/s
Count of elements : 1334
Stream size : 12.1 MiB (0%)
Title : Spanish-PGS
Language : Spanish
Default : No
Forced : No

Text #9
ID : 18
Format : PGS
Muxing mode : zlib
Codec ID : S_HDMV/PGS
Codec ID/Info : Picture based subtitle format used on BDs/HD-DVDs
Duration : 2 h 1 min
Bit rate : 3 274 b/s
Count of elements : 356
Stream size : 2.84 MiB (0%)
Title : French-FORCED-PGS
Language : French
Default : No
Forced : No

Menu
00:00:00.000 : :Chapter 1
00:06:38.189 : :Chapter 2
00:14:45.593 : :Chapter 3
00:18:48.502 : :Chapter 4
00:27:08.335 : :Chapter 5
00:34:08.963 : :Chapter 6
00:42:28.671 : :Chapter 7
00:51:10.442 : :Chapter 8
01:00:58.071 : :Chapter 9
01:09:20.114 : :Chapter 10
01:14:26.795 : :Chapter 11
01:23:24.958 : :Chapter 12
01:28:41.357 : :Chapter 13
01:35:38.899 : :Chapter 14
01:41:44.348 : :Chapter 15
01:46:15.494 : :Chapter 16

Download

download 4k hdr movies download 4k hdr movies

Watch a movie trailer - Sicario: Day of the Soldado 4K 2018 Ultra HD 2160p
Comments and Feedback
Add your comment:
Your name:
Your E-Mail:
Code:
reload, if the code cannot be seen
Enter code: