Select movie Search movie Close search My Account

Overlord 4K 2018 Ultra HD 2160p

Overlord 4K 2018 Ultra HD 2160p
BDRemux / BDRip
Country: USA | Canada
Time: 1h 50min
IMDB: 6.9
Director: Julius Avery
Actors: Jovan Adepo, Wyatt Russell, Mathilde Ollivier, Pilou Asb?k, John Magaro, Iain De Caestecker, Jacob Anderson, Dominic Applewhite, Gianny Taufer, Joseph Quinn, Bokeem Woodbine, Erich Redman, Mark McKenna, Hayley Carmichael, Marc Rissmann

Story Movie

Overlord 4K 2018 Ultra HD 2160p

Overlord true 4k movie - this is certainly one of the brightest and most worthy films Overlord UHD of the past year, turned out to be quite different than expected before viewing. However, in this case, it goes to the picture and the impressions of what he saw on the screen is only good. The director of this tape, Julius Avery, shot an excellent symbiosis of genres of military action, horror, action and thriller, in which none of the genres pulls the blanket to their side.

Review 4K Movie

In general, they decided to make a screen version of Return to the castle Wolfenshtein - but they remembered in time that the screen versions of the games of the same name (Doom, Hitman and others) failed every time at the box office, and rationally made a different name, leaving the story out of the game. Probably, this is how Overlord true 4k movie appeared.

The impression that you are watching the film version of Wulfinstein, in fact, does not leave the entire film. Too many features, and even landscapes and buildings are somehow too overly similar to the images from the game. And these various mutagenic creatures fed by the Nazis to the glory of the Third Reich .. But, since they did not name the movie after the game, there is nothing to compare.

What to say about Overlord UHD. According to the trailer it seemed that there would be a mystical thriller or high-quality horror, a horror movie with monsters, and all this, in the spirit of the early Saw, even probably. And in fact ... Damn, well, chess word, this is a film adaptation of the game Return to the castle Wolfenshtein - well, who you want to fool. And I can even say quite successful.

Having been on the pre-order in IMAX in 2D, I want to note that the film for IMAX has never been adapted, but in 3D it would have looked much more driving. A lot of action, a lot of shooters, and explosions generally rolls over, as if not JJ Abrams takes off, but Michael Bay. At some moments, even with hindsight, you begin to wait for the ancient transformers to pop up, heh. But there is a lot of action, but in 2D IMAX it looked poor. From which even a little hurt. So much pyrotechnics wasted, goes.

The plot in the film - nowhere linear. According to the dynamics - strong, as I like in such films, in the beginning there is no string for acquaintance with the characters - all this will take place already in the course of the play. That is, the film began - and immediately into the action, and then we'll figure it out. The film is the purest popcorn for eyes and brains. But here, I think, it is understandable. Overlord Ultra HD turned out spectacular, but at one time. And, by the way, not at all terrible, this is not a horror at all, but rather such a strong action movie with monsters. Like in the game.

If he had been in 3D, I think he would have put the rating higher, too much on 2D IMAX, the topic of action and special effects came out undisclosed. There are dynamics and spectacles for the eyes, there is no work for the brain, everything is simple and predictable. Frankly speaking, there were other expectations from the film, I wanted a strong horror movie. And it turned out something akin to the screen shots about the Nazis, where the brave Yankees save the world. But at one time - you can. Revise is unlikely to want.

Mediainfo

movie BDRemux Video #1
ID : 1
Format : HEVC
Format/Info : High Efficiency Video Coding
Commercial name : HDR10
Format profile : Main 10@L5.1@High
Codec ID : V_MPEGH/ISO/HEVC
Duration : 1 h 49 min
Bit rate : 46.6 Mb/s
Width : 3 840 pixels
Height : 2 160 pixels
Display aspect ratio : 16:9
Frame rate mode : Constant
Frame rate : 23.976 (24000/1001) FPS
Color space : YUV
Chroma subsampling : 4:2:0 (Type 2)
Bit depth : 10 bits
Bits/(Pixel*Frame) : 0.234
Stream size : 35.7 GiB (64%)
Title : Overlord.2018.2160p.BluRay.REMUX.HEVC.DTS-HD.MA.TrueHD.Atmos.7.1
Default : Yes
Forced : No
Color range : Limited
Color primaries : BT.2020
Transfer characteristics : PQ
Matrix coefficients : BT.2020 non-constant
Mastering display color primaries : Display P3
Mastering display luminance : min: 0.0001 cd/m2, max: 1000 cd/m2

Video #2
ID : 2
Format : HEVC
Format/Info : High Efficiency Video Coding
Commercial name : HDR10
Format profile : Main 10@L5.1@High
Codec ID : V_MPEGH/ISO/HEVC
Duration : 1 h 49 min
Bit rate : 5 214 kb/s
Width : 1 920 pixels
Height : 1 080 pixels
Display aspect ratio : 16:9
Frame rate mode : Constant
Frame rate : 23.976 (24000/1001) FPS
Color space : YUV
Chroma subsampling : 4:2:0 (Type 2)
Bit depth : 10 bits
Bits/(Pixel*Frame) : 0.105
Stream size : 4.00 GiB (7%)
Title : Overlord.2018.2160p.BluRay.REMUX.HEVC.DTS-HD.MA.TrueHD.Atmos.7.1
Default : No
Forced : No
Color range : Limited
Color primaries : BT.2020
Transfer characteristics : PQ
Matrix coefficients : BT.2020 non-constant
Mastering display color primaries : Display P3
Mastering display luminance : min: 0.0001 cd/m2, max: 1000 cd/m2

Audio #1
ID : 3
Format : MLP FBA 16-ch
Format/Info : Meridian Lossless Packing FBA with 16-channel presentation
Commercial name : Dolby TrueHD with Dolby Atmos
Codec ID : A_TRUEHD
Duration : 1 h 49 min
Bit rate mode : Variable
Bit rate : 4 723 kb/s
Maximum bit rate : 8 355 kb/s
Channel(s) : 8 channels
Channel layout : L R C LFE Ls Rs Lb Rb
Sampling rate : 48.0 kHz
Frame rate : 1 200.000 FPS (40 SPF)
Compression mode : Lossless
Delay relative to video : 32 ms
Stream size : 3.62 GiB (6%)
Title : Overlord.2018.2160p.BluRay.REMUX.HEVC.DTS-HD.MA.TrueHD.Atmos.7.1
Language : English
Default : Yes
Forced : No
Number of dynamic objects : 11
Bed channel count : 1 channel
Bed channel configuration : LFE

Audio #2
ID : 4
Format : DTS XLL
Format/Info : Digital Theater Systems
Commercial name : DTS-HD Master Audio
Codec ID : A_DTS
Duration : 1 h 49 min
Bit rate mode : Variable
Bit rate : 4 022 kb/s
Channel(s) : 8 channels
Channel layout : C L R LFE Lb Rb Lss Rss
Sampling rate : 48.0 kHz
Frame rate : 93.750 FPS (512 SPF)
Bit depth : 24 bits
Compression mode : Lossless
Delay relative to video : -1 ms
Stream size : 3.08 GiB (6%)
Title : Overlord.2018.2160p.BluRay.REMUX.HEVC.DTS-HD.MA.TrueHD.Atmos.7.1
Language : English
Default : No
Forced : No

Audio #3
ID : 5
Format : AC-3
Format/Info : Audio Coding 3
Commercial name : Dolby Digital
Codec ID : A_AC3
Duration : 1 h 49 min
Bit rate mode : Constant
Bit rate : 640 kb/s
Channel(s) : 6 channels
Channel layout : L R C LFE Ls Rs
Sampling rate : 48.0 kHz
Frame rate : 31.250 FPS (1536 SPF)
Bit depth : 16 bits
Compression mode : Lossy
Delay relative to video : 31 ms
Stream size : 502 MiB (1%)
Title : Overlord.2018.2160p.BluRay.REMUX.HEVC.DTS-HD.MA.TrueHD.Atmos.7.1
Language : English
Service kind : Complete Main
Default : No
Forced : No

Audio #4
ID : 6
Format : AC-3
Format/Info : Audio Coding 3
Commercial name : Dolby Digital
Codec ID : A_AC3
Duration : 1 h 49 min
Bit rate mode : Constant
Bit rate : 640 kb/s
Channel(s) : 6 channels
Channel layout : L R C LFE Ls Rs
Sampling rate : 48.0 kHz
Frame rate : 31.250 FPS (1536 SPF)
Bit depth : 16 bits
Compression mode : Lossy
Stream size : 502 MiB (1%)
Title : Overlord.2018.2160p.BluRay.REMUX.HEVC.DTS-HD.MA.TrueHD.Atmos.7.1
Language : English
Service kind : Complete Main
Default : No
Forced : No

Audio #5
ID : 7
Format : MLP FBA 16-ch
Format/Info : Meridian Lossless Packing FBA with 16-channel presentation
Commercial name : Dolby TrueHD with Dolby Atmos
Codec ID : A_TRUEHD
Duration : 1 h 49 min
Bit rate mode : Variable
Bit rate : 4 932 kb/s
Maximum bit rate : 8 613 kb/s
Channel(s) : 8 channels
Channel layout : L R C LFE Ls Rs Lb Rb
Sampling rate : 48.0 kHz
Frame rate : 1 200.000 FPS (40 SPF)
Compression mode : Lossless
Delay relative to video : 32 ms
Stream size : 3.78 GiB (7%)
Title : Overlord.2018.2160p.BluRay.REMUX.HEVC.DTS-HD.MA.TrueHD.Atmos.7.1
Language : German
Default : No
Forced : No
Number of dynamic objects : 11
Bed channel count : 1 channel
Bed channel configuration : LFE

Audio #6
ID : 8
Format : AC-3
Format/Info : Audio Coding 3
Commercial name : Dolby Digital
Codec ID : A_AC3
Duration : 1 h 49 min
Bit rate mode : Constant
Bit rate : 640 kb/s
Channel(s) : 6 channels
Channel layout : L R C LFE Ls Rs
Sampling rate : 48.0 kHz
Frame rate : 31.250 FPS (1536 SPF)
Bit depth : 16 bits
Compression mode : Lossy
Delay relative to video : 31 ms
Stream size : 502 MiB (1%)
Title : Overlord.2018.2160p.BluRay.REMUX.HEVC.DTS-HD.MA.TrueHD.Atmos.7.1
Language : German
Service kind : Complete Main
Default : No
Forced : No

Audio #7
ID : 9
Format : AC-3
Format/Info : Audio Coding 3
Commercial name : Dolby Digital
Codec ID : A_AC3
Duration : 1 h 49 min
Bit rate mode : Constant
Bit rate : 640 kb/s
Channel(s) : 6 channels
Channel layout : L R C LFE Ls Rs
Sampling rate : 48.0 kHz
Frame rate : 31.250 FPS (1536 SPF)
Bit depth : 16 bits
Compression mode : Lossy
Stream size : 502 MiB (1%)
Title : Overlord.2018.2160p.BluRay.REMUX.HEVC.DTS-HD.MA.TrueHD.Atmos.7.1
Language : Spanish
Service kind : Complete Main
Default : No
Forced : No

Audio #8
ID : 10
Format : AC-3
Format/Info : Audio Coding 3
Commercial name : Dolby Digital
Codec ID : A_AC3
Duration : 1 h 49 min
Bit rate mode : Constant
Bit rate : 640 kb/s
Channel(s) : 6 channels
Channel layout : L R C LFE Ls Rs
Sampling rate : 48.0 kHz
Frame rate : 31.250 FPS (1536 SPF)
Bit depth : 16 bits
Compression mode : Lossy
Stream size : 502 MiB (1%)
Title : Overlord.2018.2160p.BluRay.REMUX.HEVC.DTS-HD.MA.TrueHD.Atmos.7.1
Language : Spanish
Service kind : Complete Main
Default : No
Forced : No

Audio #9
ID : 11
Format : AC-3
Format/Info : Audio Coding 3
Commercial name : Dolby Digital
Codec ID : A_AC3
Duration : 1 h 49 min
Bit rate mode : Constant
Bit rate : 640 kb/s
Channel(s) : 6 channels
Channel layout : L R C LFE Ls Rs
Sampling rate : 48.0 kHz
Frame rate : 31.250 FPS (1536 SPF)
Bit depth : 16 bits
Compression mode : Lossy
Stream size : 502 MiB (1%)
Title : Overlord.2018.2160p.BluRay.REMUX.HEVC.DTS-HD.MA.TrueHD.Atmos.7.1
Language : French
Service kind : Complete Main
Default : No
Forced : No

Audio #10
ID : 12
Format : AC-3
Format/Info : Audio Coding 3
Commercial name : Dolby Digital
Codec ID : A_AC3
Duration : 1 h 49 min
Bit rate mode : Constant
Bit rate : 640 kb/s
Channel(s) : 6 channels
Channel layout : L R C LFE Ls Rs
Sampling rate : 48.0 kHz
Frame rate : 31.250 FPS (1536 SPF)
Bit depth : 16 bits
Compression mode : Lossy
Stream size : 502 MiB (1%)
Title : Overlord.2018.2160p.BluRay.REMUX.HEVC.DTS-HD.MA.TrueHD.Atmos.7.1
Language : Italian
Service kind : Complete Main
Default : No
Forced : No

Audio #11
ID : 13
Format : AC-3
Format/Info : Audio Coding 3
Commercial name : Dolby Digital
Codec ID : A_AC3
Duration : 1 h 49 min
Bit rate mode : Constant
Bit rate : 640 kb/s
Channel(s) : 6 channels
Channel layout : L R C LFE Ls Rs
Sampling rate : 48.0 kHz
Frame rate : 31.250 FPS (1536 SPF)
Bit depth : 16 bits
Compression mode : Lossy
Stream size : 502 MiB (1%)
Title : Overlord.2018.2160p.BluRay.REMUX.HEVC.DTS-HD.MA.TrueHD.Atmos.7.1
Language : Japanese
Service kind : Complete Main
Default : No
Forced : No

Audio #12
ID : 14
Format : AC-3
Format/Info : Audio Coding 3
Commercial name : Dolby Digital
Codec ID : A_AC3
Duration : 1 h 49 min
Bit rate mode : Constant
Bit rate : 640 kb/s
Channel(s) : 6 channels
Channel layout : L R C LFE Ls Rs
Sampling rate : 48.0 kHz
Frame rate : 31.250 FPS (1536 SPF)
Bit depth : 16 bits
Compression mode : Lossy
Stream size : 502 MiB (1%)
Title : Overlord.2018.2160p.BluRay.REMUX.HEVC.DTS-HD.MA.TrueHD.Atmos.7.1
Language : Polish
Service kind : Complete Main
Default : No
Forced : No

Audio #13
ID : 15
Format : AC-3
Format/Info : Audio Coding 3
Commercial name : Dolby Digital
Codec ID : A_AC3
Duration : 1 h 49 min
Bit rate mode : Constant
Bit rate : 640 kb/s
Channel(s) : 6 channels
Channel layout : L R C LFE Ls Rs
Sampling rate : 48.0 kHz
Frame rate : 31.250 FPS (1536 SPF)
Bit depth : 16 bits
Compression mode : Lossy
Stream size : 502 MiB (1%)
Title : Overlord.2018.2160p.BluRay.REMUX.HEVC.DTS-HD.MA.TrueHD.Atmos.7.1
Language : Portuguese
Service kind : Complete Main
Default : No
Forced : No

Audio #14
ID : 16
Format : AC-3
Format/Info : Audio Coding 3
Commercial name : Dolby Digital
Codec ID : A_AC3
Duration : 1 h 49 min
Bit rate mode : Constant
Bit rate : 640 kb/s
Channel(s) : 6 channels
Channel layout : L R C LFE Ls Rs
Sampling rate : 48.0 kHz
Frame rate : 31.250 FPS (1536 SPF)
Bit depth : 16 bits
Compression mode : Lossy
Stream size : 502 MiB (1%)
Title : Overlord.2018.2160p.BluRay.REMUX.HEVC.DTS-HD.MA.TrueHD.Atmos.7.1
Language : Russian
Service kind : Complete Main
Default : No
Forced : No

Text #1
ID : 17
Format : UTF-8
Codec ID : S_TEXT/UTF8
Codec ID/Info : UTF-8 Plain Text
Duration : 1 h 4 min
Bit rate : 4 b/s
Count of elements : 91
Stream size : 2.02 KiB (0%)
Title : English-FORCED-SRT
Language : English
Default : Yes
Forced : Yes

Text #2
ID : 18
Format : UTF-8
Codec ID : S_TEXT/UTF8
Codec ID/Info : UTF-8 Plain Text
Duration : 1 h 42 min
Bit rate : 38 b/s
Count of elements : 1034
Stream size : 28.5 KiB (0%)
Title : English-SRT
Language : English
Default : No
Forced : No

Text #3
ID : 19
Format : UTF-8
Codec ID : S_TEXT/UTF8
Codec ID/Info : UTF-8 Plain Text
Duration : 1 h 42 min
Bit rate : 49 b/s
Count of elements : 1459
Stream size : 36.9 KiB (0%)
Title : English-SDH-SRT
Language : English
Default : No
Forced : No

Text #4
ID : 20
Format : PGS
Muxing mode : zlib
Codec ID : S_HDMV/PGS
Codec ID/Info : Picture based subtitle format used on BDs/HD-DVDs
Duration : 1 h 42 min
Bit rate : 8 623 b/s
Count of elements : 2034
Stream size : 6.30 MiB (0%)
Title : English-PGS
Language : English
Default : No
Forced : No

Text #5
ID : 21
Format : PGS
Muxing mode : zlib
Codec ID : S_HDMV/PGS
Codec ID/Info : Picture based subtitle format used on BDs/HD-DVDs
Duration : 1 h 42 min
Bit rate : 12.8 kb/s
Count of elements : 2917
Stream size : 9.35 MiB (0%)
Title : English-SDH-PGS
Language : English
Default : No
Forced : No

Text #6
ID : 22
Format : PGS
Muxing mode : zlib
Codec ID : S_HDMV/PGS
Codec ID/Info : Picture based subtitle format used on BDs/HD-DVDs
Duration : 1 h 49 min
Bit rate : 6 424 b/s
Count of elements : 1744
Stream size : 5.03 MiB (0%)
Title : Arabic-PGS
Language : Arabic
Default : No
Forced : No

Text #7
ID : 23
Format : PGS
Muxing mode : zlib
Codec ID : S_HDMV/PGS
Codec ID/Info : Picture based subtitle format used on BDs/HD-DVDs
Duration : 1 h 49 min
Bit rate : 8 446 b/s
Count of elements : 1936
Stream size : 6.62 MiB (0%)
Title : Malay-PGS
Language : Malay
Default : No
Forced : No

Text #8
ID : 24
Format : PGS
Muxing mode : zlib
Codec ID : S_HDMV/PGS
Codec ID/Info : Picture based subtitle format used on BDs/HD-DVDs
Duration : 1 h 49 min
Bit rate : 11.8 kb/s
Count of elements : 1758
Stream size : 9.22 MiB (0%)
Title : Chinese-PGS
Language : Chinese
Default : No
Forced : No

Text #9
ID : 25
Format : PGS
Muxing mode : zlib
Codec ID : S_HDMV/PGS
Codec ID/Info : Picture based subtitle format used on BDs/HD-DVDs
Duration : 1 h 49 min
Bit rate : 12.5 kb/s
Count of elements : 2038
Stream size : 9.83 MiB (0%)
Title : Czech-PGS
Language : Czech
Default : No
Forced : No

Text #10
ID : 26
Format : PGS
Muxing mode : zlib
Codec ID : S_HDMV/PGS
Codec ID/Info : Picture based subtitle format used on BDs/HD-DVDs
Duration : 1 h 49 min
Bit rate : 6 961 b/s
Count of elements : 1467
Stream size : 5.45 MiB (0%)
Title : Danish-PGS
Language : Danish
Default : No
Forced : No

Text #11
ID : 27
Format : PGS
Muxing mode : zlib
Codec ID : S_HDMV/PGS
Codec ID/Info : Picture based subtitle format used on BDs/HD-DVDs
Duration : 1 h 49 min
Bit rate : 7 926 b/s
Count of elements : 2042
Stream size : 6.21 MiB (0%)
Title : German-PGS
Language : German
Default : No
Forced : No

Text #12
ID : 28
Format : PGS
Muxing mode : zlib
Codec ID : S_HDMV/PGS
Codec ID/Info : Picture based subtitle format used on BDs/HD-DVDs
Duration : 1 h 49 min
Bit rate : 13.7 kb/s
Count of elements : 2036
Stream size : 10.7 MiB (0%)
Title : Greek-PGS
Language : Greek
Default : No
Forced : No

Text #13
ID : 29
Format : PGS
Muxing mode : zlib
Codec ID : S_HDMV/PGS
Codec ID/Info : Picture based subtitle format used on BDs/HD-DVDs
Duration : 1 h 49 min
Bit rate : 7 638 b/s
Count of elements : 1814
Stream size : 5.98 MiB (0%)
Title : Spanish-PGS
Language : Spanish
Default : No
Forced : No

Text #14
ID : 30
Format : PGS
Muxing mode : zlib
Codec ID : S_HDMV/PGS
Codec ID/Info : Picture based subtitle format used on BDs/HD-DVDs
Duration : 1 h 49 min
Bit rate : 7 433 b/s
Count of elements : 1722
Stream size : 5.82 MiB (0%)
Title : Spanish-PGS
Language : Spanish
Default : No
Forced : No

Text #15
ID : 31
Format : PGS
Muxing mode : zlib
Codec ID : S_HDMV/PGS
Codec ID/Info : Picture based subtitle format used on BDs/HD-DVDs
Duration : 1 h 49 min
Bit rate : 6 564 b/s
Count of elements : 1816
Stream size : 5.14 MiB (0%)
Title : French-PGS
Language : French
Default : No
Forced : No

Text #16
ID : 32
Format : PGS
Muxing mode : zlib
Codec ID : S_HDMV/PGS
Codec ID/Info : Picture based subtitle format used on BDs/HD-DVDs
Duration : 1 h 49 min
Bit rate : 16.1 kb/s
Count of elements : 2469
Stream size : 12.7 MiB (0%)
Title : Hindi-PGS
Language : Hindi
Default : No
Forced : No

Text #17
ID : 33
Format : PGS
Muxing mode : zlib
Codec ID : S_HDMV/PGS
Codec ID/Info : Picture based subtitle format used on BDs/HD-DVDs
Duration : 1 h 49 min
Bit rate : 7 269 b/s
Count of elements : 1742
Stream size : 5.69 MiB (0%)
Title : Italian-PGS
Language : Italian
Default : No
Forced : No

Text #18
ID : 34
Format : PGS
Muxing mode : zlib
Codec ID : S_HDMV/PGS
Codec ID/Info : Picture based subtitle format used on BDs/HD-DVDs
Duration : 1 h 42 min
Bit rate : 12.4 kb/s
Count of elements : 1668
Stream size : 9.05 MiB (0%)
Title : Japanese-PGS
Language : Japanese
Default : No
Forced : No

Text #19
ID : 35
Format : PGS
Muxing mode : zlib
Codec ID : S_HDMV/PGS
Codec ID/Info : Picture based subtitle format used on BDs/HD-DVDs
Duration : 1 h 49 min
Bit rate : 9 201 b/s
Count of elements : 2042
Stream size : 7.21 MiB (0%)
Title : Korean-PGS
Language : Korean
Default : No
Forced : No

Text #20
ID : 36
Format : PGS
Muxing mode : zlib
Codec ID : S_HDMV/PGS
Codec ID/Info : Picture based subtitle format used on BDs/HD-DVDs
Duration : 1 h 49 min
Bit rate : 12.8 kb/s
Count of elements : 2010
Stream size : 9.99 MiB (0%)
Title : Hungarian-PGS
Language : Hungarian
Default : No
Forced : No

Text #21
ID : 37
Format : PGS
Muxing mode : zlib
Codec ID : S_HDMV/PGS
Codec ID/Info : Picture based subtitle format used on BDs/HD-DVDs
Duration : 1 h 49 min
Bit rate : 11.8 kb/s
Count of elements : 1822
Stream size : 9.23 MiB (0%)
Title : Chinese-PGS
Language : Chinese
Default : No
Forced : No

Text #22
ID : 38
Format : PGS
Muxing mode : zlib
Codec ID : S_HDMV/PGS
Codec ID/Info : Picture based subtitle format used on BDs/HD-DVDs
Duration : 1 h 49 min
Bit rate : 6 433 b/s
Count of elements : 1390
Stream size : 5.04 MiB (0%)
Title : Dutch-PGS
Language : Dutch
Default : No
Forced : No

Text #23
ID : 39
Format : PGS
Muxing mode : zlib
Codec ID : S_HDMV/PGS
Codec ID/Info : Picture based subtitle format used on BDs/HD-DVDs
Duration : 1 h 49 min
Bit rate : 6 854 b/s
Count of elements : 1738
Stream size : 5.37 MiB (0%)
Title : Norwegian-PGS
Language : Norwegian
Default : No
Forced : No

Text #24
ID : 40
Format : PGS
Muxing mode : zlib
Codec ID : S_HDMV/PGS
Codec ID/Info : Picture based subtitle format used on BDs/HD-DVDs
Duration : 1 h 49 min
Bit rate : 11.0 kb/s
Count of elements : 1719
Stream size : 8.60 MiB (0%)
Title : Polish-PGS
Language : Polish
Default : No
Forced : No

Text #25
ID : 41
Format : PGS
Muxing mode : zlib
Codec ID : S_HDMV/PGS
Codec ID/Info : Picture based subtitle format used on BDs/HD-DVDs
Duration : 1 h 49 min
Bit rate : 6 138 b/s
Count of elements : 1744
Stream size : 4.81 MiB (0%)
Title : Portuguese-PGS
Language : Portuguese
Default : No
Forced : No

Text #26
ID : 42
Format : PGS
Muxing mode : zlib
Codec ID : S_HDMV/PGS
Codec ID/Info : Picture based subtitle format used on BDs/HD-DVDs
Duration : 1 h 49 min
Bit rate : 7 513 b/s
Count of elements : 1946
Stream size : 5.89 MiB (0%)
Title : Portuguese-PGS
Language : Portuguese
Default : No
Forced : No

Text #27
ID : 43
Format : PGS
Muxing mode : zlib
Codec ID : S_HDMV/PGS
Codec ID/Info : Picture based subtitle format used on BDs/HD-DVDs
Duration : 1 h 49 min
Bit rate : 12.1 kb/s
Count of elements : 1754
Stream size : 9.51 MiB (0%)
Title : Russian-PGS
Language : Russian
Default : No
Forced : No

Text #28
ID : 44
Format : PGS
Muxing mode : zlib
Codec ID : S_HDMV/PGS
Codec ID/Info : Picture based subtitle format used on BDs/HD-DVDs
Duration : 1 h 49 min
Bit rate : 11.3 kb/s
Count of elements : 1760
Stream size : 8.88 MiB (0%)
Title : Romanian-PGS
Language : Romanian
Default : No
Forced : No

Text #29
ID : 45
Format : PGS
Muxing mode : zlib
Codec ID : S_HDMV/PGS
Codec ID/Info : Picture based subtitle format used on BDs/HD-DVDs
Duration : 1 h 49 min
Bit rate : 12.4 kb/s
Count of elements : 2026
Stream size : 9.73 MiB (0%)
Title : Slovak-PGS
Language : Slovak
Default : No
Forced : No

Text #30
ID : 46
Format : PGS
Muxing mode : zlib
Codec ID : S_HDMV/PGS
Codec ID/Info : Picture based subtitle format used on BDs/HD-DVDs
Duration : 1 h 49 min
Bit rate : 7 097 b/s
Count of elements : 2038
Stream size : 5.56 MiB (0%)
Title : Finnish-PGS
Language : Finnish
Default : No
Forced : No

Text #31
ID : 47
Format : PGS
Muxing mode : zlib
Codec ID : S_HDMV/PGS
Codec ID/Info : Picture based subtitle format used on BDs/HD-DVDs
Duration : 1 h 49 min
Bit rate : 6 946 b/s
Count of elements : 1741
Stream size : 5.44 MiB (0%)
Title : Swedish-PGS
Language : Swedish
Default : No
Forced : No

Text #32
ID : 48
Format : PGS
Muxing mode : zlib
Codec ID : S_HDMV/PGS
Codec ID/Info : Picture based subtitle format used on BDs/HD-DVDs
Duration : 1 h 49 min
Bit rate : 8 903 b/s
Count of elements : 1760
Stream size : 6.97 MiB (0%)
Title : Thai-PGS
Language : Thai
Default : No
Forced : No

Text #33
ID : 49
Format : PGS
Muxing mode : zlib
Codec ID : S_HDMV/PGS
Codec ID/Info : Picture based subtitle format used on BDs/HD-DVDs
Duration : 1 h 49 min
Bit rate : 13.5 kb/s
Count of elements : 1744
Stream size : 10.6 MiB (0%)
Title : Turkish-PGS
Language : Turkish
Default : No
Forced : No

Menu
00:00:00.000 : :Chapter 1
00:06:30.264 : :Chapter 2
00:13:46.659 : :Chapter 3
00:20:30.479 : :Chapter 4
00:26:26.960 : :Chapter 5
00:34:08.129 : :Chapter 6
00:41:09.758 : :Chapter 7
00:48:40.542 : :Chapter 8
00:55:50.055 : :Chapter 9
01:03:20.630 : :Chapter 10
01:10:27.765 : :Chapter 11
01:17:21.053 : :Chapter 12
01:25:46.766 : :Chapter 13
01:32:18.324 : :Chapter 14
01:38:47.630 : :Chapter 15
01:42:38.360 : :Chapter 16
movie BDRip Video
ID : 1
Format : HEVC
Format/Info : High Efficiency Video Coding
Commercial name : HDR10
Format profile : Main 10@L5.1@High
Codec ID : V_MPEGH/ISO/HEVC
Duration : 1 h 49 min
Bit rate : 29.7 Mb/s
Width : 3 840 pixels
Height : 1 600 pixels
Display aspect ratio : 2.40:1
Frame rate mode : Constant
Frame rate : 23.976 (24000/1001) FPS
Color space : YUV
Chroma subsampling : 4:2:0 (Type 2)
Bit depth : 10 bits
Bits/(Pixel*Frame) : 0.202
Stream size : 22.8 GiB (76%)
Title : Overlord.2018.2160p.BluRay.x265.10bit.HDR.DTS-HD.MA.TrueHD.7.1.Atmos-SWTYBLZ
Writing library : x265 3.0_RC+13-ae085e5cd8a2:[Windows][GCC 8.2.1][64 bit] 10bit
Encoding settings : cpuid=1111039 / frame-threads=16 / numa-pools=24,24,24,24 / wpp / no-pmode / no-pme / no-psnr / no-ssim / log-level=2 / input-csp=1 / input-res=3840x1600 / interlace=0 / total-frames=0 / level-idc=51 / high-tier=1 / uhd-bd=0 / ref=3 / no-allow-non-conformance / repeat-headers / annexb / aud / hrd / info / hash=0 / no-temporal-layers / no-open-gop / min-keyint=1 / keyint=24 / gop-lookahead=0 / bframes=4 / b-adapt=2 / b-pyramid / bframe-bias=0 / rc-lookahead=25 / lookahead-slices=4 / scenecut=40 / radl=0 / no-splice / no-intra-refresh / ctu=64 / min-cu-size=8 / no-rect / no-amp / max-tu-size=32 / tu-inter-depth=1 / tu-intra-depth=1 / limit-tu=0 / rdoq-level=0 / dynamic-rd=0.00 / no-ssim-rd / signhide / no-tskip / nr-intra=0 / nr-inter=0 / no-constrained-intra / strong-intra-smoothing / max-merge=2 / limit-refs=3 / no-limit-modes / me=1 / subme=2 / merange=57 / temporal-mvp / weightp / no-weightb / no-analyze-src-pics / deblock=0:0 / no-sao / no-sao-non-deblock / rd=3 / no-early-skip / rskip / no-fast-intra / no-tskip-fast / no-cu-lossless / no-b-intra / no-splitrd-skip / rdpenalty=0 / psy-rd=2.00 / psy-rdoq=0.00 / no-rd-refine / no-lossless / cbqpoffs=0 / crqpoffs=0 / rc=crf / crf=16.0 / qcomp=0.60 / qpstep=4 / stats-write=0 / stats-read=0 / vbv-maxrate=160000 / vbv-bufsize=160000 / vbv-init=0.9 / crf-max=0.0 / crf-min=0.0 / ipratio=1.40 / pbratio=1.30 / aq-mode=1 / aq-strength=1.00 / cutree / zone-count=0 / no-strict-cbr / qg-size=32 / no-rc-grain / qpmax=69 / qpmin=0 / no-const-vbv / sar=1 / overscan=0 / videoformat=5 / range=0 / colorprim=9 / transfer=16 / colormatrix=9 / chromaloc=1 / chromaloc-top=2 / chromaloc-bottom=2 / display-window=0 / master-display=G(13250,34500)B(7500,3000)R(34000,16000)WP(15635,16450)L(10000000,01) / max-cll=0,0 / min-luma=0 / max-luma=1023 / log2-max-poc-lsb=8 / vui-timing-info / vui-hrd-info / slices=1 / opt-qp-pps / opt-ref-list-length-pps / no-multi-pass-opt-rps / scenecut-bias=0.05 / no-opt-cu-delta-qp / no-aq-motion / hdr / hdr-opt / no-dhdr10-opt / no-idr-recovery-sei / analysis-reuse-level=5 / scale-factor=0 / refine-intra=0 / refine-inter=0 / refine-mv=0 / refine-ctu-distortion=0 / no-limit-sao / ctu-info=0 / no-lowpass-dct / refine-analysis-type=0 / copy-pic=1 / max-ausize-factor=1.0 / no-dynamic-refine / no-single-sei / no-hevc-aq / qp-adaptation-range=1.00
Default : Yes
Forced : No
Color range : Limited
Color primaries : BT.2020
Transfer characteristics : PQ
Matrix coefficients : BT.2020 non-constant
Mastering display color primaries : Display P3
Mastering display luminance : min: 0.0001 cd/m2, max: 1000 cd/m2

Audio #1
ID : 2
Format : MLP FBA 16-ch
Format/Info : Meridian Lossless Packing FBA with 16-channel presentation
Commercial name : Dolby TrueHD with Dolby Atmos
Codec ID : A_TRUEHD
Duration : 1 h 49 min
Bit rate mode : Variable
Bit rate : 4 723 kb/s
Maximum bit rate : 8 355 kb/s
Channel(s) : 8 channels
Channel layout : L R C LFE Ls Rs Lb Rb
Sampling rate : 48.0 kHz
Frame rate : 1 200.000 FPS (40 SPF)
Compression mode : Lossless
Delay relative to video : 33 ms
Stream size : 3.62 GiB (12%)
Title : Overlord.2018.2160p.BluRay.x265.10bit.HDR.DTS-HD.MA.TrueHD.7.1.Atmos-SWTYBLZ
Language : English
Default : Yes
Forced : No
Number of dynamic objects : 11
Bed channel count : 1 channel
Bed channel configuration : LFE

Audio #2
ID : 3
Format : DTS XLL
Format/Info : Digital Theater Systems
Commercial name : DTS-HD Master Audio
Codec ID : A_DTS
Duration : 1 h 49 min
Bit rate mode : Variable
Bit rate : 4 022 kb/s
Channel(s) : 8 channels
Channel layout : C L R LFE Lb Rb Lss Rss
Sampling rate : 48.0 kHz
Frame rate : 93.750 FPS (512 SPF)
Bit depth : 24 bits
Compression mode : Lossless
Stream size : 3.08 GiB (10%)
Title : Overlord.2018.2160p.BluRay.x265.10bit.HDR.DTS-HD.MA.TrueHD.7.1.Atmos-SWTYBLZ
Language : English
Default : No
Forced : No

Audio #3
ID : 4
Format : AC-3
Format/Info : Audio Coding 3
Commercial name : Dolby Digital
Codec ID : A_AC3
Duration : 1 h 49 min
Bit rate mode : Constant
Bit rate : 640 kb/s
Channel(s) : 6 channels
Channel layout : L R C LFE Ls Rs
Sampling rate : 48.0 kHz
Frame rate : 31.250 FPS (1536 SPF)
Bit depth : 16 bits
Compression mode : Lossy
Delay relative to video : 32 ms
Stream size : 502 MiB (2%)
Title : Overlord.2018.2160p.BluRay.x265.10bit.HDR.DTS-HD.MA.TrueHD.7.1.Atmos-SWTYBLZ
Language : English
Service kind : Complete Main
Default : No
Forced : No

Text #1
ID : 5
Format : UTF-8
Codec ID : S_TEXT/UTF8
Codec ID/Info : UTF-8 Plain Text
Duration : 1 h 4 min
Bit rate : 4 b/s
Count of elements : 91
Stream size : 2.02 KiB (0%)
Title : English-FORCED-SRT
Language : English
Default : Yes
Forced : Yes

Text #2
ID : 6
Format : UTF-8
Codec ID : S_TEXT/UTF8
Codec ID/Info : UTF-8 Plain Text
Duration : 1 h 42 min
Bit rate : 38 b/s
Count of elements : 1034
Stream size : 28.5 KiB (0%)
Title : English-SRT
Language : English
Default : No
Forced : No

Text #3
ID : 7
Format : UTF-8
Codec ID : S_TEXT/UTF8
Codec ID/Info : UTF-8 Plain Text
Duration : 1 h 42 min
Bit rate : 49 b/s
Count of elements : 1459
Stream size : 36.9 KiB (0%)
Title : English-SDH-SRT
Language : English
Default : No
Forced : No

Text #4
ID : 8
Format : PGS
Muxing mode : zlib
Codec ID : S_HDMV/PGS
Codec ID/Info : Picture based subtitle format used on BDs/HD-DVDs
Duration : 1 h 42 min
Bit rate : 8 623 b/s
Count of elements : 2034
Stream size : 6.30 MiB (0%)
Title : English-PGS
Language : English
Default : No
Forced : No

Text #5
ID : 9
Format : PGS
Muxing mode : zlib
Codec ID : S_HDMV/PGS
Codec ID/Info : Picture based subtitle format used on BDs/HD-DVDs
Duration : 1 h 42 min
Bit rate : 12.8 kb/s
Count of elements : 2917
Stream size : 9.35 MiB (0%)
Title : English-SDH-PGS
Language : English
Default : No
Forced : No

Text #6
ID : 10
Format : PGS
Muxing mode : zlib
Codec ID : S_HDMV/PGS
Codec ID/Info : Picture based subtitle format used on BDs/HD-DVDs
Duration : 1 h 49 min
Bit rate : 6 424 b/s
Count of elements : 1744
Stream size : 5.03 MiB (0%)
Title : Arabic-PGS
Language : Arabic
Default : No
Forced : No

Text #7
ID : 11
Format : PGS
Muxing mode : zlib
Codec ID : S_HDMV/PGS
Codec ID/Info : Picture based subtitle format used on BDs/HD-DVDs
Duration : 1 h 49 min
Bit rate : 8 446 b/s
Count of elements : 1936
Stream size : 6.62 MiB (0%)
Title : Malay-PGS
Language : Malay
Default : No
Forced : No

Text #8
ID : 12
Format : PGS
Muxing mode : zlib
Codec ID : S_HDMV/PGS
Codec ID/Info : Picture based subtitle format used on BDs/HD-DVDs
Duration : 1 h 49 min
Bit rate : 11.8 kb/s
Count of elements : 1758
Stream size : 9.22 MiB (0%)
Title : Chinese-PGS
Language : Chinese
Default : No
Forced : No

Text #9
ID : 13
Format : PGS
Muxing mode : zlib
Codec ID : S_HDMV/PGS
Codec ID/Info : Picture based subtitle format used on BDs/HD-DVDs
Duration : 1 h 49 min
Bit rate : 12.5 kb/s
Count of elements : 2038
Stream size : 9.83 MiB (0%)
Title : Czech-PGS
Language : Czech
Default : No
Forced : No

Text #10
ID : 14
Format : PGS
Muxing mode : zlib
Codec ID : S_HDMV/PGS
Codec ID/Info : Picture based subtitle format used on BDs/HD-DVDs
Duration : 1 h 49 min
Bit rate : 6 961 b/s
Count of elements : 1467
Stream size : 5.45 MiB (0%)
Title : Danish-PGS
Language : Danish
Default : No
Forced : No

Text #11
ID : 15
Format : PGS
Muxing mode : zlib
Codec ID : S_HDMV/PGS
Codec ID/Info : Picture based subtitle format used on BDs/HD-DVDs
Duration : 1 h 49 min
Bit rate : 7 926 b/s
Count of elements : 2042
Stream size : 6.21 MiB (0%)
Title : German-PGS
Language : German
Default : No
Forced : No

Text #12
ID : 16
Format : PGS
Muxing mode : zlib
Codec ID : S_HDMV/PGS
Codec ID/Info : Picture based subtitle format used on BDs/HD-DVDs
Duration : 1 h 49 min
Bit rate : 13.7 kb/s
Count of elements : 2036
Stream size : 10.7 MiB (0%)
Title : Greek-PGS
Language : Greek
Default : No
Forced : No

Text #13
ID : 17
Format : PGS
Muxing mode : zlib
Codec ID : S_HDMV/PGS
Codec ID/Info : Picture based subtitle format used on BDs/HD-DVDs
Duration : 1 h 49 min
Bit rate : 7 638 b/s
Count of elements : 1814
Stream size : 5.98 MiB (0%)
Title : Spanish-PGS
Language : Spanish
Default : No
Forced : No

Text #14
ID : 18
Format : PGS
Muxing mode : zlib
Codec ID : S_HDMV/PGS
Codec ID/Info : Picture based subtitle format used on BDs/HD-DVDs
Duration : 1 h 49 min
Bit rate : 7 433 b/s
Count of elements : 1722
Stream size : 5.82 MiB (0%)
Title : Spanish-PGS
Language : Spanish
Default : No
Forced : No

Text #15
ID : 19
Format : PGS
Muxing mode : zlib
Codec ID : S_HDMV/PGS
Codec ID/Info : Picture based subtitle format used on BDs/HD-DVDs
Duration : 1 h 49 min
Bit rate : 6 564 b/s
Count of elements : 1816
Stream size : 5.14 MiB (0%)
Title : French-PGS
Language : French
Default : No
Forced : No

Text #16
ID : 20
Format : PGS
Muxing mode : zlib
Codec ID : S_HDMV/PGS
Codec ID/Info : Picture based subtitle format used on BDs/HD-DVDs
Duration : 1 h 49 min
Bit rate : 16.1 kb/s
Count of elements : 2469
Stream size : 12.7 MiB (0%)
Title : Hindi-PGS
Language : Hindi
Default : No
Forced : No

Text #17
ID : 21
Format : PGS
Muxing mode : zlib
Codec ID : S_HDMV/PGS
Codec ID/Info : Picture based subtitle format used on BDs/HD-DVDs
Duration : 1 h 49 min
Bit rate : 7 269 b/s
Count of elements : 1742
Stream size : 5.69 MiB (0%)
Title : Italian-PGS
Language : Italian
Default : No
Forced : No

Text #18
ID : 22
Format : PGS
Muxing mode : zlib
Codec ID : S_HDMV/PGS
Codec ID/Info : Picture based subtitle format used on BDs/HD-DVDs
Duration : 1 h 42 min
Bit rate : 12.4 kb/s
Count of elements : 1668
Stream size : 9.05 MiB (0%)
Title : Japanese-PGS
Language : Japanese
Default : No
Forced : No

Text #19
ID : 23
Format : PGS
Muxing mode : zlib
Codec ID : S_HDMV/PGS
Codec ID/Info : Picture based subtitle format used on BDs/HD-DVDs
Duration : 1 h 49 min
Bit rate : 9 201 b/s
Count of elements : 2042
Stream size : 7.21 MiB (0%)
Title : Korean-PGS
Language : Korean
Default : No
Forced : No

Text #20
ID : 24
Format : PGS
Muxing mode : zlib
Codec ID : S_HDMV/PGS
Codec ID/Info : Picture based subtitle format used on BDs/HD-DVDs
Duration : 1 h 49 min
Bit rate : 12.8 kb/s
Count of elements : 2010
Stream size : 9.99 MiB (0%)
Title : Hungarian-PGS
Language : Hungarian
Default : No
Forced : No

Text #21
ID : 25
Format : PGS
Muxing mode : zlib
Codec ID : S_HDMV/PGS
Codec ID/Info : Picture based subtitle format used on BDs/HD-DVDs
Duration : 1 h 49 min
Bit rate : 11.8 kb/s
Count of elements : 1822
Stream size : 9.23 MiB (0%)
Title : Chinese-PGS
Language : Chinese
Default : No
Forced : No

Text #22
ID : 26
Format : PGS
Muxing mode : zlib
Codec ID : S_HDMV/PGS
Codec ID/Info : Picture based subtitle format used on BDs/HD-DVDs
Duration : 1 h 49 min
Bit rate : 6 433 b/s
Count of elements : 1390
Stream size : 5.04 MiB (0%)
Title : Dutch-PGS
Language : Dutch
Default : No
Forced : No

Text #23
ID : 27
Format : PGS
Muxing mode : zlib
Codec ID : S_HDMV/PGS
Codec ID/Info : Picture based subtitle format used on BDs/HD-DVDs
Duration : 1 h 49 min
Bit rate : 6 854 b/s
Count of elements : 1738
Stream size : 5.37 MiB (0%)
Title : Norwegian-PGS
Language : Norwegian
Default : No
Forced : No

Text #24
ID : 28
Format : PGS
Muxing mode : zlib
Codec ID : S_HDMV/PGS
Codec ID/Info : Picture based subtitle format used on BDs/HD-DVDs
Duration : 1 h 49 min
Bit rate : 11.0 kb/s
Count of elements : 1719
Stream size : 8.60 MiB (0%)
Title : Polish-PGS
Language : Polish
Default : No
Forced : No

Text #25
ID : 29
Format : PGS
Muxing mode : zlib
Codec ID : S_HDMV/PGS
Codec ID/Info : Picture based subtitle format used on BDs/HD-DVDs
Duration : 1 h 49 min
Bit rate : 6 138 b/s
Count of elements : 1744
Stream size : 4.81 MiB (0%)
Title : Portuguese-PGS
Language : Portuguese
Default : No
Forced : No

Text #26
ID : 30
Format : PGS
Muxing mode : zlib
Codec ID : S_HDMV/PGS
Codec ID/Info : Picture based subtitle format used on BDs/HD-DVDs
Duration : 1 h 49 min
Bit rate : 7 513 b/s
Count of elements : 1946
Stream size : 5.89 MiB (0%)
Title : Portuguese-PGS
Language : Portuguese
Default : No
Forced : No

Text #27
ID : 31
Format : PGS
Muxing mode : zlib
Codec ID : S_HDMV/PGS
Codec ID/Info : Picture based subtitle format used on BDs/HD-DVDs
Duration : 1 h 49 min
Bit rate : 12.1 kb/s
Count of elements : 1754
Stream size : 9.51 MiB (0%)
Title : Russian-PGS
Language : Russian
Default : No
Forced : No

Text #28
ID : 32
Format : PGS
Muxing mode : zlib
Codec ID : S_HDMV/PGS
Codec ID/Info : Picture based subtitle format used on BDs/HD-DVDs
Duration : 1 h 49 min
Bit rate : 11.3 kb/s
Count of elements : 1760
Stream size : 8.88 MiB (0%)
Title : Romanian-PGS
Language : Romanian
Default : No
Forced : No

Text #29
ID : 33
Format : PGS
Muxing mode : zlib
Codec ID : S_HDMV/PGS
Codec ID/Info : Picture based subtitle format used on BDs/HD-DVDs
Duration : 1 h 49 min
Bit rate : 12.4 kb/s
Count of elements : 2026
Stream size : 9.73 MiB (0%)
Title : Slovak-PGS
Language : Slovak
Default : No
Forced : No

Text #30
ID : 34
Format : PGS
Muxing mode : zlib
Codec ID : S_HDMV/PGS
Codec ID/Info : Picture based subtitle format used on BDs/HD-DVDs
Duration : 1 h 49 min
Bit rate : 7 097 b/s
Count of elements : 2038
Stream size : 5.56 MiB (0%)
Title : Finnish-PGS
Language : Finnish
Default : No
Forced : No

Text #31
ID : 35
Format : PGS
Muxing mode : zlib
Codec ID : S_HDMV/PGS
Codec ID/Info : Picture based subtitle format used on BDs/HD-DVDs
Duration : 1 h 49 min
Bit rate : 6 946 b/s
Count of elements : 1741
Stream size : 5.44 MiB (0%)
Title : Swedish-PGS
Language : Swedish
Default : No
Forced : No

Text #32
ID : 36
Format : PGS
Muxing mode : zlib
Codec ID : S_HDMV/PGS
Codec ID/Info : Picture based subtitle format used on BDs/HD-DVDs
Duration : 1 h 49 min
Bit rate : 8 903 b/s
Count of elements : 1760
Stream size : 6.97 MiB (0%)
Title : Thai-PGS
Language : Thai
Default : No
Forced : No

Text #33
ID : 37
Format : PGS
Muxing mode : zlib
Codec ID : S_HDMV/PGS
Codec ID/Info : Picture based subtitle format used on BDs/HD-DVDs
Duration : 1 h 49 min
Bit rate : 13.5 kb/s
Count of elements : 1744
Stream size : 10.6 MiB (0%)
Title : Turkish-PGS
Language : Turkish
Default : No
Forced : No

Menu
00:00:00.000 : :Chapter 1
00:06:30.264 : :Chapter 2
00:13:46.659 : :Chapter 3
00:20:30.479 : :Chapter 4
00:26:26.960 : :Chapter 5
00:34:08.129 : :Chapter 6
00:41:09.758 : :Chapter 7
00:48:40.542 : :Chapter 8
00:55:50.055 : :Chapter 9
01:03:20.630 : :Chapter 10
01:10:27.765 : :Chapter 11
01:17:21.053 : :Chapter 12
01:25:46.766 : :Chapter 13
01:32:18.324 : :Chapter 14
01:38:47.630 : :Chapter 15
01:42:38.360 : :Chapter 16

Download

download 4k hdr movies download 4k hdr movies

Watch a movie trailer - Overlord 4K 2018 Ultra HD 2160p
Comments and Feedback
Add your comment:
Your name:
Your E-Mail:
Code:
reload, if the code cannot be seen
Enter code: