Select movie Search movie Close search My Account

Shazam 4K 2019 Ultra HD 2160p

Shazam 4K 2019 Ultra HD 2160p
BDRemux / BDRip
Country: USA
Time: 2h 12min
IMDB: 7.3
Director: David F. Sandberg
Actors: Zachary Levi, Mark Strong, Asher Angel, Jack Dylan Grazer, Adam Brody, Djimon Hounsou, Faithe Herman, Meagan Good, Grace Fulton, Michelle Borth, Ian Chen, Ross Butler, Jovan Armand, D.J. Cotrona, Marta Milans.

Story Movie

Shazam 4K 2019 Ultra HD 2160p
new release 4k movies Shazam UHD. Inside each of us lives a superhero - you need only a little magic to release it outside. In the case of Billy Batson (Asher Angel), a 14-year-old adopted child, it is enough to shout out the word “Shazam!” (Kindly provided to the guy by an ancient wizard) and turn with his help into an adult superhero (Zachary Levy). But, despite the god-like body, this strongman is still a child who enjoys an adult version of himself and uses his newfound superpowers for unbridled fun. Can he fly? Does he have x-ray vision? Is he capable of letting lightning out of his hands? Can he skip the social science test? Shazam will have to test the limits of his abilities, having done this with the inherent joyful recklessness inherent in the child. But Billy has very little time to fully master magical skills, because he urgently needs to overcome the deadly evil forces controlled by Dr. Thaddeus Sivana (Mark Strong).

Review 4K Movie

It’s impossible not to sympathize with the theoretical fan of the DC universe - a movie about favorite characters from film to film shakes like a squirrel on caffeine. The quality jumps, the tone changes, the actors run as if from a sinking ship, announce films that are not even part of the universe ...

And then “Shazam” happens. And here it becomes quite difficult. Putting on one line the pompously serious “Batman Vs Superman” and the hilarious skit from “Shazam” is at least not convenient. But we have what we have. And while everyone is waiting for a happy moment when the universe will find its face, let's just take a closer look at Shazam and try to figure out if it is a good movie.

Without unnecessary preludes - yes, good. “Shazam” is, first of all, an excellent comedy, and secondly, a good children's film for all the family to watch. This time we are told not a gloomy epic about saving the world, but a simple story about growing up and family values. I would like to compare Shazam not with previous DC films, but with the film Bolshoi with Tom Hanks (if you haven’t watched, I highly recommend it).

Indeed, humor, built around situations where the main character, being in the body of a sexually mature inflated athlete, still continues to behave like a child, cannot but make laugh. There are a lot of jokes in the tape, they are different, but all are good. “Shazam” seems to be standing on the other side of “Deadpool”: a comedic superheroic that you can and even need to watch including kids. Yes, and what a sin to conceal, a couple of stupid, but funny gags about a pipinka make any young man laugh.

The main plot against the background of a stream of humor is simply unimportant. Strictly speaking, there is a textured villain performed by Mark Strong, which no-no, and steals a couple of memorable scenes, but in a global sense, he is purely utilitarian for the picture. The conflict serves only as a catalyst for creating more vivid and fun scenes, after which the young viewer may also get food for thought. In this regard, Shazam is even too trivial. We all know from the very beginning how it will end: targeting a young audience plays a cruel joke with the film.

But I do not want to scold the tape for this. “Shazam” turned out to be a good light film that goes well with a cup of tea and a blanket. He is not ashamed to go to the movies, especially in the company.

8 out of 10

Now I want to see how this little one will be added to the Justice League.

Mediainfo

movie BDRemux Video #1
ID : 1
Format : HEVC
Format/Info : High Efficiency Video Coding
Commercial name : HDR10
Format profile : Main 10@L5.1@High
Codec ID : V_MPEGH/ISO/HEVC
Duration : 2 h 11 min
Bit rate : 76.7 Mb/s
Width : 3 840 pixels
Height : 2 160 pixels
Display aspect ratio : 16:9
Frame rate mode : Constant
Frame rate : 23.976 (24000/1001) FPS
Color space : YUV
Chroma subsampling : 4:2:0 (Type 2)
Bit depth : 10 bits
Bits/(Pixel*Frame) : 0.386
Stream size : 70.6 GiB (87%)
Title : Shazam.2019.2160p.BluRay.REMUX.HEVC.DTS-HD.MA.TrueHD.7.1.Atmos
Language : English
Default : Yes
Forced : No
Color range : Limited
Color primaries : BT.2020
Transfer characteristics : PQ
Matrix coefficients : BT.2020 non-constant
Mastering display color primaries : Display P3
Mastering display luminance : min: 0.0050 cd/m2, max: 4000 cd/m2
Maximum Content Light Level : 1351 cd/m2
Maximum Frame-Average Light Level : 384 cd/m2


Video #2
ID : 2
Format : HEVC
Format/Info : High Efficiency Video Coding
Commercial name : HDR10
Format profile : Main 10@L5.1@High
Codec ID : V_MPEGH/ISO/HEVC
Duration : 2 h 11 min
Bit rate : 60.7 kb/s
Width : 1 920 pixels
Height : 1 080 pixels
Display aspect ratio : 16:9
Frame rate mode : Constant
Frame rate : 23.976 (24000/1001) FPS
Color space : YUV
Chroma subsampling : 4:2:0 (Type 2)
Bit depth : 10 bits
Bits/(Pixel*Frame) : 0.001
Stream size : 57.1 MiB (0%)
Title : Shazam.2019.2160p.BluRay.REMUX.HEVC.DTS-HD.MA.TrueHD.7.1.Atmos
Language : English
Default : No
Forced : No
Color range : Limited
Color primaries : BT.2020
Transfer characteristics : PQ
Matrix coefficients : BT.2020 non-constant
Mastering display color primaries : Display P3
Mastering display luminance : min: 0.0050 cd/m2, max: 4000 cd/m2

Audio #1
ID : 3
Format : MLP FBA 16-ch
Format/Info : Meridian Lossless Packing FBA with 16-channel presentation
Commercial name : Dolby TrueHD with Dolby Atmos
Codec ID : A_TRUEHD
Duration : 2 h 11 min
Bit rate mode : Variable
Bit rate : 3 645 kb/s
Maximum bit rate : 5 931 kb/s
Channel(s) : 8 channels
Channel layout : L R C LFE Ls Rs Lb Rb
Sampling rate : 48.0 kHz
Frame rate : 1 200.000 FPS (40 SPF)
Compression mode : Lossless
Stream size : 3.35 GiB (4%)
Title : Shazam.2019.2160p.BluRay.REMUX.HEVC.DTS-HD.MA.TrueHD.7.1.Atmos
Language : English
Default : Yes
Forced : No
Number of dynamic objects : 15
Bed channel count : 1 channel
Bed channel configuration : LFE

Audio #2
ID : 4
Format : DTS XLL
Format/Info : Digital Theater Systems
Commercial name : DTS-HD Master Audio
Codec ID : A_DTS
Duration : 2 h 11 min
Bit rate mode : Variable
Bit rate : 4 217 kb/s
Channel(s) : 8 channels
Channel layout : C L R LFE Lb Rb Lss Rss
Sampling rate : 48.0 kHz
Frame rate : 93.750 FPS (512 SPF)
Bit depth : 24 bits
Compression mode : Lossless
Stream size : 3.88 GiB (5%)
Title : Shazam.2019.2160p.BluRay.REMUX.HEVC.DTS-HD.MA.TrueHD.7.1.Atmos
Language : English
Default : No
Forced : No

Audio #3
ID : 5
Format : AC-3
Format/Info : Audio Coding 3
Commercial name : Dolby Digital
Codec ID : A_AC3
Duration : 2 h 11 min
Bit rate mode : Constant
Bit rate : 448 kb/s
Channel(s) : 6 channels
Channel layout : L R C LFE Ls Rs
Sampling rate : 48.0 kHz
Frame rate : 31.250 FPS (1536 SPF)
Bit depth : 16 bits
Compression mode : Lossy
Stream size : 422 MiB (1%)
Title : Shazam.2019.2160p.BluRay.REMUX.HEVC.DTS-HD.MA.TrueHD.7.1.Atmos
Language : English
Service kind : Complete Main
Default : No
Forced : No

Audio #4
ID : 6
Format : AC-3
Format/Info : Audio Coding 3
Commercial name : Dolby Digital
Codec ID : A_AC3
Duration : 2 h 11 min
Bit rate mode : Constant
Bit rate : 448 kb/s
Channel(s) : 6 channels
Channel layout : L R C LFE Ls Rs
Sampling rate : 48.0 kHz
Frame rate : 31.250 FPS (1536 SPF)
Bit depth : 16 bits
Compression mode : Lossy
Stream size : 422 MiB (1%)
Title : Shazam.2019.2160p.BluRay.REMUX.HEVC.DTS-HD.MA.TrueHD.7.1.Atmos
Language : English
Service kind : Complete Main
Default : No
Forced : No

Audio #5
ID : 7
Format : AC-3
Format/Info : Audio Coding 3
Commercial name : Dolby Digital
Codec ID : A_AC3
Duration : 2 h 11 min
Bit rate mode : Constant
Bit rate : 448 kb/s
Channel(s) : 6 channels
Channel layout : L R C LFE Ls Rs
Sampling rate : 48.0 kHz
Frame rate : 31.250 FPS (1536 SPF)
Bit depth : 16 bits
Compression mode : Lossy
Stream size : 422 MiB (1%)
Title : Shazam.2019.2160p.BluRay.REMUX.HEVC.DTS-HD.MA.TrueHD.7.1.Atmos
Language : English
Service kind : Complete Main
Default : No
Forced : No

Audio #6
ID : 8
Format : AC-3
Format/Info : Audio Coding 3
Commercial name : Dolby Digital
Codec ID : A_AC3
Duration : 2 h 11 min
Bit rate mode : Constant
Bit rate : 448 kb/s
Channel(s) : 6 channels
Channel layout : L R C LFE Ls Rs
Sampling rate : 48.0 kHz
Frame rate : 31.250 FPS (1536 SPF)
Bit depth : 16 bits
Compression mode : Lossy
Stream size : 422 MiB (1%)
Title : Shazam.2019.2160p.BluRay.REMUX.HEVC.DTS-HD.MA.TrueHD.7.1.Atmos
Language : French
Service kind : Complete Main
Default : No
Forced : No

Audio #7
ID : 9
Format : AC-3
Format/Info : Audio Coding 3
Commercial name : Dolby Digital
Codec ID : A_AC3
Duration : 2 h 11 min
Bit rate mode : Constant
Bit rate : 448 kb/s
Channel(s) : 6 channels
Channel layout : L R C LFE Ls Rs
Sampling rate : 48.0 kHz
Frame rate : 31.250 FPS (1536 SPF)
Bit depth : 16 bits
Compression mode : Lossy
Stream size : 422 MiB (1%)
Title : Shazam.2019.2160p.BluRay.REMUX.HEVC.DTS-HD.MA.TrueHD.7.1.Atmos
Language : Italian
Service kind : Complete Main
Default : No
Forced : No

Audio #8
ID : 10
Format : AC-3
Format/Info : Audio Coding 3
Commercial name : Dolby Digital
Codec ID : A_AC3
Duration : 2 h 11 min
Bit rate mode : Constant
Bit rate : 448 kb/s
Channel(s) : 6 channels
Channel layout : L R C LFE Ls Rs
Sampling rate : 48.0 kHz
Frame rate : 31.250 FPS (1536 SPF)
Bit depth : 16 bits
Compression mode : Lossy
Stream size : 422 MiB (1%)
Title : Shazam.2019.2160p.BluRay.REMUX.HEVC.DTS-HD.MA.TrueHD.7.1.Atmos
Language : Spanish
Service kind : Complete Main
Default : No
Forced : No

Audio #9
ID : 11
Format : AC-3
Format/Info : Audio Coding 3
Commercial name : Dolby Digital
Codec ID : A_AC3
Duration : 2 h 11 min
Bit rate mode : Constant
Bit rate : 448 kb/s
Channel(s) : 6 channels
Channel layout : L R C LFE Ls Rs
Sampling rate : 48.0 kHz
Frame rate : 31.250 FPS (1536 SPF)
Bit depth : 16 bits
Compression mode : Lossy
Stream size : 422 MiB (1%)
Title : Shazam.2019.2160p.BluRay.REMUX.HEVC.DTS-HD.MA.TrueHD.7.1.Atmos
Language : Polish
Service kind : Complete Main
Default : No
Forced : No

Audio #10
ID : 12
Format : AC-3
Format/Info : Audio Coding 3
Commercial name : Dolby Digital
Codec ID : A_AC3
Duration : 2 h 11 min
Bit rate mode : Constant
Bit rate : 448 kb/s
Channel(s) : 6 channels
Channel layout : L R C LFE Ls Rs
Sampling rate : 48.0 kHz
Frame rate : 31.250 FPS (1536 SPF)
Bit depth : 16 bits
Compression mode : Lossy
Stream size : 422 MiB (1%)
Title : Shazam.2019.2160p.BluRay.REMUX.HEVC.DTS-HD.MA.TrueHD.7.1.Atmos
Language : Turkish
Service kind : Complete Main
Default : No
Forced : No

Text #1
ID : 13
Format : UTF-8
Codec ID : S_TEXT/UTF8
Codec ID/Info : UTF-8 Plain Text
Duration : 2 h 10 min
Bit rate : 52 b/s
Count of elements : 1755
Stream size : 49.7 KiB (0%)
Title : English-SRT
Language : English
Default : No
Forced : No

Text #2
ID : 14
Format : UTF-8
Codec ID : S_TEXT/UTF8
Codec ID/Info : UTF-8 Plain Text
Duration : 2 h 10 min
Bit rate : 63 b/s
Count of elements : 2182
Stream size : 60.7 KiB (0%)
Title : English-SDH-SRT
Language : English
Default : No
Forced : No

Text #3
ID : 15
Format : PGS
Muxing mode : zlib
Codec ID : S_HDMV/PGS
Codec ID/Info : Picture based subtitle format used on BDs/HD-DVDs
Duration : 2 h 11 min
Bit rate : 37.5 kb/s
Count of elements : 4310
Stream size : 35.3 MiB (0%)
Title : English-PGS
Language : English
Default : Yes
Forced : No

Text #4
ID : 16
Format : PGS
Muxing mode : zlib
Codec ID : S_HDMV/PGS
Codec ID/Info : Picture based subtitle format used on BDs/HD-DVDs
Duration : 2 h 10 min
Bit rate : 23.4 kb/s
Count of elements : 3148
Stream size : 21.9 MiB (0%)
Title : French-PGS
Language : French
Default : No
Forced : No

Text #5
ID : 17
Format : PGS
Muxing mode : zlib
Codec ID : S_HDMV/PGS
Codec ID/Info : Picture based subtitle format used on BDs/HD-DVDs
Duration : 2 h 11 min
Bit rate : 35.9 kb/s
Count of elements : 4414
Stream size : 33.8 MiB (0%)
Title : Italian-PGS
Language : Italian
Default : No
Forced : No

Text #6
ID : 18
Format : PGS
Muxing mode : zlib
Codec ID : S_HDMV/PGS
Codec ID/Info : Picture based subtitle format used on BDs/HD-DVDs
Duration : 2 h 10 min
Bit rate : 27.0 kb/s
Count of elements : 3160
Stream size : 25.2 MiB (0%)
Title : Chinese-PGS
Language : Chinese
Default : No
Forced : No

Text #7
ID : 19
Format : PGS
Muxing mode : zlib
Codec ID : S_HDMV/PGS
Codec ID/Info : Picture based subtitle format used on BDs/HD-DVDs
Duration : 2 h 10 min
Bit rate : 26.8 kb/s
Count of elements : 3514
Stream size : 25.0 MiB (0%)
Title : Chinese-PGS
Language : Chinese
Default : No
Forced : No

Text #8
ID : 20
Format : PGS
Muxing mode : zlib
Codec ID : S_HDMV/PGS
Codec ID/Info : Picture based subtitle format used on BDs/HD-DVDs
Duration : 2 h 10 min
Bit rate : 17.1 kb/s
Count of elements : 3502
Stream size : 16.0 MiB (0%)
Title : Korean-PGS
Language : Korean
Default : No
Forced : No

Text #9
ID : 21
Format : PGS
Muxing mode : zlib
Codec ID : S_HDMV/PGS
Codec ID/Info : Picture based subtitle format used on BDs/HD-DVDs
Duration : 2 h 10 min
Bit rate : 30.6 kb/s
Count of elements : 3500
Stream size : 28.6 MiB (0%)
Title : Spanish-PGS
Language : Spanish
Default : No
Forced : No

Text #10
ID : 22
Format : PGS
Muxing mode : zlib
Codec ID : S_HDMV/PGS
Codec ID/Info : Picture based subtitle format used on BDs/HD-DVDs
Duration : 2 h 10 min
Bit rate : 17.1 kb/s
Count of elements : 3514
Stream size : 16.0 MiB (0%)
Title : Arabic-PGS
Language : Arabic
Default : No
Forced : No

Text #11
ID : 23
Format : PGS
Muxing mode : zlib
Codec ID : S_HDMV/PGS
Codec ID/Info : Picture based subtitle format used on BDs/HD-DVDs
Duration : 2 h 10 min
Bit rate : 26.2 kb/s
Count of elements : 2492
Stream size : 24.6 MiB (0%)
Title : Danish-PGS
Language : Danish
Default : No
Forced : No

Text #12
ID : 24
Format : PGS
Muxing mode : zlib
Codec ID : S_HDMV/PGS
Codec ID/Info : Picture based subtitle format used on BDs/HD-DVDs
Duration : 2 h 10 min
Bit rate : 25.2 kb/s
Count of elements : 3498
Stream size : 23.6 MiB (0%)
Title : Finnish-PGS
Language : Finnish
Default : No
Forced : No

Text #13
ID : 25
Format : PGS
Muxing mode : zlib
Codec ID : S_HDMV/PGS
Codec ID/Info : Picture based subtitle format used on BDs/HD-DVDs
Duration : 2 h 10 min
Bit rate : 26.9 kb/s
Count of elements : 3080
Stream size : 25.2 MiB (0%)
Title : Norwegian-PGS
Language : Norwegian
Default : No
Forced : No

Text #14
ID : 26
Format : PGS
Muxing mode : zlib
Codec ID : S_HDMV/PGS
Codec ID/Info : Picture based subtitle format used on BDs/HD-DVDs
Duration : 2 h 10 min
Bit rate : 27.6 kb/s
Count of elements : 3448
Stream size : 25.9 MiB (0%)
Title : Polish-PGS
Language : Polish
Default : No
Forced : No

Text #15
ID : 27
Format : PGS
Muxing mode : zlib
Codec ID : S_HDMV/PGS
Codec ID/Info : Picture based subtitle format used on BDs/HD-DVDs
Duration : 2 h 10 min
Bit rate : 26.8 kb/s
Count of elements : 3486
Stream size : 25.1 MiB (0%)
Title : Swedish-PGS
Language : Swedish
Default : No
Forced : No

Text #16
ID : 28
Format : PGS
Muxing mode : zlib
Codec ID : S_HDMV/PGS
Codec ID/Info : Picture based subtitle format used on BDs/HD-DVDs
Duration : 2 h 10 min
Bit rate : 30.2 kb/s
Count of elements : 3508
Stream size : 28.2 MiB (0%)
Title : Turkish-PGS
Language : Turkish
Default : No
Forced : No

Text #17
ID : 29
Format : PGS
Muxing mode : zlib
Codec ID : S_HDMV/PGS
Codec ID/Info : Picture based subtitle format used on BDs/HD-DVDs
Duration : 2 h 10 min
Bit rate : 602 b/s
Count of elements : 46
Stream size : 576 KiB (0%)
Title : French-FORCED-PGS
Language : French
Default : No
Forced : No

Text #18
ID : 30
Format : PGS
Muxing mode : zlib
Codec ID : S_HDMV/PGS
Codec ID/Info : Picture based subtitle format used on BDs/HD-DVDs
Duration : 2 h 10 min
Bit rate : 912 b/s
Count of elements : 102
Stream size : 872 KiB (0%)
Title : Italian-FORCED-PGS
Language : Italian
Default : No
Forced : No

Menu
00:00:00.000 : en:Chapter 01
00:08:18.581 : en:Chapter 02
00:15:11.285 : en:Chapter 03
00:25:22.395 : en:Chapter 04
00:31:57.624 : en:Chapter 05
00:39:00.254 : en:Chapter 06
00:50:07.546 : en:Chapter 07
01:01:28.810 : en:Chapter 08
01:08:51.502 : en:Chapter 09
01:16:40.470 : en:Chapter 10
01:24:29.355 : en:Chapter 11
01:34:00.343 : en:Chapter 12
01:43:01.175 : en:Chapter 13
01:52:53.850 : en:Chapter 14
02:00:44.403 : en:Chapter 15
movie BDRip Video
ID : 1
Format : HEVC
Format/Info : High Efficiency Video Coding
Commercial name : HDR10
Format profile : Main 10@L5.1@High
Codec ID : V_MPEGH/ISO/HEVC
Duration : 2 h 11 min
Bit rate : 42.0 Mb/s
Width : 3 840 pixels
Height : 1 608 pixels
Display aspect ratio : 2.40:1
Frame rate mode : Constant
Frame rate : 23.976 (24000/1001) FPS
Color space : YUV
Chroma subsampling : 4:2:0 (Type 2)
Bit depth : 10 bits
Bits/(Pixel*Frame) : 0.284
Stream size : 38.7 GiB (91%)
Writing library : x265 3.1+2-b36c03e4e771:[Windows][GCC 6.3.0][64 bit] 10bit
Encoding settings : cpuid=1176575 / frame-threads=5 / numa-pools=36 / wpp / no-pmode / no-pme / no-psnr / no-ssim / log-level=2 / input-csp=1 / input-res=3840x1608 / interlace=0 / total-frames=189484 / level-idc=51 / high-tier=1 / uhd-bd=0 / ref=4 / no-allow-non-conformance / repeat-headers / annexb / aud / hrd / info / hash=0 / no-temporal-layers / no-open-gop / min-keyint=1 / keyint=24 / gop-lookahead=0 / bframes=4 / b-adapt=2 / b-pyramid / bframe-bias=0 / rc-lookahead=25 / lookahead-slices=4 / scenecut=40 / radl=0 / no-splice / no-intra-refresh / ctu=64 / min-cu-size=8 / rect / no-amp / max-tu-size=32 / tu-inter-depth=1 / tu-intra-depth=1 / limit-tu=0 / rdoq-level=2 / dynamic-rd=0.00 / no-ssim-rd / signhide / no-tskip / nr-intra=0 / nr-inter=0 / no-constrained-intra / no-strong-intra-smoothing / max-merge=3 / limit-refs=3 / limit-modes / me=3 / subme=3 / merange=57 / temporal-mvp / weightp / no-weightb / no-analyze-src-pics / deblock=-3:-3 / no-sao / no-sao-non-deblock / rd=4 / no-early-skip / rskip / no-fast-intra / no-tskip-fast / no-cu-lossless / no-b-intra / no-splitrd-skip / rdpenalty=0 / psy-rd=2.00 / psy-rdoq=1.00 / no-rd-refine / no-lossless / cbqpoffs=0 / crqpoffs=0 / rc=crf / crf=17.0 / qcomp=0.60 / qpstep=4 / stats-write=0 / stats-read=0 / vbv-maxrate=160000 / vbv-bufsize=160000 / vbv-init=0.9 / crf-max=0.0 / crf-min=0.0 / ipratio=1.40 / pbratio=1.30 / aq-mode=2 / aq-strength=1.00 / cutree / zone-count=0 / no-strict-cbr / qg-size=32 / no-rc-grain / qpmax=69 / qpmin=0 / no-const-vbv / sar=1 / overscan=0 / videoformat=5 / range=0 / colorprim=9 / transfer=16 / colormatrix=9 / chromaloc=1 / chromaloc-top=2 / chromaloc-bottom=2 / display-window=0 / master-display=G(13250,34500)B(7500,3000)R(34000,16000)WP(15635,16450)L(40000000,50)cll=1351,384 / min-luma=0 / max-luma=1023 / log2-max-poc-lsb=8 / vui-timing-info / vui-hrd-info / slices=1 / no-opt-qp-pps / no-opt-ref-list-length-pps / no-multi-pass-opt-rps / scenecut-bias=0.05 / no-opt-cu-delta-qp / no-aq-motion / hdr / hdr-opt / no-dhdr10-opt / no-idr-recovery-sei / analysis-reuse-level=5 / scale-factor=0 / refine-intra=0 / refine-inter=0 / refine-mv=0 / refine-ctu-distortion=0 / no-limit-sao / ctu-info=0 / no-lowpass-dct / refine-analysis-type=0 / copy-pic=1 / max-ausize-factor=1.0 / no-dynamic-refine / no-single-sei / no-hevc-aq / no-svt / no-field / qp-adaptation-range=1.00
Default : Yes
Forced : No
Color range : Limited
Color primaries : BT.2020
Transfer characteristics : PQ
Matrix coefficients : BT.2020 non-constant
Mastering display color primaries : Display P3
Mastering display luminance : min: 0.0050 cd/m2, max: 4000 cd/m2
Maximum Content Light Level : 1351 cd/m2
Maximum Frame-Average Light Level : 384 cd/m2

Audio #1
ID : 2
Format : MLP FBA 16-ch
Format/Info : Meridian Lossless Packing FBA with 16-channel presentation
Commercial name : Dolby TrueHD with Dolby Atmos
Codec ID : A_TRUEHD
Duration : 2 h 11 min
Bit rate mode : Variable
Bit rate : 3 645 kb/s
Maximum bit rate : 5 931 kb/s
Channel(s) : 8 channels
Channel layout : L R C LFE Ls Rs Lb Rb
Sampling rate : 48.0 kHz
Frame rate : 1 200.000 FPS (40 SPF)
Compression mode : Lossless
Stream size : 3.35 GiB (8%)
Language : English
Default : Yes
Forced : No
Number of dynamic objects : 15
Bed channel count : 1 channel
Bed channel configuration : LFE

Audio #2
ID : 3
Format : AC-3
Format/Info : Audio Coding 3
Commercial name : Dolby Digital
Codec ID : A_AC3
Duration : 2 h 11 min
Bit rate mode : Constant
Bit rate : 448 kb/s
Channel(s) : 6 channels
Channel layout : L R C LFE Ls Rs
Sampling rate : 48.0 kHz
Frame rate : 31.250 FPS (1536 SPF)
Bit depth : 16 bits
Compression mode : Lossy
Stream size : 422 MiB (1%)
Language : English
Service kind : Complete Main
Default : No
Forced : No

Text #1
ID : 4
Format : PGS
Muxing mode : zlib
Codec ID : S_HDMV/PGS
Codec ID/Info : Picture based subtitle format used on BDs/HD-DVDs
Duration : 2 h 11 min
Bit rate : 37.5 kb/s
Count of elements : 4310
Stream size : 35.3 MiB (0%)
Title : English SDH
Language : English
Default : No
Forced : No

Text #2
ID : 5
Format : PGS
Muxing mode : zlib
Codec ID : S_HDMV/PGS
Codec ID/Info : Picture based subtitle format used on BDs/HD-DVDs
Duration : 2 h 10 min
Bit rate : 23.4 kb/s
Count of elements : 3148
Stream size : 21.9 MiB (0%)
Title : French 1
Language : French
Default : No
Forced : No

Text #3
ID : 6
Format : PGS
Muxing mode : zlib
Codec ID : S_HDMV/PGS
Codec ID/Info : Picture based subtitle format used on BDs/HD-DVDs
Duration : 2 h 11 min
Bit rate : 35.9 kb/s
Count of elements : 4414
Stream size : 33.8 MiB (0%)
Title : Italian 1
Language : Italian
Default : No
Forced : No

Text #4
ID : 7
Format : PGS
Muxing mode : zlib
Codec ID : S_HDMV/PGS
Codec ID/Info : Picture based subtitle format used on BDs/HD-DVDs
Duration : 2 h 10 min
Bit rate : 27.0 kb/s
Count of elements : 3160
Stream size : 25.2 MiB (0%)
Title : Chinese 1
Language : Chinese
Default : No
Forced : No

Text #5
ID : 8
Format : PGS
Muxing mode : zlib
Codec ID : S_HDMV/PGS
Codec ID/Info : Picture based subtitle format used on BDs/HD-DVDs
Duration : 2 h 10 min
Bit rate : 26.8 kb/s
Count of elements : 3514
Stream size : 25.0 MiB (0%)
Title : Chinese 2
Language : Chinese
Default : No
Forced : No

Text #6
ID : 9
Format : PGS
Muxing mode : zlib
Codec ID : S_HDMV/PGS
Codec ID/Info : Picture based subtitle format used on BDs/HD-DVDs
Duration : 2 h 10 min
Bit rate : 17.1 kb/s
Count of elements : 3502
Stream size : 16.0 MiB (0%)
Title : Korean
Language : Korean
Default : No
Forced : No

Text #7
ID : 10
Format : PGS
Muxing mode : zlib
Codec ID : S_HDMV/PGS
Codec ID/Info : Picture based subtitle format used on BDs/HD-DVDs
Duration : 2 h 10 min
Bit rate : 30.6 kb/s
Count of elements : 3500
Stream size : 28.6 MiB (0%)
Title : Spanish
Language : Spanish
Default : No
Forced : No

Text #8
ID : 11
Format : PGS
Muxing mode : zlib
Codec ID : S_HDMV/PGS
Codec ID/Info : Picture based subtitle format used on BDs/HD-DVDs
Duration : 2 h 10 min
Bit rate : 17.1 kb/s
Count of elements : 3514
Stream size : 16.0 MiB (0%)
Title : Arabic
Language : Arabic
Default : No
Forced : No

Text #9
ID : 12
Format : PGS
Muxing mode : zlib
Codec ID : S_HDMV/PGS
Codec ID/Info : Picture based subtitle format used on BDs/HD-DVDs
Duration : 2 h 10 min
Bit rate : 26.2 kb/s
Count of elements : 2492
Stream size : 24.6 MiB (0%)
Title : Danish
Language : Danish
Default : No
Forced : No

Text #10
ID : 13
Format : PGS
Muxing mode : zlib
Codec ID : S_HDMV/PGS
Codec ID/Info : Picture based subtitle format used on BDs/HD-DVDs
Duration : 2 h 10 min
Bit rate : 25.2 kb/s
Count of elements : 3498
Stream size : 23.6 MiB (0%)
Title : Finnish
Language : Finnish
Default : No
Forced : No

Text #11
ID : 14
Format : PGS
Muxing mode : zlib
Codec ID : S_HDMV/PGS
Codec ID/Info : Picture based subtitle format used on BDs/HD-DVDs
Duration : 2 h 10 min
Bit rate : 26.9 kb/s
Count of elements : 3080
Stream size : 25.2 MiB (0%)
Title : Norwegian
Language : Norwegian
Default : No
Forced : No

Text #12
ID : 15
Format : PGS
Muxing mode : zlib
Codec ID : S_HDMV/PGS
Codec ID/Info : Picture based subtitle format used on BDs/HD-DVDs
Duration : 2 h 10 min
Bit rate : 27.6 kb/s
Count of elements : 3448
Stream size : 25.9 MiB (0%)
Title : Polish
Language : Polish
Default : No
Forced : No

Text #13
ID : 16
Format : PGS
Muxing mode : zlib
Codec ID : S_HDMV/PGS
Codec ID/Info : Picture based subtitle format used on BDs/HD-DVDs
Duration : 2 h 10 min
Bit rate : 26.8 kb/s
Count of elements : 3486
Stream size : 25.1 MiB (0%)
Title : Swedish
Language : Swedish
Default : No
Forced : No

Text #14
ID : 17
Format : PGS
Muxing mode : zlib
Codec ID : S_HDMV/PGS
Codec ID/Info : Picture based subtitle format used on BDs/HD-DVDs
Duration : 2 h 10 min
Bit rate : 30.2 kb/s
Count of elements : 3508
Stream size : 28.2 MiB (0%)
Title : Turkish
Language : Turkish
Default : No
Forced : No

Text #15
ID : 18
Format : PGS
Muxing mode : zlib
Codec ID : S_HDMV/PGS
Codec ID/Info : Picture based subtitle format used on BDs/HD-DVDs
Duration : 2 h 10 min
Bit rate : 602 b/s
Count of elements : 46
Stream size : 576 KiB (0%)
Title : French 2
Language : French
Default : No
Forced : No

Text #16
ID : 19
Format : PGS
Muxing mode : zlib
Codec ID : S_HDMV/PGS
Codec ID/Info : Picture based subtitle format used on BDs/HD-DVDs
Duration : 2 h 10 min
Bit rate : 912 b/s
Count of elements : 102
Stream size : 872 KiB (0%)
Title : Italian 2
Language : Italian
Default : No
Forced : No

Download

download 4k hdr movies download 4k hdr movies

Watch a movie trailer - Shazam 4K 2019 Ultra HD 2160p
Comments and Feedback
Add your comment:
Your name:
Your E-Mail:
Code:
reload, if the code cannot be seen
Enter code: