Select movie Search movie Close search My Account

Punisher: War Zone 4K 2008 Ultra HD 2160p

Punisher: War Zone 4K 2008 Ultra HD 2160p
BDRemux / BDRip
Country: USA | Canada | Germany
Time: 1h 43min
IMDB: 6.0
Director: Lexi Alexander
Actors: Ray Stevenson, Dominic West, Doug Hutchison, Colin Salmon, Wayne Knight, Dash Mihok, Julie Benz, Stephanie Janusauskas, Mark Camacho, Romano Orzari, Keram Malicki-S?nchez, Larry Day, Ron Lea, Tony Calabretta, T.J. Storm

Story Movie

Punisher: War Zone 4K 2008 Ultra HD 2160p
Punisher: War Zone film 2160p uhd movie tells about the further story of Frank, who did not just get the nickname punisher when he found and destroyed the murderers of his family. And although the case has long been closed, he cannot stop and continues to fight crime, but now he does it toughly and not for the purpose of revenge. And when Frank gets into one of the criminal districts of the city and finds out there about the maniac, he makes every effort to stop him.

Review 4K Movie

Not for the first time, the attention of the audience is the adaptation of the popular comic book, published by the company Marvel and first published in 1974 in the pages of the comic book "The Amazing Spiderman" - called "Punisher: War Zoner". The first screen version of the comic was released in the distant 1989, and had a spectator success. The main role then played a famous hero of the militants - Dolph Lundgren. The director's chair was taken by an unknown, at that time, the director, Mark Goldblatt, to no one. In 2004, the second screen version of the popular comic, led by Jonathan Hensley, was released. To say that the film like literally everyone can not. He had both fans and anti-fans. And finally, in 2008, the latest at the moment film adaptation entitled "The Punisher: Territory of War" is released. The director’s post, for the third time, was taken by a certain Lexi Alexander. And if Goldblatt completely coped with his work, and at Hensley, at least something turned out, then Alexander, nothing happened.

The film is like an action movie, nothing. (paragraph 1)

First of all, the film looks sluggish and uninteresting, precisely because of the manner of cheap shooting. And the whole thing is not in the camera work, not at all, but in the modest budget of this “creation”. They spent only $ 35,000,000 on the film. They spent even less on the first version than on this one, so what, is this, you ask? Such a question, in this case, is even irrelevant. It's all about time. The budget of the first film in the series was just some $ 10,000,000. And at that time, it was a lot of money. But, sorry, for 2008, the budget of $ 35,000,000 is very small. To date, films are already being shot at $ 200 million, why save. It was just such a modest budget that was so strongly reflected in the film itself, and not for the better. There are few special effects in the movie once or twice; there are practically no fights and even fewer explosions, and there are no chases at all. What is this, excuse me thriller, if it does not fully correspond to its genre. Yes, no.

Worst screen adaptation. (point 2)

From the first paragraph it follows that this film, the fighter, in fact, is not at all. Let's try to determine whether this film has turned out in terms of the film version.

Given the topic of superheroes, it is not difficult to guess that the "punisher" 4k, superhero, is not at all. He has no super-heroic abilities: he does not know how to fly like a "spiderman", he does not know how to fight bravely for the inhabitants of Gotema, as the legendary "Batman" does, does not know how to fight for the freedom of people, like an iron man does, which means that he is a man like us all. What is it to me, you ask? And all this I mean to the fact that it’s not the director, not the mere spectator, you shouldn’t consider all this adaptation as a fantastic, superhero movie. This is a simple thriller about what a policeman is ready for, a policeman who has long since departed from his affairs, in order to avenge the death of his wife and son. And, if the first or two screen versions, were able to partially reveal the whole plot and show all the colors of the comic, then the last screen version didn’t cope with it and it’s not a different task. The picture of Lexi Alexander has noticeably moved away from the storyline of the first or two films, and in fact from the history of the legendary comic strip. "The territory of the war" tells the viewer about the cruel, brutal and merciless executor of the order nicknamed The Punisher Ultra HD, who is waging a real war with the world of organized crime.

And in the end, from the second paragraph it follows that the film departed from the meaning of the popular comic book, and could not something, not completely, but even partially, reveal the whole plot and colors of the work. Therefore, this is the most mediocre screen version.

Conclusion:

"Punisher: War Zone" 2160p uhd movie - a cheap, uninteresting and mediocre adaptation of the popular comic strip about the legendary avenger. Scold this movie can be infinite, but the essence of this will not change. At the moment, this is the worst film version of "Punisher: War Zone" UHD. But on the other hand, there is even a great advantage in this not only of the creators, but also of the film itself, without a doubt, it deserves first place in the garbage.

Mediainfo

movie BDRemux Video #1
ID : 1
Format : HEVC
Format/Info : High Efficiency Video Coding
Commercial name : HDR10
Format profile : Main 10@L5.1@High
Codec ID : V_MPEGH/ISO/HEVC
Duration : 1 h 42 min
Width : 3 840 pixels
Height : 2 160 pixels
Display aspect ratio : 16:9
Frame rate mode : Constant
Frame rate : 23.976 (24000/1001) FPS
Color space : YUV
Chroma subsampling : 4:2:0 (Type 2)
Bit depth : 10 bits
Title : Punisher.War.Zone.2008.2160p.BluRay.REMUX.HEVC.DTS-HD.MA.TrueHD.7.1.Atmos
Default : Yes
Forced : No
Color range : Limited
Color primaries : BT.2020
Transfer characteristics : PQ
Matrix coefficients : BT.2020 non-constant
Mastering display color primaries : Display P3
Mastering display luminance : min: 0.0001 cd/m2, max: 1000 cd/m2
Maximum Content Light Level : 1000 cd/m2
Maximum Frame-Average Light Level : 969 cd/m2

Video #2
ID : 2
Format : HEVC
Format/Info : High Efficiency Video Coding
Commercial name : HDR10
Format profile : Main 10@L5.1@High
Codec ID : V_MPEGH/ISO/HEVC
Duration : 1 h 42 min
Width : 1 920 pixels
Height : 1 080 pixels
Display aspect ratio : 16:9
Frame rate mode : Constant
Frame rate : 23.976 (24000/1001) FPS
Color space : YUV
Chroma subsampling : 4:2:0 (Type 2)
Bit depth : 10 bits
Title : Punisher.War.Zone.2008.2160p.BluRay.REMUX.HEVC.DTS-HD.MA.TrueHD.7.1.Atmos
Default : No
Forced : No
Color range : Limited
Color primaries : BT.2020
Transfer characteristics : PQ
Matrix coefficients : BT.2020 non-constant
Mastering display color primaries : Display P3
Mastering display luminance : min: 0.0001 cd/m2, max: 1000 cd/m2

Audio #1
ID : 3
Format : TrueHD
Format profile : TrueHD+Atmos / TrueHD
Codec ID : A_TRUEHD
Bit rate mode : Variable
Maximum bit rate : 8 988 kb/s
Channel(s) : Object Based / 8 channels
Channel positions : Object Based / Front: L C R, Side: L R, Back: L R, LFE
Sampling rate : / 48.0 kHz
Frame rate : 1 200.000 FPS (40 SPF)
Compression mode : Lossless
Title : Punisher.War.Zone.2008.2160p.BluRay.REMUX.HEVC.DTS-HD.MA.TrueHD.7.1.Atmos
Language : English
Default : Yes
Forced : No

Audio #2
ID : 4
Format : DTS
Format/Info : Digital Theater Systems
Format profile : MA / Core
Codec ID : A_DTS
Duration : 1 h 42 min
Bit rate mode : Variable / Constant
Bit rate : Unknown / 1 509 kb/s
Channel(s) : 8 channels / 6 channels
Channel positions : Front: L C R, Side: L R, Back: L R, LFE / Front: L C R, Side: L R, LFE
Sampling rate : 48.0 kHz
Frame rate : 93.750 FPS (512 SPF)
Bit depth : 24 bits
Compression mode : Lossless / Lossy
Language : English
Default : No
Forced : No

Audio #3
ID : 5
Format : AC-3
Format/Info : Audio Coding 3
Codec ID : A_AC3
Duration : 1 h 42 min
Bit rate mode : Constant
Bit rate : 640 kb/s
Channel(s) : 6 channels
Channel positions : Front: L C R, Side: L R, LFE
Sampling rate : 48.0 kHz
Frame rate : 31.250 FPS (1536 SPF)
Bit depth : 16 bits
Compression mode : Lossy
Stream size : 470 MiB (1%)
Language : English
Service kind : Complete Main
Default : No
Forced : No

Audio #4
ID : 6
Format : AC-3
Format/Info : Audio Coding 3
Codec ID : A_AC3
Duration : 1 h 42 min
Bit rate mode : Constant
Bit rate : 448 kb/s
Channel(s) : 6 channels
Channel positions : Front: L C R, Side: L R, LFE
Sampling rate : 48.0 kHz
Frame rate : 31.250 FPS (1536 SPF)
Bit depth : 16 bits
Compression mode : Lossy
Stream size : 329 MiB (1%)
Language : French
Service kind : Complete Main
Default : No
Forced : No

Audio #5
ID : 7
Format : AC-3
Format/Info : Audio Coding 3
Codec ID : A_AC3
Duration : 1 h 42 min
Bit rate mode : Constant
Bit rate : 224 kb/s
Channel(s) : 2 channels
Channel positions : Front: L R
Sampling rate : 48.0 kHz
Frame rate : 31.250 FPS (1536 SPF)
Bit depth : 16 bits
Compression mode : Lossy
Stream size : 165 MiB (0%)
Language : English
Service kind : Complete Main
Default : No
Forced : No

Text #1
ID : 8
Format : PGS
Muxing mode : zlib
Codec ID : S_HDMV/PGS
Codec ID/Info : Picture based subtitle format used on BDs/HD-DVDs
Language : English
Default : Yes
Forced : No

Text #2
ID : 9
Format : PGS
Muxing mode : zlib
Codec ID : S_HDMV/PGS
Codec ID/Info : Picture based subtitle format used on BDs/HD-DVDs
Language : English
Default : No
Forced : No

Text #3
ID : 10
Format : PGS
Muxing mode : zlib
Codec ID : S_HDMV/PGS
Codec ID/Info : Picture based subtitle format used on BDs/HD-DVDs
Language : Spanish
Default : No
Forced : No

Text #4
ID : 11
Format : PGS
Muxing mode : zlib
Codec ID : S_HDMV/PGS
Codec ID/Info : Picture based subtitle format used on BDs/HD-DVDs
Language : French
Default : No
Forced : No

Menu
00:00:00.000 : :Chapter 1
00:06:41.901 : :Chapter 2
00:16:03.212 : :Chapter 3
00:21:24.241 : :Chapter 4
00:25:32.989 : :Chapter 5
00:30:41.923 : :Chapter 6
00:35:34.507 : :Chapter 7
00:44:06.268 : :Chapter 8
00:52:03.453 : :Chapter 9
00:57:41.291 : :Chapter 10
01:05:13.618 : :Chapter 11
01:12:28.427 : :Chapter 12
01:20:21.942 : :Chapter 13
01:26:36.524 : :Chapter 14
01:28:33.725 : :Chapter 15
01:32:45.017 : :Chapter 16
movie BDRip Video
ID : 1
Format : HEVC
Format/Info : High Efficiency Video Coding
Commercial name : HDR10
Format profile : Main 10@L5.1@High
Codec ID : V_MPEGH/ISO/HEVC
Duration : 1 h 42 min
Bit rate : 13.9 Mb/s
Width : 3 840 pixels
Height : 1 600 pixels
Display aspect ratio : 2.40:1
Frame rate mode : Constant
Frame rate : 23.976 (24000/1001) FPS
Color space : YUV
Chroma subsampling : 4:2:0 (Type 2)
Bit depth : 10 bits
Bits/(Pixel*Frame) : 0.094
Stream size : 9.96 GiB (69%)
Writing library : x265 2.8+10-703eade86b53:[Windows][MSVC 1914][64 bit] 10bit
Encoding settings : cpuid=1111039 / frame-threads=4 / numa-pools=20 / wpp / no-pmode / no-pme / no-psnr / no-ssim / log-level=2 / input-csp=1 / input-res=3840x1600 / interlace=0 / total-frames=147732 / level-idc=51 / high-tier=1 / uhd-bd=0 / ref=4 / no-allow-non-conformance / repeat-headers / annexb / aud / hrd / info / hash=0 / no-temporal-layers / no-open-gop / min-keyint=1 / keyint=24 / gop-lookahead=0 / bframes=4 / b-adapt=2 / b-pyramid / bframe-bias=0 / rc-lookahead=25 / lookahead-slices=4 / scenecut=40 / radl=0 / no-intra-refresh / ctu=64 / min-cu-size=8 / rect / no-amp / max-tu-size=32 / tu-inter-depth=1 / tu-intra-depth=1 / limit-tu=0 / rdoq-level=2 / dynamic-rd=0.00 / no-ssim-rd / signhide / no-tskip / nr-intra=0 / nr-inter=0 / no-constrained-intra / no-strong-intra-smoothing / max-merge=3 / limit-refs=3 / limit-modes / me=3 / subme=3 / merange=57 / temporal-mvp / weightp / no-weightb / no-analyze-src-pics / deblock=-3:-3 / no-sao / no-sao-non-deblock / rd=4 / no-early-skip / rskip / no-fast-intra / no-tskip-fast / no-cu-lossless / no-b-intra / no-splitrd-skip / rdpenalty=0 / psy-rd=2.00 / psy-rdoq=1.00 / no-rd-refine / no-lossless / cbqpoffs=0 / crqpoffs=0 / rc=crf / crf=18.0 / qcomp=0.60 / qpstep=4 / stats-write=0 / stats-read=0 / vbv-maxrate=160000 / vbv-bufsize=160000 / vbv-init=0.9 / crf-max=0.0 / crf-min=0.0 / ipratio=1.40 / pbratio=1.30 / aq-mode=1 / aq-strength=1.00 / cutree / zone-count=0 / no-strict-cbr / qg-size=32 / no-rc-grain / qpmax=69 / qpmin=0 / no-const-vbv / sar=1 / overscan=0 / videoformat=5 / range=0 / colorprim=9 / transfer=16 / colormatrix=9 / chromaloc=1 / chromaloc-top=2 / chromaloc-bottom=2 / display-window=0 / master-display=G(13250,34500)B(7500,3000)R(34000,16000)WP(15635,16450)L(10000000,1) / max-cll=1000,969 / min-luma=0 / max-luma=1023 / log2-max-poc-lsb=8 / vui-timing-info / vui-hrd-info / slices=1 / no-opt-qp-pps / no-opt-ref-list-length-pps / no-multi-pass-opt-rps / scenecut-bias=0.05 / no-opt-cu-delta-qp / no-aq-motion / hdr / hdr-opt / no-dhdr10-opt / no-idr-recovery-sei / analysis-reuse-level=5 / scale-factor=0 / refine-intra=0 / refine-inter=0 / refine-mv=0 / no-limit-sao / ctu-info=0 / no-lowpass-dct / refine-mv-type=0 / copy-pic=1 / max-ausize-factor=1.0 / no-dynamic-refine / no-single-sei
Default : Yes
Forced : No
Color range : Limited
Color primaries : BT.2020
Transfer characteristics : PQ
Matrix coefficients : BT.2020 non-constant
Mastering display color primaries : Display P3
Mastering display luminance : min: 0.0001 cd/m2, max: 1000 cd/m2
Maximum Content Light Level : 1000 cd/m2
Maximum Frame-Average Light Level : 969 cd/m2

Audio #1
ID : 2
Format : TrueHD
Format profile : TrueHD+Atmos / TrueHD
Codec ID : A_TRUEHD
Duration : 1 h 42 min
Bit rate mode : Variable
Bit rate : 5 207 kb/s
Maximum bit rate : 8 988 kb/s
Channel(s) : Object Based / 8 channels
Channel positions : Object Based / Front: L C R, Side: L R, Back: L R, LFE
Sampling rate : / 48.0 kHz
Frame rate : 1 200.000 FPS (40 SPF)
Compression mode : Lossless
Stream size : 3.74 GiB (26%)
Language : English
Default : Yes
Forced : No

Audio #2
ID : 3
Format : AC-3
Format/Info : Audio Coding 3
Codec ID : A_AC3
Duration : 1 h 42 min
Bit rate mode : Constant
Bit rate : 640 kb/s
Channel(s) : 6 channels
Channel positions : Front: L C R, Side: L R, LFE
Sampling rate : 48.0 kHz
Frame rate : 31.250 FPS (1536 SPF)
Bit depth : 16 bits
Compression mode : Lossy
Stream size : 470 MiB (3%)
Language : English
Service kind : Complete Main
Default : No
Forced : No

Audio #3
ID : 4
Format : AC-3
Format/Info : Audio Coding 3
Codec ID : A_AC3
Duration : 1 h 42 min
Bit rate mode : Constant
Bit rate : 224 kb/s
Channel(s) : 2 channels
Channel positions : Front: L R
Sampling rate : 48.0 kHz
Frame rate : 31.250 FPS (1536 SPF)
Bit depth : 16 bits
Compression mode : Lossy
Stream size : 165 MiB (1%)
Title : Commentary with director Lexi Alexander n director of photography Steve Gainer
Language : English
Service kind : Complete Main
Default : No
Forced : No

Text #1
ID : 5
Format : PGS
Muxing mode : zlib
Codec ID : S_HDMV/PGS
Codec ID/Info : Picture based subtitle format used on BDs/HD-DVDs
Duration : 1 h 34 min
Bit rate : 24.1 kb/s
Count of elements : 1888
Stream size : 16.4 MiB (0%)
Language : English
Default : No
Forced : No

Text #2
ID : 6
Format : PGS
Muxing mode : zlib
Codec ID : S_HDMV/PGS
Codec ID/Info : Picture based subtitle format used on BDs/HD-DVDs
Duration : 1 h 34 min
Bit rate : 26.2 kb/s
Count of elements : 2066
Stream size : 17.8 MiB (0%)
Language : English
Default : No
Forced : No

Text #3
ID : 7
Format : PGS
Muxing mode : zlib
Codec ID : S_HDMV/PGS
Codec ID/Info : Picture based subtitle format used on BDs/HD-DVDs
Duration : 1 h 34 min
Bit rate : 23.3 kb/s
Count of elements : 1896
Stream size : 15.8 MiB (0%)
Language : Spanish
Default : No
Forced : No

Menu
00:00:00.000 : en:00:00:00.000
00:06:41.901 : en:00:06:41.901
00:16:03.212 : en:00:16:03.212
00:21:24.241 : en:00:21:24.241
00:25:32.990 : en:00:25:32.990
00:30:41.923 : en:00:30:41.923
00:35:34.507 : en:00:35:34.507
00:44:06.269 : en:00:44:06.269
00:52:03.454 : en:00:52:03.454
00:57:41.291 : en:00:57:41.291
01:05:13.618 : en:01:05:13.618
01:12:28.427 : en:01:12:28.427
01:20:21.942 : en:01:20:21.942
01:26:36.525 : en:01:26:36.525
01:28:33.725 : en:01:28:33.725
01:32:45.018 : en:01:32:45.018

Download

download 4k hdr movies download 4k hdr movies

Watch a movie trailer - Punisher: War Zone 4K 2008 Ultra HD 2160p
Comments and Feedback
Add your comment:
Your name:
Your E-Mail:
Code:
reload, if the code cannot be seen
Enter code: