Select movie Search movie Close search My Account

Spider-Man Far from Home 4K 2019 Ultra HD 2160p

Spider-Man Far from Home 4K 2019 Ultra HD 2160p
BDRemux / BDRip
Country: USA
Time: 2h 9min
IMDB: 7,7
Director: Jon Watts
Actors: Tom Holland, Samuel L. Jackson, Jake Gyllenhaal, Marisa Tomei, Jon Favreau, Zendaya, Jacob Batalon, Tony Revolori, Angourie Rice, Remy Hii, Martin Starr, J.B. Smoove, Jorge Lendeborg Jr., Cobie Smulders, Numan Acar

Story Movie

Spider-Man Far from Home 4K 2019 Ultra HD 2160p
Peter Parker, along with classmates, goes on a summer vacation to Europe. However, friends are unlikely to rest - upon arrival in Venice, the group will fall into the epicenter of the battle. A certain creature consisting of water appears from nowhere and begins to ruin everything in its path, and now Peter will have to save European architectural monuments along with the mysterious superhero misterio here are the best new movies 4k films.

Review 4K Movie

As in the previous film “Spider-Man UHD: Homecoming,” the story of the film is built around the issues of growing up a teenager, building relationships with peers, taking responsibility for their actions, gaining and destroying idols. The “superheroic" conflict itself here again goes as if in the background and again as if deliberately deprived of a large scale. And again, we have on the screen a great antagonist to match the Vulture from the previous tape. There are no problems with logic and motivation; perhaps a lack of full disclosure of the antagonist's background can be attributed to a drawback, but this is not required for the villain in one film.

In many ways, Spider-Man’s struggle with the enemy in the “superhero” conflict is also tied to the growth of Peter Parker in ordinary life, and is associated with his taking a definite and decisive step towards independence and self-determination. In fact, this is what we should get from such films and what was the basis of the original comics - through an intriguing plot in a bright shell to convey complex and important thoughts to the target audience.

Usually, in order to surprise the audience with visuals, in a superhero movie they dispense with special effects and rarely resort to non-standard ways of filming what is happening. In recent years, diversity has become somewhat larger. Of the brightest representatives, Doctor Strange of 2016 is immediately recalled. UHD Spider-Man: Away From Home also strives to stand out. In action scenes, staging is at a good level, periodically the eye observes complex long doubles. I would like to express my special admiration for the climactic scene in which Peter is lost in the illusions built by Misterio - she gives something phantasmagoric, even psychedelic, which, in my opinion, is bold and new for this genre. From a technical point of view, the film is also made at the highest level.

The same can be said about the game of actors in the film. This time, the producers tried and brought to the set the inimitable Jake Gyllenhaal. He played his role 100%. They had a great duet with Tom Holland. There are no complaints about the leading actor either: Holland performs his work with dignity.

After Avengers: Final, it was necessary to give a new round to the development of a multi-billion dollar franchise. And with the task "Spider-Man: Away from Home" coped perfectly. The film is an outlet after the end of the confrontation with Thanos and at the same time gives the film series a new breath and a new key character, around which the main conflicts of future films and crossovers will probably revolve. In addition to this, the film before us is not so much about saving the world from evil and destruction, but about growing up, about the problems of adolescence, about intrapersonal conflicts and so on ... "Spider-Man: Away from Home" is not a filler that fills an empty space in a cinematic universe, but a completely self-sufficient film that will be understandable and enjoyable to a wide range of viewers....

Mediainfo

movie BDRemux Video #1
ID : 1
Format : HEVC
Format/Info : High Efficiency Video Coding
Format profile : Main 10@L5.1@High
HDR format : SMPTE ST 2086, HDR10 compatible
Codec ID : V_MPEGH/ISO/HEVC
Duration : 2 h 9 min
Bit rate : 53.7 Mb/s
Width : 3 840 pixels
Height : 2 160 pixels
Display aspect ratio : 16:9
Frame rate mode : Constant
Frame rate : 23.976 (24000/1001) FPS
Color space : YUV
Chroma subsampling : 4:2:0 (Type 2)
Bit depth : 10 bits
Bits/(Pixel*Frame) : 0.270
Stream size : 48.5 GiB (72%)
Title : Spider-Man.Far.from.Home.2019.2160p.BluRay.REMUX.HEVC.DTS-HD.MA.TrueHD.7.1.Atmos
Language : English
Default : Yes
Forced : No
Color range : Limited
Color primaries : BT.2020
Transfer characteristics : PQ
Matrix coefficients : BT.2020 non-constant
Mastering display color primaries : Display P3
Mastering display luminance : min: 0.0001 cd/m2, max: 1000 cd/m2
Maximum Content Light Level : 9978 cd/m2
Maximum Frame-Average Light Level : 614 cd/m2

Video #2
ID : 2
Format : HEVC
Format/Info : High Efficiency Video Coding
Format profile : Main 10@L5.1@High
HDR format : SMPTE ST 2086, HDR10 compatible
Codec ID : V_MPEGH/ISO/HEVC
Duration : 2 h 9 min
Bit rate : 2 095 kb/s
Width : 1 920 pixels
Height : 1 080 pixels
Display aspect ratio : 16:9
Frame rate mode : Constant
Frame rate : 23.976 (24000/1001) FPS
Color space : YUV
Chroma subsampling : 4:2:0 (Type 2)
Bit depth : 10 bits
Bits/(Pixel*Frame) : 0.042
Stream size : 1.89 GiB (3%)
Title : Spider-Man.Far.from.Home.2019.2160p.BluRay.REMUX.HEVC.DTS-HD.MA.TrueHD.7.1.Atmos
Language : English
Default : No
Forced : No
Color range : Limited
Color primaries : BT.2020
Transfer characteristics : PQ
Matrix coefficients : BT.2020 non-constant
Mastering display color primaries : Display P3
Mastering display luminance : min: 0.0001 cd/m2, max: 1000 cd/m2

Audio #1
ID : 3
Format : MLP FBA 16-ch
Format/Info : Meridian Lossless Packing FBA with 16-channel presentation
Commercial name : Dolby TrueHD with Dolby Atmos
Codec ID : A_TRUEHD
Duration : 2 h 9 min
Bit rate mode : Variable
Bit rate : 3 077 kb/s
Maximum bit rate : 5 397 kb/s
Channel(s) : 8 channels
Channel layout : L R C LFE Ls Rs Lb Rb
Sampling rate : 48.0 kHz
Frame rate : 1 200.000 FPS (40 SPF)
Compression mode : Lossless
Stream size : 2.78 GiB (4%)
Title : Spider-Man.Far.from.Home.2019.2160p.BluRay.REMUX.HEVC.DTS-HD.MA.TrueHD.7.1.Atmos
Language : English
Default : Yes
Forced : No
Number of dynamic objects : 11
Bed channel count : 1 channel
Bed channel configuration : LFE

Audio #2
ID : 4
Format : DTS XLL
Format/Info : Digital Theater Systems
Commercial name : DTS-HD Master Audio
Codec ID : A_DTS
Duration : 2 h 9 min
Bit rate mode : Variable
Bit rate : 4 344 kb/s
Channel(s) : 8 channels
Channel layout : C L R LFE Lb Rb Lss Rss
Sampling rate : 48.0 kHz
Frame rate : 93.750 FPS (512 SPF)
Bit depth : 24 bits
Compression mode : Lossless
Stream size : 3.93 GiB (6%)
Title : Spider-Man.Far.from.Home.2019.2160p.BluRay.REMUX.HEVC.DTS-HD.MA.TrueHD.7.1.Atmos
Language : English
Default : No
Forced : No

Audio #3
ID : 5
Format : AC-3
Format/Info : Audio Coding 3
Commercial name : Dolby Digital
Codec ID : A_AC3
Duration : 2 h 9 min
Bit rate mode : Constant
Bit rate : 640 kb/s
Channel(s) : 6 channels
Channel layout : L R C LFE Ls Rs
Sampling rate : 48.0 kHz
Frame rate : 31.250 FPS (1536 SPF)
Bit depth : 16 bits
Compression mode : Lossy
Stream size : 592 MiB (1%)
Title : Spider-Man.Far.from.Home.2019.2160p.BluRay.REMUX.HEVC.DTS-HD.MA.TrueHD.7.1.Atmos
Language : English
Service kind : Complete Main
Default : No
Forced : No

Audio #4
ID : 6
Format : AC-3
Format/Info : Audio Coding 3
Commercial name : Dolby Digital
Codec ID : A_AC3
Duration : 2 h 9 min
Bit rate mode : Constant
Bit rate : 640 kb/s
Channel(s) : 6 channels
Channel layout : L R C LFE Ls Rs
Sampling rate : 48.0 kHz
Frame rate : 31.250 FPS (1536 SPF)
Bit depth : 16 bits
Compression mode : Lossy
Stream size : 592 MiB (1%)
Title : Spider-Man.Far.from.Home.2019.2160p.BluRay.REMUX.HEVC.DTS-HD.MA.TrueHD.7.1.Atmos
Language : English
Service kind : Complete Main
Default : No
Forced : No

Audio #5
ID : 7
Format : AC-3
Format/Info : Audio Coding 3
Commercial name : Dolby Digital
Codec ID : A_AC3
Duration : 2 h 9 min
Bit rate mode : Constant
Bit rate : 640 kb/s
Channel(s) : 6 channels
Channel layout : L R C LFE Ls Rs
Sampling rate : 48.0 kHz
Frame rate : 31.250 FPS (1536 SPF)
Bit depth : 16 bits
Compression mode : Lossy
Stream size : 592 MiB (1%)
Title : Spider-Man.Far.from.Home.2019.2160p.BluRay.REMUX.HEVC.DTS-HD.MA.TrueHD.7.1.Atmos
Language : Czech
Service kind : Complete Main
Default : No
Forced : No

Audio #6
ID : 8
Format : AC-3
Format/Info : Audio Coding 3
Commercial name : Dolby Digital
Codec ID : A_AC3
Duration : 2 h 9 min
Bit rate mode : Constant
Bit rate : 640 kb/s
Channel(s) : 6 channels
Channel layout : L R C LFE Ls Rs
Sampling rate : 48.0 kHz
Frame rate : 31.250 FPS (1536 SPF)
Bit depth : 16 bits
Compression mode : Lossy
Stream size : 592 MiB (1%)
Title : Spider-Man.Far.from.Home.2019.2160p.BluRay.REMUX.HEVC.DTS-HD.MA.TrueHD.7.1.Atmos
Language : French
Service kind : Complete Main
Default : No
Forced : No

Audio #7
ID : 9
Format : AC-3
Format/Info : Audio Coding 3
Commercial name : Dolby Digital
Codec ID : A_AC3
Duration : 2 h 9 min
Bit rate mode : Constant
Bit rate : 640 kb/s
Channel(s) : 6 channels
Channel layout : L R C LFE Ls Rs
Sampling rate : 48.0 kHz
Frame rate : 31.250 FPS (1536 SPF)
Bit depth : 16 bits
Compression mode : Lossy
Stream size : 592 MiB (1%)
Title : Spider-Man.Far.from.Home.2019.2160p.BluRay.REMUX.HEVC.DTS-HD.MA.TrueHD.7.1.Atmos
Language : French
Service kind : Complete Main
Default : No
Forced : No

Audio #8
ID : 10
Format : AC-3
Format/Info : Audio Coding 3
Commercial name : Dolby Digital
Codec ID : A_AC3
Duration : 2 h 9 min
Bit rate mode : Constant
Bit rate : 640 kb/s
Channel(s) : 6 channels
Channel layout : L R C LFE Ls Rs
Sampling rate : 48.0 kHz
Frame rate : 31.250 FPS (1536 SPF)
Bit depth : 16 bits
Compression mode : Lossy
Stream size : 592 MiB (1%)
Title : Spider-Man.Far.from.Home.2019.2160p.BluRay.REMUX.HEVC.DTS-HD.MA.TrueHD.7.1.Atmos
Language : Hindi
Service kind : Complete Main
Default : No
Forced : No

Audio #9
ID : 11
Format : AC-3
Format/Info : Audio Coding 3
Commercial name : Dolby Digital
Codec ID : A_AC3
Duration : 2 h 9 min
Bit rate mode : Constant
Bit rate : 640 kb/s
Channel(s) : 6 channels
Channel layout : L R C LFE Ls Rs
Sampling rate : 48.0 kHz
Frame rate : 31.250 FPS (1536 SPF)
Bit depth : 16 bits
Compression mode : Lossy
Stream size : 592 MiB (1%)
Title : Spider-Man.Far.from.Home.2019.2160p.BluRay.REMUX.HEVC.DTS-HD.MA.TrueHD.7.1.Atmos
Language : Hungarian
Service kind : Complete Main
Default : No
Forced : No

Audio #10
ID : 12
Format : AC-3
Format/Info : Audio Coding 3
Commercial name : Dolby Digital
Codec ID : A_AC3
Duration : 2 h 9 min
Bit rate mode : Constant
Bit rate : 640 kb/s
Channel(s) : 6 channels
Channel layout : L R C LFE Ls Rs
Sampling rate : 48.0 kHz
Frame rate : 31.250 FPS (1536 SPF)
Bit depth : 16 bits
Compression mode : Lossy
Stream size : 592 MiB (1%)
Title : Spider-Man.Far.from.Home.2019.2160p.BluRay.REMUX.HEVC.DTS-HD.MA.TrueHD.7.1.Atmos
Language : Polish
Service kind : Complete Main
Default : No
Forced : No

Audio #11
ID : 13
Format : DTS XLL
Format/Info : Digital Theater Systems
Commercial name : DTS-HD Master Audio
Codec ID : A_DTS
Duration : 2 h 9 min
Bit rate mode : Variable
Bit rate : 2 361 kb/s
Channel(s) : 6 channels
Channel layout : C L R Ls Rs LFE
Sampling rate : 48.0 kHz
Frame rate : 93.750 FPS (512 SPF)
Bit depth : 16 bits
Compression mode : Lossless
Stream size : 2.13 GiB (3%)
Title : Spider-Man.Far.from.Home.2019.2160p.BluRay.REMUX.HEVC.DTS-HD.MA.TrueHD.7.1.Atmos
Language : Portuguese
Default : No
Forced : No

Audio #12
ID : 14
Format : AC-3
Format/Info : Audio Coding 3
Commercial name : Dolby Digital
Codec ID : A_AC3
Duration : 2 h 9 min
Bit rate mode : Constant
Bit rate : 640 kb/s
Channel(s) : 6 channels
Channel layout : L R C LFE Ls Rs
Sampling rate : 48.0 kHz
Frame rate : 31.250 FPS (1536 SPF)
Bit depth : 16 bits
Compression mode : Lossy
Stream size : 592 MiB (1%)
Title : Spider-Man.Far.from.Home.2019.2160p.BluRay.REMUX.HEVC.DTS-HD.MA.TrueHD.7.1.Atmos
Language : Slovak
Service kind : Complete Main
Default : No
Forced : No

Audio #13
ID : 15
Format : AC-3
Format/Info : Audio Coding 3
Commercial name : Dolby Digital
Codec ID : A_AC3
Duration : 2 h 9 min
Bit rate mode : Constant
Bit rate : 640 kb/s
Channel(s) : 6 channels
Channel layout : L R C LFE Ls Rs
Sampling rate : 48.0 kHz
Frame rate : 31.250 FPS (1536 SPF)
Bit depth : 16 bits
Compression mode : Lossy
Stream size : 592 MiB (1%)
Title : Spider-Man.Far.from.Home.2019.2160p.BluRay.REMUX.HEVC.DTS-HD.MA.TrueHD.7.1.Atmos
Language : Spanish
Service kind : Complete Main
Default : No
Forced : No

Audio #14
ID : 16
Format : AC-3
Format/Info : Audio Coding 3
Commercial name : Dolby Digital
Codec ID : A_AC3
Duration : 2 h 9 min
Bit rate mode : Constant
Bit rate : 640 kb/s
Channel(s) : 6 channels
Channel layout : L R C LFE Ls Rs
Sampling rate : 48.0 kHz
Frame rate : 31.250 FPS (1536 SPF)
Bit depth : 16 bits
Compression mode : Lossy
Stream size : 592 MiB (1%)
Title : Spider-Man.Far.from.Home.2019.2160p.BluRay.REMUX.HEVC.DTS-HD.MA.TrueHD.7.1.Atmos
Language : Tamil
Service kind : Complete Main
Default : No
Forced : No

Audio #15
ID : 17
Format : AC-3
Format/Info : Audio Coding 3
Commercial name : Dolby Digital
Codec ID : A_AC3
Duration : 2 h 9 min
Bit rate mode : Constant
Bit rate : 640 kb/s
Channel(s) : 6 channels
Channel layout : L R C LFE Ls Rs
Sampling rate : 48.0 kHz
Frame rate : 31.250 FPS (1536 SPF)
Bit depth : 16 bits
Compression mode : Lossy
Stream size : 592 MiB (1%)
Title : Spider-Man.Far.from.Home.2019.2160p.BluRay.REMUX.HEVC.DTS-HD.MA.TrueHD.7.1.Atmos
Language : Telugu
Service kind : Complete Main
Default : No
Forced : No

Audio #16
ID : 18
Format : AC-3
Format/Info : Audio Coding 3
Commercial name : Dolby Digital
Codec ID : A_AC3
Duration : 2 h 9 min
Bit rate mode : Constant
Bit rate : 640 kb/s
Channel(s) : 6 channels
Channel layout : L R C LFE Ls Rs
Sampling rate : 48.0 kHz
Frame rate : 31.250 FPS (1536 SPF)
Bit depth : 16 bits
Compression mode : Lossy
Stream size : 592 MiB (1%)
Title : Spider-Man.Far.from.Home.2019.2160p.BluRay.REMUX.HEVC.DTS-HD.MA.TrueHD.7.1.Atmos
Language : Thai
Service kind : Complete Main
Default : No
Forced : No

Audio #17
ID : 19
Format : AC-3
Format/Info : Audio Coding 3
Commercial name : Dolby Digital
Codec ID : A_AC3
Duration : 2 h 9 min
Bit rate mode : Constant
Bit rate : 640 kb/s
Channel(s) : 6 channels
Channel layout : L R C LFE Ls Rs
Sampling rate : 48.0 kHz
Frame rate : 31.250 FPS (1536 SPF)
Bit depth : 16 bits
Compression mode : Lossy
Stream size : 592 MiB (1%)
Title : Spider-Man.Far.from.Home.2019.2160p.BluRay.REMUX.HEVC.DTS-HD.MA.TrueHD.7.1.Atmos
Language : Turkish
Service kind : Complete Main
Default : No
Forced : No

Text #1
ID : 20
Format : UTF-8
Codec ID : S_TEXT/UTF8
Codec ID/Info : UTF-8 Plain Text
Duration : 2 h 7 min
Bit rate : 65 b/s
Count of elements : 1725
Stream size : 61.1 KiB (0%)
Title : English-SRT
Language : English
Default : Yes
Forced : No

Text #2
ID : 21
Format : PGS
Muxing mode : zlib
Codec ID : S_HDMV/PGS
Codec ID/Info : Picture based subtitle format used on BDs/HD-DVDs
Duration : 2 h 7 min
Bit rate : 38.9 kb/s
Count of elements : 3450
Stream size : 35.5 MiB (0%)
Title : English-PGS
Language : English
Default : No
Forced : No

Text #3
ID : 22
Format : PGS
Muxing mode : zlib
Codec ID : S_HDMV/PGS
Codec ID/Info : Picture based subtitle format used on BDs/HD-DVDs
Duration : 2 h 8 min
Bit rate : 42.1 kb/s
Count of elements : 3858
Stream size : 38.6 MiB (0%)
Title : English-SDH-PGS
Language : English
Default : No
Forced : No

Text #4
ID : 23
Format : PGS
Muxing mode : zlib
Codec ID : S_HDMV/PGS
Codec ID/Info : Picture based subtitle format used on BDs/HD-DVDs
Duration : 2 h 8 min
Bit rate : 20.2 kb/s
Count of elements : 3446
Stream size : 18.6 MiB (0%)
Title : Arabic-PGS
Language : Arabic
Default : No
Forced : No

Text #5
ID : 24
Format : PGS
Muxing mode : zlib
Codec ID : S_HDMV/PGS
Codec ID/Info : Picture based subtitle format used on BDs/HD-DVDs
Duration : 2 h 8 min
Bit rate : 34.7 kb/s
Count of elements : 3424
Stream size : 31.9 MiB (0%)
Title : Bulgarian-PGS
Language : Bulgarian
Default : No
Forced : No

Text #6
ID : 25
Format : PGS
Muxing mode : zlib
Codec ID : S_HDMV/PGS
Codec ID/Info : Picture based subtitle format used on BDs/HD-DVDs
Duration : 2 h 8 min
Bit rate : 31.5 kb/s
Count of elements : 3460
Stream size : 29.0 MiB (0%)
Title : Chinese-PGS
Language : Chinese
Default : No
Forced : No

Text #7
ID : 26
Format : PGS
Muxing mode : zlib
Codec ID : S_HDMV/PGS
Codec ID/Info : Picture based subtitle format used on BDs/HD-DVDs
Duration : 2 h 8 min
Bit rate : 32.7 kb/s
Count of elements : 3454
Stream size : 30.1 MiB (0%)
Title : Chinese-PGS
Language : Chinese
Default : No
Forced : No

Text #8
ID : 27
Format : PGS
Muxing mode : zlib
Codec ID : S_HDMV/PGS
Codec ID/Info : Picture based subtitle format used on BDs/HD-DVDs
Duration : 2 h 8 min
Bit rate : 28.0 kb/s
Count of elements : 3496
Stream size : 25.8 MiB (0%)
Title : Chinese-PGS
Language : Chinese
Default : No
Forced : No

Text #9
ID : 28
Format : PGS
Muxing mode : zlib
Codec ID : S_HDMV/PGS
Codec ID/Info : Picture based subtitle format used on BDs/HD-DVDs
Duration : 2 h 8 min
Bit rate : 31.3 kb/s
Count of elements : 3436
Stream size : 28.8 MiB (0%)
Title : Croatian-PGS
Language : Croatian
Default : No
Forced : No

Text #10
ID : 29
Format : PGS
Muxing mode : zlib
Codec ID : S_HDMV/PGS
Codec ID/Info : Picture based subtitle format used on BDs/HD-DVDs
Duration : 2 h 8 min
Bit rate : 34.1 kb/s
Count of elements : 3356
Stream size : 31.3 MiB (0%)
Title : Czech-PGS
Language : Czech
Default : No
Forced : No

Text #11
ID : 30
Format : PGS
Muxing mode : zlib
Codec ID : S_HDMV/PGS
Codec ID/Info : Picture based subtitle format used on BDs/HD-DVDs
Duration : 2 h 8 min
Bit rate : 31.6 kb/s
Count of elements : 3348
Stream size : 29.1 MiB (0%)
Title : French-PGS
Language : French
Default : No
Forced : No

Text #12
ID : 31
Format : PGS
Muxing mode : zlib
Codec ID : S_HDMV/PGS
Codec ID/Info : Picture based subtitle format used on BDs/HD-DVDs
Duration : 2 h 8 min
Bit rate : 37.6 kb/s
Count of elements : 3434
Stream size : 34.5 MiB (0%)
Title : Greek-PGS
Language : Greek
Default : No
Forced : No

Text #13
ID : 32
Format : PGS
Muxing mode : zlib
Codec ID : S_HDMV/PGS
Codec ID/Info : Picture based subtitle format used on BDs/HD-DVDs
Duration : 2 h 8 min
Bit rate : 28.4 kb/s
Count of elements : 3414
Stream size : 26.1 MiB (0%)
Title : Hebrew-PGS
Language : Hebrew
Default : No
Forced : No

Text #14
ID : 33
Format : PGS
Muxing mode : zlib
Codec ID : S_HDMV/PGS
Codec ID/Info : Picture based subtitle format used on BDs/HD-DVDs
Duration : 2 h 8 min
Bit rate : 32.9 kb/s
Count of elements : 3082
Stream size : 30.2 MiB (0%)
Title : Hungarian-PGS
Language : Hungarian
Default : No
Forced : No

Text #15
ID : 34
Format : PGS
Muxing mode : zlib
Codec ID : S_HDMV/PGS
Codec ID/Info : Picture based subtitle format used on BDs/HD-DVDs
Duration : 2 h 8 min
Bit rate : 35.1 kb/s
Count of elements : 3270
Stream size : 32.3 MiB (0%)
Title : Icelandic-PGS
Language : Icelandic
Default : No
Forced : No

Text #16
ID : 35
Format : PGS
Muxing mode : zlib
Codec ID : S_HDMV/PGS
Codec ID/Info : Picture based subtitle format used on BDs/HD-DVDs
Duration : 2 h 8 min
Bit rate : 37.8 kb/s
Count of elements : 3326
Stream size : 34.7 MiB (0%)
Title : Indonesian-PGS
Language : Indonesian
Default : No
Forced : No

Text #17
ID : 36
Format : PGS
Muxing mode : zlib
Codec ID : S_HDMV/PGS
Codec ID/Info : Picture based subtitle format used on BDs/HD-DVDs
Duration : 2 h 8 min
Bit rate : 28.6 kb/s
Count of elements : 3482
Stream size : 26.3 MiB (0%)
Title : Korean-PGS
Language : Korean
Default : No
Forced : No

Text #18
ID : 37
Format : PGS
Muxing mode : zlib
Codec ID : S_HDMV/PGS
Codec ID/Info : Picture based subtitle format used on BDs/HD-DVDs
Duration : 2 h 8 min
Bit rate : 32.1 kb/s
Count of elements : 3326
Stream size : 29.6 MiB (0%)
Title : Polish-PGS
Language : Polish
Default : No
Forced : No

Text #19
ID : 38
Format : PGS
Muxing mode : zlib
Codec ID : S_HDMV/PGS
Codec ID/Info : Picture based subtitle format used on BDs/HD-DVDs
Duration : 2 h 8 min
Bit rate : 34.4 kb/s
Count of elements : 3350
Stream size : 31.6 MiB (0%)
Title : Portuguese-PGS
Language : Portuguese
Default : No
Forced : No

Text #20
ID : 39
Format : PGS
Muxing mode : zlib
Codec ID : S_HDMV/PGS
Codec ID/Info : Picture based subtitle format used on BDs/HD-DVDs
Duration : 2 h 8 min
Bit rate : 37.0 kb/s
Count of elements : 3350
Stream size : 34.0 MiB (0%)
Title : Portuguese-PGS
Language : Portuguese
Default : No
Forced : No

Text #21
ID : 40
Format : PGS
Muxing mode : zlib
Codec ID : S_HDMV/PGS
Codec ID/Info : Picture based subtitle format used on BDs/HD-DVDs
Duration : 2 h 8 min
Bit rate : 35.0 kb/s
Count of elements : 3176
Stream size : 32.2 MiB (0%)
Title : Romanian-PGS
Language : Romanian
Default : No
Forced : No

Text #22
ID : 41
Format : PGS
Muxing mode : zlib
Codec ID : S_HDMV/PGS
Codec ID/Info : Picture based subtitle format used on BDs/HD-DVDs
Duration : 2 h 8 min
Bit rate : 35.0 kb/s
Count of elements : 3454
Stream size : 32.2 MiB (0%)
Title : Serbian-PGS
Language : Serbian
Default : No
Forced : No

Text #23
ID : 42
Format : PGS
Muxing mode : zlib
Codec ID : S_HDMV/PGS
Codec ID/Info : Picture based subtitle format used on BDs/HD-DVDs
Duration : 2 h 8 min
Bit rate : 31.6 kb/s
Count of elements : 3438
Stream size : 29.1 MiB (0%)
Title : Slovak-PGS
Language : Slovak
Default : No
Forced : No

Text #24
ID : 43
Format : PGS
Muxing mode : zlib
Codec ID : S_HDMV/PGS
Codec ID/Info : Picture based subtitle format used on BDs/HD-DVDs
Duration : 2 h 8 min
Bit rate : 29.6 kb/s
Count of elements : 2920
Stream size : 27.2 MiB (0%)
Title : Slovenian-PGS
Language : Slovenian
Default : No
Forced : No

Text #25
ID : 44
Format : PGS
Muxing mode : zlib
Codec ID : S_HDMV/PGS
Codec ID/Info : Picture based subtitle format used on BDs/HD-DVDs
Duration : 2 h 8 min
Bit rate : 36.5 kb/s
Count of elements : 3438
Stream size : 33.6 MiB (0%)
Title : Spanish-PGS
Language : Spanish
Default : No
Forced : No

Text #26
ID : 45
Format : PGS
Muxing mode : zlib
Codec ID : S_HDMV/PGS
Codec ID/Info : Picture based subtitle format used on BDs/HD-DVDs
Duration : 2 h 8 min
Bit rate : 33.0 kb/s
Count of elements : 3504
Stream size : 30.4 MiB (0%)
Title : Thai-PGS
Language : Thai
Default : No
Forced : No

Text #27
ID : 46
Format : PGS
Muxing mode : zlib
Codec ID : S_HDMV/PGS
Codec ID/Info : Picture based subtitle format used on BDs/HD-DVDs
Duration : 2 h 8 min
Bit rate : 36.7 kb/s
Count of elements : 3436
Stream size : 33.8 MiB (0%)
Title : Turkish-PGS
Language : Turkish
Default : No
Forced : No

Text #28
ID : 47
Format : PGS
Muxing mode : zlib
Codec ID : S_HDMV/PGS
Codec ID/Info : Picture based subtitle format used on BDs/HD-DVDs
Duration : 2 h 8 min
Bit rate : 237 b/s
Count of elements : 22
Stream size : 224 KiB (0%)
Title : French-FORCED-PGS
Language : French
Default : No
Forced : No

Menu
00:00:00.000 : en:Chapter 01
00:09:35.032 : en:Chapter 02
00:16:06.715 : en:Chapter 03
00:25:18.475 : en:Chapter 04
00:35:26.332 : en:Chapter 05
00:41:57.014 : en:Chapter 06
00:49:49.736 : en:Chapter 07
00:57:09.134 : en:Chapter 08
01:04:50.636 : en:Chapter 09
01:15:57.052 : en:Chapter 10
01:22:49.089 : en:Chapter 11
01:29:25.193 : en:Chapter 12
01:36:43.214 : en:Chapter 13
01:44:46.989 : en:Chapter 14
01:52:17.147 : en:Chapter 15
01:57:45.433 : en:Chapter 16
movie BDRip Video
ID : 1
Format : HEVC
Format/Info : High Efficiency Video Coding
Format profile : Main 10@L5.1@High
HDR format : SMPTE ST 2086, HDR10 compatible
Codec ID : V_MPEGH/ISO/HEVC
Duration : 2 h 9 min
Bit rate : 7 774 kb/s
Width : 3 840 pixels
Height : 1 608 pixels
Display aspect ratio : 2.40:1
Frame rate mode : Constant
Frame rate : 23.976 (24000/1001) FPS
Color space : YUV
Chroma subsampling : 4:2:0 (Type 2)
Bit depth : 10 bits
Bits/(Pixel*Frame) : 0.053
Stream size : 7.03 GiB (65%)
Writing library : x265 3.1+11-de920e0a3183:[Windows][GCC 6.3.0][64 bit] 10bit
Encoding settings : cpuid=1176575 / frame-threads=5 / numa-pools=36 / wpp / no-pmode / no-pme / no-psnr / no-ssim / log-level=2 / input-csp=1 / input-res=3840x1608 / interlace=0 / total-frames=186144 / level-idc=51 / high-tier=1 / uhd-bd=0 / ref=4 / no-allow-non-conformance / repeat-headers / annexb / aud / hrd / info / hash=0 / no-temporal-layers / no-open-gop / min-keyint=1 / keyint=24 / gop-lookahead=0 / bframes=4 / b-adapt=2 / b-pyramid / bframe-bias=0 / rc-lookahead=25 / lookahead-slices=4 / scenecut=40 / radl=0 / no-splice / no-intra-refresh / ctu=64 / min-cu-size=8 / rect / no-amp / max-tu-size=32 / tu-inter-depth=1 / tu-intra-depth=1 / limit-tu=0 / rdoq-level=2 / dynamic-rd=0.00 / no-ssim-rd / signhide / no-tskip / nr-intra=0 / nr-inter=0 / no-constrained-intra / no-strong-intra-smoothing / max-merge=3 / limit-refs=3 / limit-modes / me=3 / subme=3 / merange=57 / temporal-mvp / no-hme / weightp / no-weightb / no-analyze-src-pics / deblock=-3:-3 / no-sao / no-sao-non-deblock / rd=4 / no-early-skip / rskip / no-fast-intra / no-tskip-fast / no-cu-lossless / no-b-intra / no-splitrd-skip / rdpenalty=0 / psy-rd=2.00 / psy-rdoq=1.00 / no-rd-refine / no-lossless / cbqpoffs=0 / crqpoffs=0 / rc=crf / crf=17.0 / qcomp=0.60 / qpstep=4 / stats-write=0 / stats-read=0 / vbv-maxrate=160000 / vbv-bufsize=160000 / vbv-init=0.9 / crf-max=0.0 / crf-min=0.0 / ipratio=1.40 / pbratio=1.30 / aq-mode=2 / aq-strength=1.00 / cutree / zone-count=0 / no-strict-cbr / qg-size=32 / no-rc-grain / qpmax=69 / qpmin=0 / no-const-vbv / sar=1 / overscan=0 / videoformat=5 / range=0 / colorprim=9 / transfer=16 / colormatrix=9 / chromaloc=1 / chromaloc-top=2 / chromaloc-bottom=2 / display-window=0 / master-display=G(13250,34500)B(7500,3000)R(34000,16000)WP(15635,16450)L(10000000,1)cll=9978,614 / min-luma=0 / max-luma=1023 / log2-max-poc-lsb=8 / vui-timing-info / vui-hrd-info / slices=1 / no-opt-qp-pps / no-opt-ref-list-length-pps / no-multi-pass-opt-rps / scenecut-bias=0.05 / no-opt-cu-delta-qp / no-aq-motion / hdr / hdr-opt / no-dhdr10-opt / no-idr-recovery-sei / analysis-reuse-level=5 / scale-factor=0 / refine-intra=0 / refine-inter=0 / refine-mv=0 / refine-ctu-distortion=0 / no-limit-sao / ctu-info=0 / no-lowpass-dct / refine-analysis-type=0 / copy-pic=1 / max-ausize-factor=1.0 / no-dynamic-refine / no-single-sei / no-hevc-aq / no-svt / no-field / qp-adaptation-range=1.00
Default : Yes
Forced : No
Color range : Limited
Color primaries : BT.2020
Transfer characteristics : PQ
Matrix coefficients : BT.2020 non-constant
Mastering display color primaries : Display P3
Mastering display luminance : min: 0.0001 cd/m2, max: 1000 cd/m2
Maximum Content Light Level : 9978 cd/m2
Maximum Frame-Average Light Level : 614 cd/m2

Audio #1
ID : 2
Format : MLP FBA 16-ch
Format/Info : Meridian Lossless Packing FBA with 16-channel presentation
Commercial name : Dolby TrueHD with Dolby Atmos
Codec ID : A_TRUEHD
Duration : 2 h 9 min
Bit rate mode : Variable
Bit rate : 3 077 kb/s
Maximum bit rate : 5 397 kb/s
Channel(s) : 8 channels
Channel layout : L R C LFE Ls Rs Lb Rb
Sampling rate : 48.0 kHz
Frame rate : 1 200.000 FPS (40 SPF)
Compression mode : Lossless
Stream size : 2.78 GiB (26%)
Language : English
Default : Yes
Forced : No
Number of dynamic objects : 11
Bed channel count : 1 channel
Bed channel configuration : LFE

Audio #2
ID : 3
Format : AC-3
Format/Info : Audio Coding 3
Commercial name : Dolby Digital
Codec ID : A_AC3
Duration : 2 h 9 min
Bit rate mode : Constant
Bit rate : 640 kb/s
Channel(s) : 6 channels
Channel layout : L R C LFE Ls Rs
Sampling rate : 48.0 kHz
Frame rate : 31.250 FPS (1536 SPF)
Bit depth : 16 bits
Compression mode : Lossy
Stream size : 592 MiB (5%)
Language : English
Service kind : Complete Main
Default : No
Forced : No

Text #1
ID : 4
Format : PGS
Muxing mode : zlib
Codec ID : S_HDMV/PGS
Codec ID/Info : Picture based subtitle format used on BDs/HD-DVDs
Duration : 2 h 8 min
Bit rate : 42.1 kb/s
Count of elements : 3858
Stream size : 38.6 MiB (0%)
Title : English SDH
Language : English
Default : No
Forced : No

Text #2
ID : 5
Format : PGS
Muxing mode : zlib
Codec ID : S_HDMV/PGS
Codec ID/Info : Picture based subtitle format used on BDs/HD-DVDs
Duration : 2 h 7 min
Bit rate : 38.9 kb/s
Count of elements : 3450
Stream size : 35.5 MiB (0%)
Title : English
Language : English
Default : No
Forced : No

Text #3
ID : 6
Format : PGS
Muxing mode : zlib
Codec ID : S_HDMV/PGS
Codec ID/Info : Picture based subtitle format used on BDs/HD-DVDs
Duration : 2 h 8 min
Bit rate : 20.2 kb/s
Count of elements : 3446
Stream size : 18.6 MiB (0%)
Title : Arabic
Language : Arabic
Default : No
Forced : No

Text #4
ID : 7
Format : PGS
Muxing mode : zlib
Codec ID : S_HDMV/PGS
Codec ID/Info : Picture based subtitle format used on BDs/HD-DVDs
Duration : 2 h 8 min
Bit rate : 34.7 kb/s
Count of elements : 3424
Stream size : 31.9 MiB (0%)
Title : Bulgarian
Language : Bulgarian
Default : No
Forced : No

Text #5
ID : 8
Format : PGS
Muxing mode : zlib
Codec ID : S_HDMV/PGS
Codec ID/Info : Picture based subtitle format used on BDs/HD-DVDs
Duration : 2 h 8 min
Bit rate : 31.5 kb/s
Count of elements : 3460
Stream size : 29.0 MiB (0%)
Title : Chinese
Language : Chinese
Default : No
Forced : No

Text #6
ID : 9
Format : PGS
Muxing mode : zlib
Codec ID : S_HDMV/PGS
Codec ID/Info : Picture based subtitle format used on BDs/HD-DVDs
Duration : 2 h 8 min
Bit rate : 32.7 kb/s
Count of elements : 3454
Stream size : 30.1 MiB (0%)
Title : Chinese
Language : Chinese
Default : No
Forced : No

Text #7
ID : 10
Format : PGS
Muxing mode : zlib
Codec ID : S_HDMV/PGS
Codec ID/Info : Picture based subtitle format used on BDs/HD-DVDs
Duration : 2 h 8 min
Bit rate : 28.0 kb/s
Count of elements : 3496
Stream size : 25.8 MiB (0%)
Title : Chinese
Language : Chinese
Default : No
Forced : No

Text #8
ID : 11
Format : PGS
Muxing mode : zlib
Codec ID : S_HDMV/PGS
Codec ID/Info : Picture based subtitle format used on BDs/HD-DVDs
Duration : 2 h 8 min
Bit rate : 31.3 kb/s
Count of elements : 3436
Stream size : 28.8 MiB (0%)
Title : Croatian
Language : Croatian
Default : No
Forced : No

Text #9
ID : 12
Format : PGS
Muxing mode : zlib
Codec ID : S_HDMV/PGS
Codec ID/Info : Picture based subtitle format used on BDs/HD-DVDs
Duration : 2 h 8 min
Bit rate : 34.1 kb/s
Count of elements : 3356
Stream size : 31.3 MiB (0%)
Title : Czech
Language : Czech
Default : No
Forced : No

Text #10
ID : 13
Format : PGS
Muxing mode : zlib
Codec ID : S_HDMV/PGS
Codec ID/Info : Picture based subtitle format used on BDs/HD-DVDs
Duration : 2 h 8 min
Bit rate : 31.6 kb/s
Count of elements : 3348
Stream size : 29.1 MiB (0%)
Title : French
Language : French
Default : No
Forced : No

Text #11
ID : 14
Format : PGS
Muxing mode : zlib
Codec ID : S_HDMV/PGS
Codec ID/Info : Picture based subtitle format used on BDs/HD-DVDs
Duration : 2 h 8 min
Bit rate : 37.6 kb/s
Count of elements : 3434
Stream size : 34.5 MiB (0%)
Title : Greek
Language : Greek
Default : No
Forced : No

Text #12
ID : 15
Format : PGS
Muxing mode : zlib
Codec ID : S_HDMV/PGS
Codec ID/Info : Picture based subtitle format used on BDs/HD-DVDs
Duration : 2 h 8 min
Bit rate : 28.4 kb/s
Count of elements : 3414
Stream size : 26.1 MiB (0%)
Title : Hebrew
Language : Hebrew
Default : No
Forced : No

Text #13
ID : 16
Format : PGS
Muxing mode : zlib
Codec ID : S_HDMV/PGS
Codec ID/Info : Picture based subtitle format used on BDs/HD-DVDs
Duration : 2 h 8 min
Bit rate : 32.9 kb/s
Count of elements : 3082
Stream size : 30.2 MiB (0%)
Title : Hungarian
Language : Hungarian
Default : No
Forced : No

Text #14
ID : 17
Format : PGS
Muxing mode : zlib
Codec ID : S_HDMV/PGS
Codec ID/Info : Picture based subtitle format used on BDs/HD-DVDs
Duration : 2 h 8 min
Bit rate : 35.1 kb/s
Count of elements : 3270
Stream size : 32.3 MiB (0%)
Title : Icelandic
Language : Icelandic
Default : No
Forced : No

Text #15
ID : 18
Format : PGS
Muxing mode : zlib
Codec ID : S_HDMV/PGS
Codec ID/Info : Picture based subtitle format used on BDs/HD-DVDs
Duration : 2 h 8 min
Bit rate : 37.8 kb/s
Count of elements : 3326
Stream size : 34.7 MiB (0%)
Title : Indonesian
Language : Indonesian
Default : No
Forced : No

Text #16
ID : 19
Format : PGS
Muxing mode : zlib
Codec ID : S_HDMV/PGS
Codec ID/Info : Picture based subtitle format used on BDs/HD-DVDs
Duration : 2 h 8 min
Bit rate : 28.6 kb/s
Count of elements : 3482
Stream size : 26.3 MiB (0%)
Title : Korean
Language : Korean
Default : No
Forced : No

Text #17
ID : 20
Format : PGS
Muxing mode : zlib
Codec ID : S_HDMV/PGS
Codec ID/Info : Picture based subtitle format used on BDs/HD-DVDs
Duration : 2 h 8 min
Bit rate : 32.1 kb/s
Count of elements : 3326
Stream size : 29.6 MiB (0%)
Title : Polish
Language : Polish
Default : No
Forced : No

Text #18
ID : 21
Format : PGS
Muxing mode : zlib
Codec ID : S_HDMV/PGS
Codec ID/Info : Picture based subtitle format used on BDs/HD-DVDs
Duration : 2 h 8 min
Bit rate : 34.4 kb/s
Count of elements : 3350
Stream size : 31.6 MiB (0%)
Title : Portuguese
Language : Portuguese
Default : No
Forced : No

Text #19
ID : 22
Format : PGS
Muxing mode : zlib
Codec ID : S_HDMV/PGS
Codec ID/Info : Picture based subtitle format used on BDs/HD-DVDs
Duration : 2 h 8 min
Bit rate : 37.0 kb/s
Count of elements : 3350
Stream size : 34.0 MiB (0%)
Title : Portuguese
Language : Portuguese
Default : No
Forced : No

Text #20
ID : 23
Format : PGS
Muxing mode : zlib
Codec ID : S_HDMV/PGS
Codec ID/Info : Picture based subtitle format used on BDs/HD-DVDs
Duration : 2 h 8 min
Bit rate : 35.0 kb/s
Count of elements : 3176
Stream size : 32.2 MiB (0%)
Title : Romanian
Language : Romanian
Default : No
Forced : No

Text #21
ID : 24
Format : PGS
Muxing mode : zlib
Codec ID : S_HDMV/PGS
Codec ID/Info : Picture based subtitle format used on BDs/HD-DVDs
Duration : 2 h 8 min
Bit rate : 35.0 kb/s
Count of elements : 3454
Stream size : 32.2 MiB (0%)
Title : Serbian
Language : Serbian
Default : No
Forced : No

Text #22
ID : 25
Format : PGS
Muxing mode : zlib
Codec ID : S_HDMV/PGS
Codec ID/Info : Picture based subtitle format used on BDs/HD-DVDs
Duration : 2 h 8 min
Bit rate : 31.6 kb/s
Count of elements : 3438
Stream size : 29.1 MiB (0%)
Title : Slovak
Language : Slovak
Default : No
Forced : No

Text #23
ID : 26
Format : PGS
Muxing mode : zlib
Codec ID : S_HDMV/PGS
Codec ID/Info : Picture based subtitle format used on BDs/HD-DVDs
Duration : 2 h 8 min
Bit rate : 29.6 kb/s
Count of elements : 2920
Stream size : 27.2 MiB (0%)
Title : Slovenian
Language : Slovenian
Default : No
Forced : No

Text #24
ID : 27
Format : PGS
Muxing mode : zlib
Codec ID : S_HDMV/PGS
Codec ID/Info : Picture based subtitle format used on BDs/HD-DVDs
Duration : 2 h 8 min
Bit rate : 36.5 kb/s
Count of elements : 3438
Stream size : 33.6 MiB (0%)
Title : Spanish
Language : Spanish
Default : No
Forced : No

Text #25
ID : 28
Format : PGS
Muxing mode : zlib
Codec ID : S_HDMV/PGS
Codec ID/Info : Picture based subtitle format used on BDs/HD-DVDs
Duration : 2 h 8 min
Bit rate : 33.0 kb/s
Count of elements : 3504
Stream size : 30.4 MiB (0%)
Title : Thai
Language : Thai
Default : No
Forced : No

Text #26
ID : 29
Format : PGS
Muxing mode : zlib
Codec ID : S_HDMV/PGS
Codec ID/Info : Picture based subtitle format used on BDs/HD-DVDs
Duration : 2 h 8 min
Bit rate : 36.7 kb/s
Count of elements : 3436
Stream size : 33.8 MiB (0%)
Title : Turkish
Language : Turkish
Default : No
Forced : No

Text #27
ID : 30
Format : PGS
Muxing mode : zlib
Codec ID : S_HDMV/PGS
Codec ID/Info : Picture based subtitle format used on BDs/HD-DVDs
Duration : 2 h 8 min
Bit rate : 237 b/s
Count of elements : 22
Stream size : 224 KiB (0%)
Title : French
Language : French
Default : No
Forced : No

Download

download 4k hdr movies download 4k hdr movies

Watch a movie trailer - Spider-Man Far from Home 4K 2019 Ultra HD 2160p
Comments and Feedback
  1. - 0 +
    Ashad Khan  пишет:
    8 November 2019 19:35
    Sir can you put all action moves in dual audio (hindi)
Add your comment:
Your name:
Your E-Mail:
Code:
reload, if the code cannot be seen
Enter code: