Select movie Search movie Close search My Account

Pokemon Detective Pikachu 4K 2019 Ultra HD 2160p

Pokemon Detective Pikachu 4K 2019 Ultra HD 2160p
BDRemux / BDRip
Country: USA | Japan | Canada
Time: 1h 44min
IMDB: 6.7
Director: Rob Letterman
Actors: Ryan Reynolds, Justice Smith, Kathryn Newton, Bill Nighy, Ken Watanabe, Chris Geere, Suki Waterhouse, Josette Simon, Alejandro De Mesa, Rita Ora, Karan Soni, Max Fincham, Simone Ashley, Edward Davis, Diplo.

Story Movie

Pokemon Detective Pikachu 4K 2019 Ultra HD 2160p
The story begins with the experienced private investigator Harry Goodman disappearing under mysterious circumstances, and his 21-year-old son Tim (Justice Smith) begins his own investigation of what happened. His former partner Harry Detective Pikachu (Ryan Reynolds) comes to the rescue - a funny and charming wisecracker, capable of introducing even himself into a stupor. Finding that they get along great, Tim and Pikachu become partners in this exciting adventure. Following the clues they find on the neon streets of Rime City (the huge modern metropolis where people and Pokemon live together), they encounter various creatures and uncover a shocking conspiracy that could disrupt the peaceful coexistence of the two species and put an end to the entire Pokemon universe Pokemon Detective Pikachu true 4k video .

Review 4K Movie

Pokemon is one of the most famous franchises in the world. She made an incredible contribution to pop culture, based on her many different animated series, animated films, video games and more. And from this it becomes even more surprising that Detective Pikachu is the first adaptation of the beloved franchise. But did the creators manage to make a decent entertaining movie? It depends.

It’s worth clarifying right away that the film is detective, so the plot and script are of paramount importance. On paper, Detective Pikachu is an adaptation of the game of the same name, but something tells me that with the game the film has many differences, and by itself, I will evaluate the film as an independent work. The plot of the film is straightforward, but when viewing it, you are unlikely to be very bored. But you will definitely be perplexed by the plot holes, understatements and illogicalities. They are small here and they are striking. A large number of plot holes for the detective is very bad. Also lame motivation in the characters, in almost all characters. Here is more detailed. The protagonist is Tim Goodman (Justice Smith), a former “coach” Pokemonov receives news of his father’s death and comes to the city for ... for ... for that ... um, to pick up his things? Well, here is the classical scheme, the problem of fathers and children, the father did not give him time, Tim pretends that he does not feel sorry for his father, but in the end it turns out that he still loved him. This story line is read from the first minutes and because of this it seems unrealistic (it is) and simulated. Tim meets Pikachu, who was the partner of Tim’s father, but bad luck, Pikachu lost his memory. Also in the plot, the hero’s love interest flashes, which appears so suddenly that it seems that this is some kind of practical joke. She is so well revealed, spelled out and motivated that I did not even remember her name. (And her name was generally pronounced in the film?). There are a couple more characters, but their mention will be a spoiler, so I limit myself to the fact that they are not disclosed at all, not motivated and are walking jesters. Oh well, this is a movie about Pokemon!

The Pokémon in the film are beautiful, they are elegantly made from a visual point of view, and it's nice to watch them. Pikachu is beautiful. He is funny, cute, funny and more interesting than human characters. In general, Pokémon are shown very spectacularly and impressively. But there are some minor flaws. A stranger to Pokemon viewers will not be told at all about the abilities and capabilities of at least some Pokemon and Pokemon very little. I would like to see more Pokémon in the frame, as they are very cute and attractive (unlike the main characters). In general, with the plot and characters there is a dilemma, if you look at the details, separately, then everything is bad, but if you look at the big picture, then everything is not so scary.

Atmosphere. A very important detail of any film. The creators had a difficult task - to show utopia, where people and Pokemon live together. Did they do it? Again, everything is debatable. It seems that scenes are shown where people and Pokemon work together, but not fully disclosed, without details.

Soundtrack The same situation. I can’t say anything bad and nothing good.

Concluding, I can say that the whole film turned out like this. Not good, not bad, not chic, not terrible. Fine. Just fine. If you have absolutely nothing to do, as I did when I went to this film, then you can go. Time will fly by quite quickly, you will not have negative impressions, but no more. Squeeze the atmosphere, the script ... there are always problems with the script ... However, the film turned out to be good and it brought me a modest share of pleasure, and in general the film came out rather good than bad.

Mediainfo

movie BDRemux Video
ID : 1
Format : HEVC
Format/Info : High Efficiency Video Coding
Format profile : Main 10@L5.1@High
HDR format : SMPTE ST 2086, HDR10 compatible
Codec ID : V_MPEGH/ISO/HEVC
Duration : 1 h 44 min
Bit rate : 63.7 Mb/s
Width : 3 840 pixels
Height : 2 160 pixels
Display aspect ratio : 16:9
Frame rate mode : Constant
Frame rate : 23.976 (24000/1001) FPS
Color space : YUV
Chroma subsampling : 4:2:0 (Type 2)
Bit depth : 10 bits
Bits/(Pixel*Frame) : 0.320
Stream size : 46.5 GiB (80%)
Title : Pokemon.Detective.Pikachu.2019.2160p.BluRay.REMUX.HEVC.DTS-HD.MA.TrueHD.7.1.Atmos
Writing library : ATEME Titan File 3.9.0 (4.9.0.0)
Language : English
Default : No
Forced : No
Color range : Limited
Color primaries : BT.2020
Transfer characteristics : PQ
Matrix coefficients : BT.2020 non-constant
Mastering display color primaries : Display P3
Mastering display luminance : min: 0.0050 cd/m2, max: 4000 cd/m2
Maximum Content Light Level : 200 cd/m2
Maximum Frame-Average Light Level : 89 cd/m2

Audio #1
ID : 2
Format : MLP FBA 16-ch
Format/Info : Meridian Lossless Packing FBA with 16-channel presentation
Commercial name : Dolby TrueHD with Dolby Atmos
Codec ID : A_TRUEHD
Duration : 1 h 44 min
Bit rate mode : Variable
Bit rate : 3 234 kb/s
Maximum bit rate : 6 081 kb/s
Channel(s) : 8 channels
Channel layout : L R C LFE Ls Rs Lb Rb
Sampling rate : 48.0 kHz
Frame rate : 1 200.000 FPS (40 SPF)
Compression mode : Lossless
Stream size : 2.36 GiB (4%)
Title : Pokemon.Detective.Pikachu.2019.2160p.BluRay.REMUX.HEVC.DTS-HD.MA.TrueHD.7.1.Atmos
Language : English
Default : Yes
Forced : No
Number of dynamic objects : 15
Bed channel count : 1 channel
Bed channel configuration : LFE

Audio #2
ID : 3
Format : DTS XLL
Format/Info : Digital Theater Systems
Commercial name : DTS-HD Master Audio
Codec ID : A_DTS
Duration : 1 h 44 min
Bit rate mode : Variable
Bit rate : 4 226 kb/s
Channel(s) : 8 channels
Channel layout : C L R LFE Lb Rb Lss Rss
Sampling rate : 48.0 kHz
Frame rate : 93.750 FPS (512 SPF)
Bit depth : 24 bits
Compression mode : Lossless
Stream size : 3.08 GiB (5%)
Title : Pokemon.Detective.Pikachu.2019.2160p.BluRay.REMUX.HEVC.DTS-HD.MA.TrueHD.7.1.Atmos
Language : English
Default : No
Forced : No

Audio #3
ID : 4
Format : AC-3
Format/Info : Audio Coding 3
Commercial name : Dolby Digital
Codec ID : A_AC3
Duration : 1 h 44 min
Bit rate mode : Constant
Bit rate : 640 kb/s
Channel(s) : 6 channels
Channel layout : L R C LFE Ls Rs
Sampling rate : 48.0 kHz
Frame rate : 31.250 FPS (1536 SPF)
Bit depth : 16 bits
Compression mode : Lossy
Stream size : 478 MiB (1%)
Title : Pokemon.Detective.Pikachu.2019.2160p.BluRay.REMUX.HEVC.DTS-HD.MA.TrueHD.7.1.Atmos
Language : English
Service kind : Complete Main
Default : No
Forced : No

Audio #4
ID : 5
Format : AC-3
Format/Info : Audio Coding 3
Commercial name : Dolby Digital
Codec ID : A_AC3
Duration : 1 h 44 min
Bit rate mode : Constant
Bit rate : 448 kb/s
Channel(s) : 6 channels
Channel layout : L R C LFE Ls Rs
Sampling rate : 48.0 kHz
Frame rate : 31.250 FPS (1536 SPF)
Bit depth : 16 bits
Compression mode : Lossy
Stream size : 335 MiB (1%)
Title : Pokemon.Detective.Pikachu.2019.2160p.BluRay.REMUX.HEVC.DTS-HD.MA.TrueHD.7.1.Atmos
Language : English
Service kind : Complete Main
Default : No
Forced : No

Audio #5
ID : 6
Format : AC-3
Format/Info : Audio Coding 3
Commercial name : Dolby Digital
Codec ID : A_AC3
Duration : 1 h 44 min
Bit rate mode : Constant
Bit rate : 448 kb/s
Channel(s) : 6 channels
Channel layout : L R C LFE Ls Rs
Sampling rate : 48.0 kHz
Frame rate : 31.250 FPS (1536 SPF)
Bit depth : 16 bits
Compression mode : Lossy
Stream size : 335 MiB (1%)
Title : Pokemon.Detective.Pikachu.2019.2160p.BluRay.REMUX.HEVC.DTS-HD.MA.TrueHD.7.1.Atmos
Language : English
Service kind : Complete Main
Default : No
Forced : No

Audio #6
ID : 7
Format : AC-3
Format/Info : Audio Coding 3
Commercial name : Dolby Digital
Codec ID : A_AC3
Duration : 1 h 44 min
Bit rate mode : Constant
Bit rate : 448 kb/s
Channel(s) : 6 channels
Channel layout : L R C LFE Ls Rs
Sampling rate : 48.0 kHz
Frame rate : 31.250 FPS (1536 SPF)
Bit depth : 16 bits
Compression mode : Lossy
Stream size : 335 MiB (1%)
Title : Pokemon.Detective.Pikachu.2019.2160p.BluRay.REMUX.HEVC.DTS-HD.MA.TrueHD.7.1.Atmos
Language : English
Service kind : Complete Main
Default : No
Forced : No

Audio #7
ID : 8
Format : AC-3
Format/Info : Audio Coding 3
Commercial name : Dolby Digital
Codec ID : A_AC3
Duration : 1 h 44 min
Bit rate mode : Constant
Bit rate : 448 kb/s
Channel(s) : 6 channels
Channel layout : L R C LFE Ls Rs
Sampling rate : 48.0 kHz
Frame rate : 31.250 FPS (1536 SPF)
Bit depth : 16 bits
Compression mode : Lossy
Stream size : 335 MiB (1%)
Title : Pokemon.Detective.Pikachu.2019.2160p.BluRay.REMUX.HEVC.DTS-HD.MA.TrueHD.7.1.Atmos
Language : French
Service kind : Complete Main
Default : No
Forced : No

Audio #8
ID : 9
Format : AC-3
Format/Info : Audio Coding 3
Commercial name : Dolby Digital
Codec ID : A_AC3
Duration : 1 h 44 min
Bit rate mode : Constant
Bit rate : 448 kb/s
Channel(s) : 6 channels
Channel layout : L R C LFE Ls Rs
Sampling rate : 48.0 kHz
Frame rate : 31.250 FPS (1536 SPF)
Bit depth : 16 bits
Compression mode : Lossy
Stream size : 335 MiB (1%)
Title : Pokemon.Detective.Pikachu.2019.2160p.BluRay.REMUX.HEVC.DTS-HD.MA.TrueHD.7.1.Atmos
Language : Chinese
Service kind : Complete Main
Default : No
Forced : No

Audio #9
ID : 10
Format : AC-3
Format/Info : Audio Coding 3
Commercial name : Dolby Digital
Codec ID : A_AC3
Duration : 1 h 44 min
Bit rate mode : Constant
Bit rate : 448 kb/s
Channel(s) : 6 channels
Channel layout : L R C LFE Ls Rs
Sampling rate : 48.0 kHz
Frame rate : 31.250 FPS (1536 SPF)
Bit depth : 16 bits
Compression mode : Lossy
Stream size : 335 MiB (1%)
Title : Pokemon.Detective.Pikachu.2019.2160p.BluRay.REMUX.HEVC.DTS-HD.MA.TrueHD.7.1.Atmos
Language : Korean
Service kind : Complete Main
Default : No
Forced : No

Audio #10
ID : 11
Format : AC-3
Format/Info : Audio Coding 3
Commercial name : Dolby Digital
Codec ID : A_AC3
Duration : 1 h 44 min
Bit rate mode : Constant
Bit rate : 448 kb/s
Channel(s) : 6 channels
Channel layout : L R C LFE Ls Rs
Sampling rate : 48.0 kHz
Frame rate : 31.250 FPS (1536 SPF)
Bit depth : 16 bits
Compression mode : Lossy
Stream size : 335 MiB (1%)
Title : Pokemon.Detective.Pikachu.2019.2160p.BluRay.REMUX.HEVC.DTS-HD.MA.TrueHD.7.1.Atmos
Language : Spanish
Service kind : Complete Main
Default : No
Forced : No

Audio #11
ID : 12
Format : AC-3
Format/Info : Audio Coding 3
Commercial name : Dolby Digital
Codec ID : A_AC3
Duration : 1 h 44 min
Bit rate mode : Constant
Bit rate : 448 kb/s
Channel(s) : 6 channels
Channel layout : L R C LFE Ls Rs
Sampling rate : 48.0 kHz
Frame rate : 31.250 FPS (1536 SPF)
Bit depth : 16 bits
Compression mode : Lossy
Stream size : 335 MiB (1%)
Title : Pokemon.Detective.Pikachu.2019.2160p.BluRay.REMUX.HEVC.DTS-HD.MA.TrueHD.7.1.Atmos
Language : Bulgarian
Service kind : Complete Main
Default : No
Forced : No

Audio #12
ID : 13
Format : AC-3
Format/Info : Audio Coding 3
Commercial name : Dolby Digital
Codec ID : A_AC3
Duration : 1 h 44 min
Bit rate mode : Constant
Bit rate : 448 kb/s
Channel(s) : 6 channels
Channel layout : L R C LFE Ls Rs
Sampling rate : 48.0 kHz
Frame rate : 31.250 FPS (1536 SPF)
Bit depth : 16 bits
Compression mode : Lossy
Stream size : 335 MiB (1%)
Title : Pokemon.Detective.Pikachu.2019.2160p.BluRay.REMUX.HEVC.DTS-HD.MA.TrueHD.7.1.Atmos
Language : Czech
Service kind : Complete Main
Default : No
Forced : No

Audio #13
ID : 14
Format : AC-3
Format/Info : Audio Coding 3
Commercial name : Dolby Digital
Codec ID : A_AC3
Duration : 1 h 44 min
Bit rate mode : Constant
Bit rate : 448 kb/s
Channel(s) : 6 channels
Channel layout : L R C LFE Ls Rs
Sampling rate : 48.0 kHz
Frame rate : 31.250 FPS (1536 SPF)
Bit depth : 16 bits
Compression mode : Lossy
Stream size : 335 MiB (1%)
Title : Pokemon.Detective.Pikachu.2019.2160p.BluRay.REMUX.HEVC.DTS-HD.MA.TrueHD.7.1.Atmos
Language : Hindi
Service kind : Complete Main
Default : No
Forced : No

Audio #14
ID : 15
Format : AC-3
Format/Info : Audio Coding 3
Commercial name : Dolby Digital
Codec ID : A_AC3
Duration : 1 h 44 min
Bit rate mode : Constant
Bit rate : 448 kb/s
Channel(s) : 6 channels
Channel layout : L R C LFE Ls Rs
Sampling rate : 48.0 kHz
Frame rate : 31.250 FPS (1536 SPF)
Bit depth : 16 bits
Compression mode : Lossy
Stream size : 335 MiB (1%)
Title : Pokemon.Detective.Pikachu.2019.2160p.BluRay.REMUX.HEVC.DTS-HD.MA.TrueHD.7.1.Atmos
Language : Hungarian
Service kind : Complete Main
Default : No
Forced : No

Audio #15
ID : 16
Format : AC-3
Format/Info : Audio Coding 3
Commercial name : Dolby Digital
Codec ID : A_AC3
Duration : 1 h 44 min
Bit rate mode : Constant
Bit rate : 448 kb/s
Channel(s) : 6 channels
Channel layout : L R C LFE Ls Rs
Sampling rate : 48.0 kHz
Frame rate : 31.250 FPS (1536 SPF)
Bit depth : 16 bits
Compression mode : Lossy
Stream size : 335 MiB (1%)
Title : Pokemon.Detective.Pikachu.2019.2160p.BluRay.REMUX.HEVC.DTS-HD.MA.TrueHD.7.1.Atmos
Language : Portuguese
Service kind : Complete Main
Default : No
Forced : No

Audio #16
ID : 17
Format : AC-3
Format/Info : Audio Coding 3
Commercial name : Dolby Digital
Codec ID : A_AC3
Duration : 1 h 44 min
Bit rate mode : Constant
Bit rate : 448 kb/s
Channel(s) : 6 channels
Channel layout : L R C LFE Ls Rs
Sampling rate : 48.0 kHz
Frame rate : 31.250 FPS (1536 SPF)
Bit depth : 16 bits
Compression mode : Lossy
Stream size : 335 MiB (1%)
Title : Pokemon.Detective.Pikachu.2019.2160p.BluRay.REMUX.HEVC.DTS-HD.MA.TrueHD.7.1.Atmos
Language : Romanian
Service kind : Complete Main
Default : No
Forced : No

Audio #17
ID : 18
Format : AC-3
Format/Info : Audio Coding 3
Commercial name : Dolby Digital
Codec ID : A_AC3
Duration : 1 h 44 min
Bit rate mode : Constant
Bit rate : 448 kb/s
Channel(s) : 6 channels
Channel layout : L R C LFE Ls Rs
Sampling rate : 48.0 kHz
Frame rate : 31.250 FPS (1536 SPF)
Bit depth : 16 bits
Compression mode : Lossy
Stream size : 335 MiB (1%)
Title : Pokemon.Detective.Pikachu.2019.2160p.BluRay.REMUX.HEVC.DTS-HD.MA.TrueHD.7.1.Atmos
Language : Russian
Service kind : Complete Main
Default : No
Forced : No

Audio #18
ID : 19
Format : AC-3
Format/Info : Audio Coding 3
Commercial name : Dolby Digital
Codec ID : A_AC3
Duration : 1 h 44 min
Bit rate mode : Constant
Bit rate : 448 kb/s
Channel(s) : 6 channels
Channel layout : L R C LFE Ls Rs
Sampling rate : 48.0 kHz
Frame rate : 31.250 FPS (1536 SPF)
Bit depth : 16 bits
Compression mode : Lossy
Stream size : 335 MiB (1%)
Title : Pokemon.Detective.Pikachu.2019.2160p.BluRay.REMUX.HEVC.DTS-HD.MA.TrueHD.7.1.Atmos
Language : Slovak
Service kind : Complete Main
Default : No
Forced : No

Audio #19
ID : 20
Format : AC-3
Format/Info : Audio Coding 3
Commercial name : Dolby Digital
Codec ID : A_AC3
Duration : 1 h 44 min
Bit rate mode : Constant
Bit rate : 448 kb/s
Channel(s) : 6 channels
Channel layout : L R C LFE Ls Rs
Sampling rate : 48.0 kHz
Frame rate : 31.250 FPS (1536 SPF)
Bit depth : 16 bits
Compression mode : Lossy
Stream size : 335 MiB (1%)
Title : Pokemon.Detective.Pikachu.2019.2160p.BluRay.REMUX.HEVC.DTS-HD.MA.TrueHD.7.1.Atmos
Language : Thai
Service kind : Complete Main
Default : No
Forced : No

Audio #20
ID : 21
Format : AC-3
Format/Info : Audio Coding 3
Commercial name : Dolby Digital
Codec ID : A_AC3
Duration : 1 h 44 min
Bit rate mode : Constant
Bit rate : 448 kb/s
Channel(s) : 6 channels
Channel layout : L R C LFE Ls Rs
Sampling rate : 48.0 kHz
Frame rate : 31.250 FPS (1536 SPF)
Bit depth : 16 bits
Compression mode : Lossy
Stream size : 335 MiB (1%)
Title : Pokemon.Detective.Pikachu.2019.2160p.BluRay.REMUX.HEVC.DTS-HD.MA.TrueHD.7.1.Atmos
Language : Turkish
Service kind : Complete Main
Default : No
Forced : No

Text #1
ID : 22
Format : UTF-8
Codec ID : S_TEXT/UTF8
Codec ID/Info : UTF-8 Plain Text
Duration : 1 h 33 min
Bit rate : 64 b/s
Count of elements : 1389
Stream size : 44.5 KiB (0%)
Title : English-SRT
Language : English
Default : Yes
Forced : No

Text #2
ID : 23
Format : PGS
Muxing mode : zlib
Codec ID : S_HDMV/PGS
Codec ID/Info : Picture based subtitle format used on BDs/HD-DVDs
Duration : 1 h 36 min
Bit rate : 38.5 kb/s
Count of elements : 3194
Stream size : 26.6 MiB (0%)
Title : English-PGS
Language : English
Default : No
Forced : No

Text #3
ID : 24
Format : PGS
Muxing mode : zlib
Codec ID : S_HDMV/PGS
Codec ID/Info : Picture based subtitle format used on BDs/HD-DVDs
Duration : 1 h 42 min
Bit rate : 25.1 kb/s
Count of elements : 2684
Stream size : 18.4 MiB (0%)
Title : French-PGS
Language : French
Default : No
Forced : No

Text #4
ID : 25
Format : PGS
Muxing mode : zlib
Codec ID : S_HDMV/PGS
Codec ID/Info : Picture based subtitle format used on BDs/HD-DVDs
Duration : 1 h 43 min
Bit rate : 26.1 kb/s
Count of elements : 2556
Stream size : 19.3 MiB (0%)
Title : Chinese-PGS
Language : Chinese
Default : No
Forced : No

Text #5
ID : 26
Format : PGS
Muxing mode : zlib
Codec ID : S_HDMV/PGS
Codec ID/Info : Picture based subtitle format used on BDs/HD-DVDs
Duration : 1 h 43 min
Bit rate : 26.5 kb/s
Count of elements : 2606
Stream size : 19.6 MiB (0%)
Title : Chinese-PGS
Language : Chinese
Default : No
Forced : No

Text #6
ID : 27
Format : PGS
Muxing mode : zlib
Codec ID : S_HDMV/PGS
Codec ID/Info : Picture based subtitle format used on BDs/HD-DVDs
Duration : 1 h 36 min
Bit rate : 19.3 kb/s
Count of elements : 2536
Stream size : 13.3 MiB (0%)
Title : Korean-PGS
Language : Korean
Default : No
Forced : No

Text #7
ID : 28
Format : PGS
Muxing mode : zlib
Codec ID : S_HDMV/PGS
Codec ID/Info : Picture based subtitle format used on BDs/HD-DVDs
Duration : 1 h 42 min
Bit rate : 30.0 kb/s
Count of elements : 2594
Stream size : 22.0 MiB (0%)
Title : Spanish-PGS
Language : Spanish
Default : No
Forced : No

Text #8
ID : 29
Format : PGS
Muxing mode : zlib
Codec ID : S_HDMV/PGS
Codec ID/Info : Picture based subtitle format used on BDs/HD-DVDs
Duration : 1 h 43 min
Bit rate : 26.8 kb/s
Count of elements : 2606
Stream size : 19.8 MiB (0%)
Title : Bulgarian-PGS
Language : Bulgarian
Default : No
Forced : No

Text #9
ID : 30
Format : PGS
Muxing mode : zlib
Codec ID : S_HDMV/PGS
Codec ID/Info : Picture based subtitle format used on BDs/HD-DVDs
Duration : 1 h 43 min
Bit rate : 27.6 kb/s
Count of elements : 2582
Stream size : 20.4 MiB (0%)
Title : Croatian-PGS
Language : Croatian
Default : No
Forced : No

Text #10
ID : 31
Format : PGS
Muxing mode : zlib
Codec ID : S_HDMV/PGS
Codec ID/Info : Picture based subtitle format used on BDs/HD-DVDs
Duration : 1 h 43 min
Bit rate : 27.9 kb/s
Count of elements : 2586
Stream size : 20.6 MiB (0%)
Title : Czech-PGS
Language : Czech
Default : No
Forced : No

Text #11
ID : 32
Format : PGS
Muxing mode : zlib
Codec ID : S_HDMV/PGS
Codec ID/Info : Picture based subtitle format used on BDs/HD-DVDs
Duration : 1 h 42 min
Bit rate : 26.3 kb/s
Count of elements : 2608
Stream size : 19.3 MiB (0%)
Title : Hungarian-PGS
Language : Hungarian
Default : No
Forced : No

Text #12
ID : 33
Format : PGS
Muxing mode : zlib
Codec ID : S_HDMV/PGS
Codec ID/Info : Picture based subtitle format used on BDs/HD-DVDs
Duration : 1 h 43 min
Bit rate : 31.9 kb/s
Count of elements : 2558
Stream size : 23.6 MiB (0%)
Title : Portuguese-PGS
Language : Portuguese
Default : No
Forced : No

Text #13
ID : 34
Format : PGS
Muxing mode : zlib
Codec ID : S_HDMV/PGS
Codec ID/Info : Picture based subtitle format used on BDs/HD-DVDs
Duration : 1 h 43 min
Bit rate : 28.2 kb/s
Count of elements : 2520
Stream size : 20.8 MiB (0%)
Title : Romanian-PGS
Language : Romanian
Default : No
Forced : No

Text #14
ID : 35
Format : PGS
Muxing mode : zlib
Codec ID : S_HDMV/PGS
Codec ID/Info : Picture based subtitle format used on BDs/HD-DVDs
Duration : 1 h 43 min
Bit rate : 27.8 kb/s
Count of elements : 2804
Stream size : 20.6 MiB (0%)
Title : Russian-PGS
Language : Russian
Default : No
Forced : No

Text #15
ID : 36
Format : PGS
Muxing mode : zlib
Codec ID : S_HDMV/PGS
Codec ID/Info : Picture based subtitle format used on BDs/HD-DVDs
Duration : 1 h 43 min
Bit rate : 25.4 kb/s
Count of elements : 2216
Stream size : 18.8 MiB (0%)
Title : Slovenian-PGS
Language : Slovenian
Default : No
Forced : No

Text #16
ID : 37
Format : PGS
Muxing mode : zlib
Codec ID : S_HDMV/PGS
Codec ID/Info : Picture based subtitle format used on BDs/HD-DVDs
Duration : 1 h 43 min
Bit rate : 28.4 kb/s
Count of elements : 2614
Stream size : 21.0 MiB (0%)
Title : Thai-PGS
Language : Thai
Default : No
Forced : No

Text #17
ID : 38
Format : PGS
Muxing mode : zlib
Codec ID : S_HDMV/PGS
Codec ID/Info : Picture based subtitle format used on BDs/HD-DVDs
Duration : 1 h 36 min
Bit rate : 32.8 kb/s
Count of elements : 2600
Stream size : 22.6 MiB (0%)
Title : Turkish-PGS
Language : Turkish
Default : No
Forced : No

Text #18
ID : 39
Format : PGS
Muxing mode : zlib
Codec ID : S_HDMV/PGS
Codec ID/Info : Picture based subtitle format used on BDs/HD-DVDs
Duration : 39 min 47 s
Bit rate : 320 b/s
Count of elements : 8
Stream size : 93.4 KiB (0%)
Title : French-FORCED-PGS
Language : French
Default : No
Forced : No

Text #19
ID : 40
Format : PGS
Muxing mode : zlib
Codec ID : S_HDMV/PGS
Codec ID/Info : Picture based subtitle format used on BDs/HD-DVDs
Duration : 1 h 16 min
Bit rate : 842 b/s
Count of elements : 56
Stream size : 473 KiB (0%)
Title : Chinese-FORCED-PGS
Language : Chinese
Default : No
Forced : No

Text #20
ID : 41
Format : PGS
Muxing mode : zlib
Codec ID : S_HDMV/PGS
Codec ID/Info : Picture based subtitle format used on BDs/HD-DVDs
Duration : 1 h 10 min
Bit rate : 307 b/s
Count of elements : 34
Stream size : 159 KiB (0%)
Title : Korean-FORCED-PGS
Language : Korean
Default : No
Forced : No

Text #21
ID : 42
Format : PGS
Muxing mode : zlib
Codec ID : S_HDMV/PGS
Codec ID/Info : Picture based subtitle format used on BDs/HD-DVDs
Duration : 1 h 7 min
Bit rate : 395 b/s
Count of elements : 20
Stream size : 195 KiB (0%)
Title : Spanish-FORCED-PGS
Language : Spanish
Default : No
Forced : No

Text #22
ID : 43
Format : PGS
Muxing mode : zlib
Codec ID : S_HDMV/PGS
Codec ID/Info : Picture based subtitle format used on BDs/HD-DVDs
Duration : 1 h 15 min
Bit rate : 802 b/s
Count of elements : 42
Stream size : 442 KiB (0%)
Title : Bulgarian-FORCED-PGS
Language : Bulgarian
Default : No
Forced : No

Text #23
ID : 44
Format : PGS
Muxing mode : zlib
Codec ID : S_HDMV/PGS
Codec ID/Info : Picture based subtitle format used on BDs/HD-DVDs
Duration : 46 min 13 s
Bit rate : 248 b/s
Count of elements : 10
Stream size : 84.3 KiB (0%)
Title : Czech-FORCED-PGS
Language : Czech
Default : No
Forced : No

Text #24
ID : 45
Format : PGS
Muxing mode : zlib
Codec ID : S_HDMV/PGS
Codec ID/Info : Picture based subtitle format used on BDs/HD-DVDs
Duration : 1 h 10 min
Bit rate : 350 b/s
Count of elements : 32
Stream size : 180 KiB (0%)
Title : Hindi-FORCED-PGS
Language : Hindi
Default : No
Forced : No

Text #25
ID : 46
Format : PGS
Muxing mode : zlib
Codec ID : S_HDMV/PGS
Codec ID/Info : Picture based subtitle format used on BDs/HD-DVDs
Duration : 1 h 7 min
Bit rate : 280 b/s
Count of elements : 16
Stream size : 138 KiB (0%)
Title : Hungarian-FORCED-PGS
Language : Hungarian
Default : No
Forced : No

Text #26
ID : 47
Format : PGS
Muxing mode : zlib
Codec ID : S_HDMV/PGS
Codec ID/Info : Picture based subtitle format used on BDs/HD-DVDs
Duration : 1 h 9 min
Bit rate : 561 b/s
Count of elements : 18
Stream size : 287 KiB (0%)
Title : Portuguese-FORCED-PGS
Language : Portuguese
Default : No
Forced : No

Text #27
ID : 48
Format : PGS
Muxing mode : zlib
Codec ID : S_HDMV/PGS
Codec ID/Info : Picture based subtitle format used on BDs/HD-DVDs
Duration : 1 h 15 min
Bit rate : 840 b/s
Count of elements : 38
Stream size : 463 KiB (0%)
Title : Romanian-FORCED-PGS
Language : Romanian
Default : No
Forced : No

Text #28
ID : 49
Format : PGS
Muxing mode : zlib
Codec ID : S_HDMV/PGS
Codec ID/Info : Picture based subtitle format used on BDs/HD-DVDs
Duration : 50 min 1 s
Bit rate : 586 b/s
Count of elements : 22
Stream size : 215 KiB (0%)
Title : Russian-FORCED-PGS
Language : Russian
Default : No
Forced : No

Text #29
ID : 50
Format : PGS
Muxing mode : zlib
Codec ID : S_HDMV/PGS
Codec ID/Info : Picture based subtitle format used on BDs/HD-DVDs
Duration : 1 h 8 min
Bit rate : 328 b/s
Count of elements : 10
Stream size : 165 KiB (0%)
Title : Slovak-FORCED-PGS
Language : Slovak
Default : No
Forced : No

Text #30
ID : 51
Format : PGS
Muxing mode : zlib
Codec ID : S_HDMV/PGS
Codec ID/Info : Picture based subtitle format used on BDs/HD-DVDs
Duration : 1 h 7 min
Bit rate : 412 b/s
Count of elements : 26
Stream size : 204 KiB (0%)
Title : Thai-FORCED-PGS
Language : Thai
Default : No
Forced : No

Text #31
ID : 52
Format : PGS
Muxing mode : zlib
Codec ID : S_HDMV/PGS
Codec ID/Info : Picture based subtitle format used on BDs/HD-DVDs
Duration : 1 h 15 min
Bit rate : 736 b/s
Count of elements : 32
Stream size : 405 KiB (0%)
Title : Turkish-FORCED-PGS
Language : Turkish
Default : No
Forced : No

Menu
00:00:00.000 : en:Chapter 01
00:06:55.623 : en:Chapter 02
00:15:36.352 : en:Chapter 03
00:24:06.111 : en:Chapter 04
00:30:59.774 : en:Chapter 05
00:40:45.609 : en:Chapter 06
00:49:56.743 : en:Chapter 07
00:59:49.252 : en:Chapter 08
01:09:22.449 : en:Chapter 09
01:16:59.656 : en:Chapter 10
01:23:20.495 : en:Chapter 11
01:30:55.032 : en:Chapter 12
01:35:48.701 : en:Chapter 13
movie BDRip Video
ID : 19
Format : HEVC
Format/Info : High Efficiency Video Coding
Format profile : Main 10@L5.1@High
HDR format : SMPTE ST 2086, HDR10 compatible
Codec ID : V_MPEGH/ISO/HEVC
Duration : 1 h 44 min
Bit rate : 23.5 Mb/s
Width : 3 840 pixels
Height : 1 610 pixels
Display aspect ratio : 2.40:1
Frame rate mode : Constant
Frame rate : 23.976 (24000/1001) FPS
Color space : YUV
Chroma subsampling : 4:2:0 (Type 2)
Bit depth : 10 bits
Bits/(Pixel*Frame) : 0.158
Stream size : 17.1 GiB (85%)
Writing library : x265 3.0_RC+44-a46ded2c1411:[Windows][GCC 6.3.0][64 bit] 10bit
Encoding settings : cpuid=1111039 / frame-threads=4 / numa-pools=20 / wpp / no-pmode / no-pme / no-psnr / no-ssim / log-level=2 / input-csp=1 / input-res=3840x1610 / interlace=0 / total-frames=150292 / level-idc=51 / high-tier=1 / uhd-bd=0 / ref=4 / no-allow-non-conformance / repeat-headers / annexb / aud / hrd / info / hash=0 / no-temporal-layers / no-open-gop / min-keyint=1 / keyint=24 / gop-lookahead=0 / bframes=4 / b-adapt=2 / b-pyramid / bframe-bias=0 / rc-lookahead=25 / lookahead-slices=4 / scenecut=40 / radl=0 / no-splice / no-intra-refresh / ctu=64 / min-cu-size=8 / rect / no-amp / max-tu-size=32 / tu-inter-depth=1 / tu-intra-depth=1 / limit-tu=0 / rdoq-level=2 / dynamic-rd=0.00 / no-ssim-rd / signhide / no-tskip / nr-intra=0 / nr-inter=0 / no-constrained-intra / no-strong-intra-smoothing / max-merge=3 / limit-refs=1 / limit-modes / me=3 / subme=3 / merange=57 / temporal-mvp / weightp / no-weightb / no-analyze-src-pics / deblock=-3:-3 / no-sao / no-sao-non-deblock / rd=4 / early-skip / rskip / no-fast-intra / no-tskip-fast / no-cu-lossless / b-intra / no-splitrd-skip / rdpenalty=0 / psy-rd=2.00 / psy-rdoq=1.00 / no-rd-refine / no-lossless / cbqpoffs=0 / crqpoffs=0 / rc=crf / crf=17.0 / qcomp=0.60 / qpstep=4 / stats-write=0 / stats-read=0 / vbv-maxrate=160000 / vbv-bufsize=160000 / vbv-init=0.9 / crf-max=0.0 / crf-min=0.0 / ipratio=1.40 / pbratio=1.30 / aq-mode=2 / aq-strength=1.00 / cutree / zone-count=0 / no-strict-cbr / qg-size=32 / no-rc-grain / qpmax=69 / qpmin=0 / no-const-vbv / sar=1 / overscan=0 / videoformat=5 / range=0 / colorprim=9 / transfer=16 / colormatrix=9 / chromaloc=1 / chromaloc-top=2 / chromaloc-bottom=2 / display-window=0 / master-display=G(13250,34500)B(7500,3000)R(34000,16000)WP(15635,16450)L(40000000,50)cll=200,89 / min-luma=0 / max-luma=1023 / log2-max-poc-lsb=8 / vui-timing-info / vui-hrd-info / slices=1 / no-opt-qp-pps / no-opt-ref-list-length-pps / no-multi-pass-opt-rps / scenecut-bias=0.05 / no-opt-cu-delta-qp / no-aq-motion / hdr / hdr-opt / no-dhdr10-opt / no-idr-recovery-sei / analysis-reuse-level=5 / scale-factor=0 / refine-intra=0 / refine-inter=0 / refine-mv=0 / refine-ctu-distortion=0 / no-limit-sao / ctu-info=0 / no-lowpass-dct / refine-analysis-type=0 / copy-pic=1 / max-ausize-factor=1.0 / no-dynamic-refine / no-single-sei / no-hevc-aq / no-svt / no-field / qp-adaptation-range=1.00
Language : English
Default : Yes
Forced : No
Color range : Limited
Color primaries : BT.2020
Transfer characteristics : PQ
Matrix coefficients : BT.2020 non-constant
Mastering display color primaries : Display P3
Mastering display luminance : min: 0.0050 cd/m2, max: 4000 cd/m2
Maximum Content Light Level : 200 cd/m2
Maximum Frame-Average Light Level : 89 cd/m2

Audio #1
ID : 1
Format : MLP FBA 16-ch
Format/Info : Meridian Lossless Packing FBA with 16-channel presentation
Commercial name : Dolby TrueHD with Dolby Atmos
Codec ID : A_TRUEHD
Duration : 1 h 44 min
Bit rate mode : Variable
Bit rate : 3 234 kb/s
Maximum bit rate : 6 081 kb/s
Channel(s) : 8 channels
Channel layout : L R C LFE Ls Rs Lb Rb
Sampling rate : 48.0 kHz
Frame rate : 1 200.000 FPS (40 SPF)
Compression mode : Lossless
Stream size : 2.36 GiB (12%)
Language : English
Default : Yes
Forced : No
Number of dynamic objects : 15
Bed channel count : 1 channel
Bed channel configuration : LFE

Audio #2
ID : 2
Format : AC-3
Format/Info : Audio Coding 3
Commercial name : Dolby Digital
Codec ID : A_AC3
Duration : 1 h 44 min
Bit rate mode : Constant
Bit rate : 640 kb/s
Channel(s) : 6 channels
Channel layout : L R C LFE Ls Rs
Sampling rate : 48.0 kHz
Frame rate : 31.250 FPS (1536 SPF)
Bit depth : 16 bits
Compression mode : Lossy
Stream size : 478 MiB (2%)
Language : English
Service kind : Complete Main
Default : No
Forced : No

Text #1
ID : 3
Format : PGS
Muxing mode : zlib
Codec ID : S_HDMV/PGS
Codec ID/Info : Picture based subtitle format used on BDs/HD-DVDs
Duration : 1 h 36 min
Bit rate : 38.5 kb/s
Count of elements : 3194
Stream size : 26.6 MiB (0%)
Title : English SDH
Language : English
Default : No
Forced : No

Text #2
ID : 4
Format : PGS
Muxing mode : zlib
Codec ID : S_HDMV/PGS
Codec ID/Info : Picture based subtitle format used on BDs/HD-DVDs
Duration : 1 h 42 min
Bit rate : 25.1 kb/s
Count of elements : 2684
Stream size : 18.4 MiB (0%)
Language : French
Default : No
Forced : No

Text #3
ID : 5
Format : PGS
Muxing mode : zlib
Codec ID : S_HDMV/PGS
Codec ID/Info : Picture based subtitle format used on BDs/HD-DVDs
Duration : 1 h 43 min
Bit rate : 26.1 kb/s
Count of elements : 2556
Stream size : 19.3 MiB (0%)
Language : Chinese
Default : No
Forced : No

Text #4
ID : 6
Format : PGS
Muxing mode : zlib
Codec ID : S_HDMV/PGS
Codec ID/Info : Picture based subtitle format used on BDs/HD-DVDs
Duration : 1 h 43 min
Bit rate : 26.5 kb/s
Count of elements : 2606
Stream size : 19.6 MiB (0%)
Language : Chinese
Default : No
Forced : No

Text #5
ID : 7
Format : PGS
Muxing mode : zlib
Codec ID : S_HDMV/PGS
Codec ID/Info : Picture based subtitle format used on BDs/HD-DVDs
Duration : 1 h 36 min
Bit rate : 19.3 kb/s
Count of elements : 2536
Stream size : 13.3 MiB (0%)
Language : Korean
Default : No
Forced : No

Text #6
ID : 8
Format : PGS
Muxing mode : zlib
Codec ID : S_HDMV/PGS
Codec ID/Info : Picture based subtitle format used on BDs/HD-DVDs
Duration : 1 h 42 min
Bit rate : 30.0 kb/s
Count of elements : 2594
Stream size : 22.0 MiB (0%)
Language : Spanish
Default : No
Forced : No

Text #7
ID : 9
Format : PGS
Muxing mode : zlib
Codec ID : S_HDMV/PGS
Codec ID/Info : Picture based subtitle format used on BDs/HD-DVDs
Duration : 1 h 43 min
Bit rate : 26.8 kb/s
Count of elements : 2606
Stream size : 19.8 MiB (0%)
Language : Bulgarian
Default : No
Forced : No

Text #8
ID : 10
Format : PGS
Muxing mode : zlib
Codec ID : S_HDMV/PGS
Codec ID/Info : Picture based subtitle format used on BDs/HD-DVDs
Duration : 1 h 43 min
Bit rate : 27.6 kb/s
Count of elements : 2582
Stream size : 20.4 MiB (0%)
Language : Croatian
Default : No
Forced : No

Text #9
ID : 11
Format : PGS
Muxing mode : zlib
Codec ID : S_HDMV/PGS
Codec ID/Info : Picture based subtitle format used on BDs/HD-DVDs
Duration : 1 h 43 min
Bit rate : 27.9 kb/s
Count of elements : 2586
Stream size : 20.6 MiB (0%)
Language : Czech
Default : No
Forced : No

Text #10
ID : 12
Format : PGS
Muxing mode : zlib
Codec ID : S_HDMV/PGS
Codec ID/Info : Picture based subtitle format used on BDs/HD-DVDs
Duration : 1 h 42 min
Bit rate : 26.3 kb/s
Count of elements : 2608
Stream size : 19.3 MiB (0%)
Language : Hungarian
Default : No
Forced : No

Text #11
ID : 13
Format : PGS
Muxing mode : zlib
Codec ID : S_HDMV/PGS
Codec ID/Info : Picture based subtitle format used on BDs/HD-DVDs
Duration : 1 h 43 min
Bit rate : 31.9 kb/s
Count of elements : 2558
Stream size : 23.6 MiB (0%)
Language : Portuguese
Default : No
Forced : No

Text #12
ID : 14
Format : PGS
Muxing mode : zlib
Codec ID : S_HDMV/PGS
Codec ID/Info : Picture based subtitle format used on BDs/HD-DVDs
Duration : 1 h 43 min
Bit rate : 28.2 kb/s
Count of elements : 2520
Stream size : 20.8 MiB (0%)
Language : Romanian
Default : No
Forced : No

Text #13
ID : 15
Format : PGS
Muxing mode : zlib
Codec ID : S_HDMV/PGS
Codec ID/Info : Picture based subtitle format used on BDs/HD-DVDs
Duration : 1 h 43 min
Bit rate : 27.8 kb/s
Count of elements : 2804
Stream size : 20.6 MiB (0%)
Language : Russian
Default : No
Forced : No

Text #14
ID : 16
Format : PGS
Muxing mode : zlib
Codec ID : S_HDMV/PGS
Codec ID/Info : Picture based subtitle format used on BDs/HD-DVDs
Duration : 1 h 43 min
Bit rate : 25.4 kb/s
Count of elements : 2216
Stream size : 18.8 MiB (0%)
Language : Slovenian
Default : No
Forced : No

Text #15
ID : 17
Format : PGS
Muxing mode : zlib
Codec ID : S_HDMV/PGS
Codec ID/Info : Picture based subtitle format used on BDs/HD-DVDs
Duration : 1 h 43 min
Bit rate : 28.4 kb/s
Count of elements : 2614
Stream size : 21.0 MiB (0%)
Language : Thai
Default : No
Forced : No

Text #16
ID : 18
Format : PGS
Muxing mode : zlib
Codec ID : S_HDMV/PGS
Codec ID/Info : Picture based subtitle format used on BDs/HD-DVDs
Duration : 1 h 36 min
Bit rate : 32.8 kb/s
Count of elements : 2600
Stream size : 22.6 MiB (0%)
Language : Turkish
Default : No
Forced : No

Menu
00:00:00.000 : :Chapter 01
00:06:55.624 : :Chapter 02
00:15:36.352 : :Chapter 03
00:24:06.111 : :Chapter 04
00:30:59.775 : :Chapter 05
00:40:45.610 : :Chapter 06
00:49:56.744 : :Chapter 07
00:59:49.336 : :Chapter 08
01:09:22.450 : :Chapter 09
01:16:59.657 : :Chapter 10
01:23:20.495 : :Chapter 11
01:30:55.033 : :Chapter 12
01:35:48.826 : :Chapter 13

Download

download 4k hdr movies download 4k hdr movies

Watch a movie trailer - Pokemon Detective Pikachu 4K 2019 Ultra HD 2160p
Comments and Feedback
Add your comment:
Your name:
Your E-Mail:
Code:
reload, if the code cannot be seen
Enter code: