Select movie Search movie Close search My Account

Alita Battle Angel 4K 2019 Ultra HD 2160p

Alita Battle Angel 4K 2019 Ultra HD 2160p
BDRemux / BDRip
Country: USA
Time: 2h 2min
IMDB: 7.4
Director: Robert Rodriguez
Actors: Rosa Salazar, Christoph Waltz, Jennifer Connelly, Mahershala Ali, Ed Skrein, Jackie Earle Haley, Keean Johnson, Jorge Lendeborg Jr., Lana Condor, Idara Victor, Jeff Fahey, Eiza Gonz?lez, Derek Mears, Leonard Wu, Racer Maximiliano Rodriguez-Avellan.

Story Movie

Alita Battle Angel 4K 2019 Ultra HD 2160p
Alita Battle Angel 4k material download A screen version of a classic Japanese manga about a cyborg girl who fights evil monsters. The plot will unfold in the XXVI century, 300 years after the Great War. The focus is on the story of Gali, also known as Alita (Rosa Salazar), whose remains are found in a dump Dr. Ido (Christoph Waltz) - a surgeon repairing cyborgs. An ido who rescues Gali, but it soon becomes clear that she has lost her memories, although she is still able to use cyborg combat techniques.

Review 4K Movie

Alita: Battle Angel. If you belong to those people who follow the cinema movement and generally navigate in the ocean of names, titles and amounts with the signature "Hollywood", then without me you know that talking about the film adaptation of the Gunnm manga has been going on for a very long time. Turuk Aylbibekovich Macto, who did not need to be introduced, (at the birth of James Cameron) was eager to adapt the work to the cinematic mood for more than one year. But time passed, the project jumped there and there, hung in mid-air, but still did not move off the ground.

2019 year. February. Gali, now Alita, crawls to international screens and triumphantly raises a hand ... his only remaining limb.

Alita experienced a lot along the way to the premiere, but the main thing that happened with the film was time. The combat angel of the sample of 2019 is a dinosaur of a bygone era, whose healthy mouth wants to bite off a piece of viewer's attention larger, only the jaw is already false, fragile. He also has paws. Lovely ones. And here either you like to go to museums to see "how cool it used to be," or squeamishly bypass retrograde cities.

Alita is a film made according to the patterns of the late nineties, but with modern tools and inherent scope in time. Some of the viewers blame the film for being morally behind the times, but ... why? Now, such paintings, made correctly, are no longer removed. Naive, slightly stupid, but touching and infinitely energetic. For completeness, the only thing missing was Doc Brown, who would accidentally fly into Iron City on his DeLorean in some scene, look around in surprise and fly back to the future.

Seriously analyzing the story of “Battle Angel” is an extremely thankless task. This is a story about a girl with no memory, but she knows kung fu; then the story will develop exactly the way you think. Alite will see colorful characters played by tough actors who are revealed just as much as they were used in the fantastic action films of the end of the last century (Hello, Korban)

The only thing you need to know about Alita is that despite her old-fashionedness (and possibly thanks to her), she is seriously carried away. The film is interesting to watch and it does not get bored. This is facilitated by stunning battle scenes and cool computer graphics. Every time the heroes start to fight, I want to squeal with delight, and this is worth a lot.

Alita: The Battle Angel does not set itself the task of surprising the viewer or showing him something innovative. On the contrary, Alitka recalls how fun and carefree it used to be without complex plots, multiphase franchises and hyper-deep characters of different shades of gray. The fighting angel looks at all this disgrace, spits and says: “Hasta la vista, motherfuckers”. Turn off tediousness, go to the cinema and have fun. Alita will give it to you.

Mediainfo

movie BDRemux Video #1
ID : 1
Format : HEVC
Format/Info : High Efficiency Video Coding
Format profile : Main 10@L5.1@High
HDR format : SMPTE ST 2094 App 4, Version 1, HDR10+ Profile A compatible
Codec ID : V_MPEGH/ISO/HEVC
Duration : 2 h 1 min
Bit rate : 41.4 Mb/s
Width : 3 840 pixels
Height : 2 160 pixels
Display aspect ratio : 16:9
Frame rate mode : Constant
Frame rate : 23.976 (24000/1001) FPS
Color space : YUV
Chroma subsampling : 4:2:0 (Type 2)
Bit depth : 10 bits
Bits/(Pixel*Frame) : 0.208
Stream size : 35.2 GiB (66%)
Title : Alita.Battle.Angel.2019.2160p.BluRay.REMUX.HEVC.DTS-HD.MA.TrueHD.7.1.Atmos
Language : English
Default : Yes
Forced : No
Color range : Limited
Color primaries : BT.2020
Transfer characteristics : PQ
Matrix coefficients : BT.2020 non-constant
Mastering display color primaries : Display P3
Mastering display luminance : min: 0.0001 cd/m2, max: 1000 cd/m2
Maximum Content Light Level : 233 cd/m2
Maximum Frame-Average Light Level : 63 cd/m2

Video #2
ID : 2
Format : HEVC
Format/Info : High Efficiency Video Coding
Format profile : Main 10@L5.1@High
HDR format : SMPTE ST 2086, HDR10 compatible
Codec ID : V_MPEGH/ISO/HEVC
Duration : 2 h 1 min
Bit rate : 2 133 kb/s
Width : 1 920 pixels
Height : 1 080 pixels
Display aspect ratio : 16:9
Frame rate mode : Constant
Frame rate : 23.976 (24000/1001) FPS
Color space : YUV
Chroma subsampling : 4:2:0 (Type 2)
Bit depth : 10 bits
Bits/(Pixel*Frame) : 0.043
Stream size : 1.82 GiB (3%)
Title : Alita.Battle.Angel.2019.2160p.BluRay.REMUX.HEVC.DTS-HD.MA.TrueHD.7.1.Atmos
Language : English
Default : No
Forced : No
Color range : Limited
Color primaries : BT.2020
Transfer characteristics : PQ
Matrix coefficients : BT.2020 non-constant
Mastering display color primaries : Display P3
Mastering display luminance : min: 0.0001 cd/m2, max: 1000 cd/m2

Audio #1
ID : 3
Format : MLP FBA 16-ch
Format/Info : Meridian Lossless Packing FBA with 16-channel presentation
Commercial name : Dolby TrueHD with Dolby Atmos
Codec ID : A_TRUEHD
Duration : 2 h 1 min
Bit rate mode : Variable
Bit rate : 5 013 kb/s
Channel(s) : 8 channels
Channel layout : L R C LFE Ls Rs Lb Rb
Sampling rate : 48.0 kHz
Frame rate : 1 200.000 FPS (40 SPF)
Compression mode : Lossless
Stream size : 4.30 GiB (8%)
Title : Alita.Battle.Angel.2019.2160p.BluRay.REMUX.HEVC.DTS-HD.MA.TrueHD.7.1.Atmos
Language : English
Default : Yes
Forced : No
Number of dynamic objects : 13
Bed channel count : 1 channel
Bed channel configuration : LFE

Audio #2
ID : 4
Format : DTS XLL
Format/Info : Digital Theater Systems
Commercial name : DTS-HD Master Audio
Codec ID : A_DTS
Duration : 2 h 1 min
Bit rate mode : Variable
Bit rate : 4 104 kb/s
Channel(s) : 8 channels
Channel layout : C L R LFE Lb Rb Lss Rss
Sampling rate : 48.0 kHz
Frame rate : 93.750 FPS (512 SPF)
Bit depth : 24 bits
Compression mode : Lossless
Stream size : 3.50 GiB (7%)
Title : Alita.Battle.Angel.2019.2160p.BluRay.REMUX.HEVC.DTS-HD.MA.TrueHD.7.1.Atmos
Language : English
Default : No
Forced : No

Audio #3
ID : 5
Format : AC-3
Format/Info : Audio Coding 3
Commercial name : Dolby Digital
Codec ID : A_AC3
Duration : 2 h 1 min
Bit rate mode : Constant
Bit rate : 640 kb/s
Channel(s) : 6 channels
Channel layout : L R C LFE Ls Rs
Sampling rate : 48.0 kHz
Frame rate : 31.250 FPS (1536 SPF)
Bit depth : 16 bits
Compression mode : Lossy
Stream size : 558 MiB (1%)
Title : Alita.Battle.Angel.2019.2160p.BluRay.REMUX.HEVC.DTS-HD.MA.TrueHD.7.1.Atmos
Language : English
Service kind : Complete Main
Default : No
Forced : No

Audio #4
ID : 6
Format : DTS XLL
Format/Info : Digital Theater Systems
Commercial name : DTS-HD Master Audio
Codec ID : A_DTS
Duration : 2 h 1 min
Bit rate mode : Variable
Bit rate : 2 058 kb/s
Channel(s) : 2 channels
Channel layout : L R
Sampling rate : 48.0 kHz
Frame rate : 93.750 FPS (512 SPF)
Bit depth : 24 bits
Compression mode : Lossless
Stream size : 1.75 GiB (3%)
Title : Alita.Battle.Angel.2019.2160p.BluRay.REMUX.HEVC.DTS-HD.MA.TrueHD.7.1.Atmos
Language : English
Default : No
Forced : No

Audio #5
ID : 7
Format : AC-3
Format/Info : Audio Coding 3
Commercial name : Dolby Digital
Codec ID : A_AC3
Duration : 2 h 1 min
Bit rate mode : Constant
Bit rate : 448 kb/s
Channel(s) : 6 channels
Channel layout : L R C LFE Ls Rs
Sampling rate : 48.0 kHz
Frame rate : 31.250 FPS (1536 SPF)
Bit depth : 16 bits
Compression mode : Lossy
Stream size : 391 MiB (1%)
Title : Alita.Battle.Angel.2019.2160p.BluRay.REMUX.HEVC.DTS-HD.MA.TrueHD.7.1.Atmos
Language : English
Service kind : Complete Main
Default : No
Forced : No

Audio #6
ID : 8
Format : AC-3
Format/Info : Audio Coding 3
Commercial name : Dolby Digital
Codec ID : A_AC3
Duration : 2 h 1 min
Bit rate mode : Constant
Bit rate : 448 kb/s
Channel(s) : 6 channels
Channel layout : L R C LFE Ls Rs
Sampling rate : 48.0 kHz
Frame rate : 31.250 FPS (1536 SPF)
Bit depth : 16 bits
Compression mode : Lossy
Stream size : 391 MiB (1%)
Title : Alita.Battle.Angel.2019.2160p.BluRay.REMUX.HEVC.DTS-HD.MA.TrueHD.7.1.Atmos
Language : Spanish
Service kind : Complete Main
Default : No
Forced : No

Audio #7
ID : 9
Format : DTS
Format/Info : Digital Theater Systems
Codec ID : A_DTS
Duration : 2 h 1 min
Bit rate mode : Constant
Bit rate : 768 kb/s
Channel(s) : 6 channels
Channel layout : C L R Ls Rs LFE
Sampling rate : 48.0 kHz
Frame rate : 93.750 FPS (512 SPF)
Bit depth : 24 bits
Compression mode : Lossy
Stream size : 670 MiB (1%)
Title : Alita.Battle.Angel.2019.2160p.BluRay.REMUX.HEVC.DTS-HD.MA.TrueHD.7.1.Atmos
Language : French
Default : No
Forced : No

Audio #8
ID : 10
Format : DTS
Format/Info : Digital Theater Systems
Codec ID : A_DTS
Duration : 2 h 1 min
Bit rate mode : Constant
Bit rate : 768 kb/s
Channel(s) : 6 channels
Channel layout : C L R Ls Rs LFE
Sampling rate : 48.0 kHz
Frame rate : 93.750 FPS (512 SPF)
Bit depth : 24 bits
Compression mode : Lossy
Stream size : 670 MiB (1%)
Title : Alita.Battle.Angel.2019.2160p.BluRay.REMUX.HEVC.DTS-HD.MA.TrueHD.7.1.Atmos
Language : Spanish
Default : No
Forced : No

Audio #9
ID : 11
Format : DTS
Format/Info : Digital Theater Systems
Codec ID : A_DTS
Duration : 2 h 1 min
Bit rate mode : Constant
Bit rate : 768 kb/s
Channel(s) : 6 channels
Channel layout : C L R Ls Rs LFE
Sampling rate : 48.0 kHz
Frame rate : 93.750 FPS (512 SPF)
Bit depth : 24 bits
Compression mode : Lossy
Stream size : 670 MiB (1%)
Title : Alita.Battle.Angel.2019.2160p.BluRay.REMUX.HEVC.DTS-HD.MA.TrueHD.7.1.Atmos
Language : German
Default : No
Forced : No

Audio #10
ID : 12
Format : DTS
Format/Info : Digital Theater Systems
Codec ID : A_DTS
Duration : 2 h 1 min
Bit rate mode : Constant
Bit rate : 768 kb/s
Channel(s) : 6 channels
Channel layout : C L R Ls Rs LFE
Sampling rate : 48.0 kHz
Frame rate : 93.750 FPS (512 SPF)
Bit depth : 24 bits
Compression mode : Lossy
Stream size : 670 MiB (1%)
Title : Alita.Battle.Angel.2019.2160p.BluRay.REMUX.HEVC.DTS-HD.MA.TrueHD.7.1.Atmos
Language : Italian
Default : No
Forced : No

Audio #11
ID : 13
Format : DTS
Format/Info : Digital Theater Systems
Codec ID : A_DTS
Duration : 2 h 1 min
Bit rate mode : Constant
Bit rate : 768 kb/s
Channel(s) : 6 channels
Channel layout : C L R Ls Rs LFE
Sampling rate : 48.0 kHz
Frame rate : 93.750 FPS (512 SPF)
Bit depth : 24 bits
Compression mode : Lossy
Stream size : 670 MiB (1%)
Title : Alita.Battle.Angel.2019.2160p.BluRay.REMUX.HEVC.DTS-HD.MA.TrueHD.7.1.Atmos
Language : Russian
Default : No
Forced : No

Audio #12
ID : 14
Format : AC-3
Format/Info : Audio Coding 3
Commercial name : Dolby Digital
Codec ID : A_AC3
Duration : 2 h 1 min
Bit rate mode : Constant
Bit rate : 448 kb/s
Channel(s) : 6 channels
Channel layout : L R C LFE Ls Rs
Sampling rate : 48.0 kHz
Frame rate : 31.250 FPS (1536 SPF)
Bit depth : 16 bits
Compression mode : Lossy
Stream size : 391 MiB (1%)
Title : Alita.Battle.Angel.2019.2160p.BluRay.REMUX.HEVC.DTS-HD.MA.TrueHD.7.1.Atmos
Language : Czech
Service kind : Complete Main
Default : No
Forced : No

Audio #13
ID : 15
Format : AC-3
Format/Info : Audio Coding 3
Commercial name : Dolby Digital
Codec ID : A_AC3
Duration : 2 h 1 min
Bit rate mode : Constant
Bit rate : 448 kb/s
Channel(s) : 6 channels
Channel layout : L R C LFE Ls Rs
Sampling rate : 48.0 kHz
Frame rate : 31.250 FPS (1536 SPF)
Bit depth : 16 bits
Compression mode : Lossy
Stream size : 391 MiB (1%)
Title : Alita.Battle.Angel.2019.2160p.BluRay.REMUX.HEVC.DTS-HD.MA.TrueHD.7.1.Atmos
Language : Hindi
Service kind : Complete Main
Default : No
Forced : No

Audio #14
ID : 16
Format : AC-3
Format/Info : Audio Coding 3
Commercial name : Dolby Digital
Codec ID : A_AC3
Duration : 2 h 1 min
Bit rate mode : Constant
Bit rate : 448 kb/s
Channel(s) : 6 channels
Channel layout : L R C LFE Ls Rs
Sampling rate : 48.0 kHz
Frame rate : 31.250 FPS (1536 SPF)
Bit depth : 16 bits
Compression mode : Lossy
Stream size : 391 MiB (1%)
Title : Alita.Battle.Angel.2019.2160p.BluRay.REMUX.HEVC.DTS-HD.MA.TrueHD.7.1.Atmos
Language : Hungarian
Service kind : Complete Main
Default : No
Forced : No

Audio #15
ID : 17
Format : AC-3
Format/Info : Audio Coding 3
Commercial name : Dolby Digital
Codec ID : A_AC3
Duration : 2 h 1 min
Bit rate mode : Constant
Bit rate : 448 kb/s
Channel(s) : 6 channels
Channel layout : L R C LFE Ls Rs
Sampling rate : 48.0 kHz
Frame rate : 31.250 FPS (1536 SPF)
Bit depth : 16 bits
Compression mode : Lossy
Stream size : 391 MiB (1%)
Title : Alita.Battle.Angel.2019.2160p.BluRay.REMUX.HEVC.DTS-HD.MA.TrueHD.7.1.Atmos
Language : Polish
Service kind : Complete Main
Default : No
Forced : No

Audio #16
ID : 18
Format : AC-3
Format/Info : Audio Coding 3
Commercial name : Dolby Digital
Codec ID : A_AC3
Duration : 2 h 1 min
Bit rate mode : Constant
Bit rate : 448 kb/s
Channel(s) : 6 channels
Channel layout : L R C LFE Ls Rs
Sampling rate : 48.0 kHz
Frame rate : 31.250 FPS (1536 SPF)
Bit depth : 16 bits
Compression mode : Lossy
Stream size : 391 MiB (1%)
Title : Alita.Battle.Angel.2019.2160p.BluRay.REMUX.HEVC.DTS-HD.MA.TrueHD.7.1.Atmos
Language : Thai
Service kind : Complete Main
Default : No
Forced : No

Text #1
ID : 19
Format : UTF-8
Codec ID : S_TEXT/UTF8
Codec ID/Info : UTF-8 Plain Text
Duration : 1 h 55 min
Bit rate : 41 b/s
Count of elements : 1347
Stream size : 34.8 KiB (0%)
Title : English-SRT
Language : English
Default : Yes
Forced : No

Text #2
ID : 20
Format : UTF-8
Codec ID : S_TEXT/UTF8
Codec ID/Info : UTF-8 Plain Text
Duration : 1 h 55 min
Bit rate : 46 b/s
Count of elements : 1588
Stream size : 39.2 KiB (0%)
Title : English-SDH-SRT
Language : English
Default : No
Forced : No

Text #3
ID : 21
Format : PGS
Muxing mode : zlib
Codec ID : S_HDMV/PGS
Codec ID/Info : Picture based subtitle format used on BDs/HD-DVDs
Duration : 1 h 58 min
Bit rate : 30.6 kb/s
Count of elements : 3180
Stream size : 26.0 MiB (0%)
Title : English-PGS
Language : English
Default : No
Forced : No

Text #4
ID : 22
Format : PGS
Muxing mode : zlib
Codec ID : S_HDMV/PGS
Codec ID/Info : Picture based subtitle format used on BDs/HD-DVDs
Duration : 2 h 1 min
Bit rate : 23.5 kb/s
Count of elements : 2476
Stream size : 20.4 MiB (0%)
Title : Spanish-PGS
Language : Spanish
Default : No
Forced : No

Text #5
ID : 23
Format : PGS
Muxing mode : zlib
Codec ID : S_HDMV/PGS
Codec ID/Info : Picture based subtitle format used on BDs/HD-DVDs
Duration : 2 h 1 min
Bit rate : 21.3 kb/s
Count of elements : 2608
Stream size : 18.5 MiB (0%)
Title : French-PGS
Language : French
Default : No
Forced : No

Text #6
ID : 24
Format : PGS
Muxing mode : zlib
Codec ID : S_HDMV/PGS
Codec ID/Info : Picture based subtitle format used on BDs/HD-DVDs
Duration : 25 min 5 s
Bit rate : 187 b/s
Count of elements : 4
Stream size : 34.4 KiB (0%)
Title : French-FORCED-PGS
Language : French
Default : No
Forced : No

Text #7
ID : 25
Format : PGS
Muxing mode : zlib
Codec ID : S_HDMV/PGS
Codec ID/Info : Picture based subtitle format used on BDs/HD-DVDs
Duration : 2 h 1 min
Bit rate : 23.2 kb/s
Count of elements : 2500
Stream size : 20.2 MiB (0%)
Title : Spanish-PGS
Language : Spanish
Default : No
Forced : No

Text #8
ID : 26
Format : PGS
Muxing mode : zlib
Codec ID : S_HDMV/PGS
Codec ID/Info : Picture based subtitle format used on BDs/HD-DVDs
Duration : 1 h 50 min
Bit rate : 83 b/s
Count of elements : 6
Stream size : 67.7 KiB (0%)
Title : Spanish-FORCED-PGS
Language : Spanish
Default : No
Forced : No

Text #9
ID : 27
Format : PGS
Muxing mode : zlib
Codec ID : S_HDMV/PGS
Codec ID/Info : Picture based subtitle format used on BDs/HD-DVDs
Duration : 2 h 1 min
Bit rate : 23.8 kb/s
Count of elements : 1906
Stream size : 20.6 MiB (0%)
Title : Danish-PGS
Language : Danish
Default : No
Forced : No

Text #10
ID : 28
Format : PGS
Muxing mode : zlib
Codec ID : S_HDMV/PGS
Codec ID/Info : Picture based subtitle format used on BDs/HD-DVDs
Duration : 2 h 1 min
Bit rate : 21.9 kb/s
Count of elements : 1956
Stream size : 19.0 MiB (0%)
Title : Dutch-PGS
Language : Dutch
Default : No
Forced : No

Text #11
ID : 29
Format : PGS
Muxing mode : zlib
Codec ID : S_HDMV/PGS
Codec ID/Info : Picture based subtitle format used on BDs/HD-DVDs
Duration : 2 h 1 min
Bit rate : 22.2 kb/s
Count of elements : 2510
Stream size : 19.3 MiB (0%)
Title : Finnish-PGS
Language : Finnish
Default : No
Forced : No

Text #12
ID : 30
Format : PGS
Muxing mode : zlib
Codec ID : S_HDMV/PGS
Codec ID/Info : Picture based subtitle format used on BDs/HD-DVDs
Duration : 2 h 1 min
Bit rate : 24.7 kb/s
Count of elements : 2488
Stream size : 21.5 MiB (0%)
Title : German-PGS
Language : German
Default : No
Forced : No

Text #13
ID : 31
Format : PGS
Muxing mode : zlib
Codec ID : S_HDMV/PGS
Codec ID/Info : Picture based subtitle format used on BDs/HD-DVDs
Duration : 2 h 1 min
Bit rate : 23.1 kb/s
Count of elements : 2522
Stream size : 20.0 MiB (0%)
Title : Italian-PGS
Language : Italian
Default : No
Forced : No

Text #14
ID : 32
Format : PGS
Muxing mode : zlib
Codec ID : S_HDMV/PGS
Codec ID/Info : Picture based subtitle format used on BDs/HD-DVDs
Duration : 1 h 50 min
Bit rate : 163 b/s
Count of elements : 10
Stream size : 133 KiB (0%)
Title : Italian-FORCED-PGS
Language : Italian
Default : No
Forced : No

Text #15
ID : 33
Format : PGS
Muxing mode : zlib
Codec ID : S_HDMV/PGS
Codec ID/Info : Picture based subtitle format used on BDs/HD-DVDs
Duration : 1 h 57 min
Bit rate : 24.5 kb/s
Count of elements : 2518
Stream size : 20.6 MiB (0%)
Title : Norwegian-PGS
Language : Norwegian
Default : No
Forced : No

Text #16
ID : 34
Format : PGS
Muxing mode : zlib
Codec ID : S_HDMV/PGS
Codec ID/Info : Picture based subtitle format used on BDs/HD-DVDs
Duration : 2 h 1 min
Bit rate : 22.8 kb/s
Count of elements : 2112
Stream size : 19.8 MiB (0%)
Title : Russian-PGS
Language : Russian
Default : No
Forced : No

Text #17
ID : 35
Format : PGS
Muxing mode : zlib
Codec ID : S_HDMV/PGS
Codec ID/Info : Picture based subtitle format used on BDs/HD-DVDs
Duration : 25 min 5 s
Bit rate : 313 b/s
Count of elements : 4
Stream size : 57.7 KiB (0%)
Title : Russian-FORCED-PGS
Language : Russian
Default : No
Forced : No

Text #18
ID : 36
Format : PGS
Muxing mode : zlib
Codec ID : S_HDMV/PGS
Codec ID/Info : Picture based subtitle format used on BDs/HD-DVDs
Duration : 2 h 1 min
Bit rate : 23.0 kb/s
Count of elements : 2522
Stream size : 20.0 MiB (0%)
Title : Swedish-PGS
Language : Swedish
Default : No
Forced : No

Text #19
ID : 37
Format : PGS
Muxing mode : zlib
Codec ID : S_HDMV/PGS
Codec ID/Info : Picture based subtitle format used on BDs/HD-DVDs
Duration : 2 h 1 min
Bit rate : 18.2 kb/s
Count of elements : 2524
Stream size : 15.8 MiB (0%)
Title : Chinese-PGS
Language : Chinese
Default : No
Forced : No

Text #20
ID : 38
Format : PGS
Muxing mode : zlib
Codec ID : S_HDMV/PGS
Codec ID/Info : Picture based subtitle format used on BDs/HD-DVDs
Duration : 2 h 1 min
Bit rate : 20.8 kb/s
Count of elements : 2518
Stream size : 18.0 MiB (0%)
Title : Czech-PGS
Language : Czech
Default : No
Forced : No

Text #21
ID : 39
Format : PGS
Muxing mode : zlib
Codec ID : S_HDMV/PGS
Codec ID/Info : Picture based subtitle format used on BDs/HD-DVDs
Duration : 1 h 20 min
Bit rate : 147 b/s
Count of elements : 6
Stream size : 87.0 KiB (0%)
Title : Czech-FORCED-PGS
Language : Czech
Default : No
Forced : No

Text #22
ID : 40
Format : PGS
Muxing mode : zlib
Codec ID : S_HDMV/PGS
Codec ID/Info : Picture based subtitle format used on BDs/HD-DVDs
Duration : 2 h 1 min
Bit rate : 26.3 kb/s
Count of elements : 2332
Stream size : 22.8 MiB (0%)
Title : Greek-PGS
Language : Greek
Default : No
Forced : No

Text #23
ID : 41
Format : PGS
Muxing mode : zlib
Codec ID : S_HDMV/PGS
Codec ID/Info : Picture based subtitle format used on BDs/HD-DVDs
Duration : 2 h 1 min
Bit rate : 22.0 kb/s
Count of elements : 2558
Stream size : 19.0 MiB (0%)
Title : Hindi-PGS
Language : Hindi
Default : No
Forced : No

Text #24
ID : 42
Format : PGS
Muxing mode : zlib
Codec ID : S_HDMV/PGS
Codec ID/Info : Picture based subtitle format used on BDs/HD-DVDs
Duration : 1 h 20 min
Bit rate : 58 b/s
Count of elements : 4
Stream size : 34.3 KiB (0%)
Title : Hindi-FORCED-PGS
Language : Hindi
Default : No
Forced : No

Text #25
ID : 43
Format : PGS
Muxing mode : zlib
Codec ID : S_HDMV/PGS
Codec ID/Info : Picture based subtitle format used on BDs/HD-DVDs
Duration : 2 h 1 min
Bit rate : 22.9 kb/s
Count of elements : 2512
Stream size : 19.9 MiB (0%)
Title : Hungarian-PGS
Language : Hungarian
Default : No
Forced : No

Text #26
ID : 44
Format : PGS
Muxing mode : zlib
Codec ID : S_HDMV/PGS
Codec ID/Info : Picture based subtitle format used on BDs/HD-DVDs
Duration : 1 h 50 min
Bit rate : 67 b/s
Count of elements : 4
Stream size : 55.1 KiB (0%)
Title : Hungarian-FORCED-PGS
Language : Hungarian
Default : No
Forced : No

Text #27
ID : 45
Format : PGS
Muxing mode : zlib
Codec ID : S_HDMV/PGS
Codec ID/Info : Picture based subtitle format used on BDs/HD-DVDs
Duration : 2 h 1 min
Bit rate : 15.4 kb/s
Count of elements : 2492
Stream size : 13.4 MiB (0%)
Title : Korean-PGS
Language : Korean
Default : No
Forced : No

Text #28
ID : 46
Format : PGS
Muxing mode : zlib
Codec ID : S_HDMV/PGS
Codec ID/Info : Picture based subtitle format used on BDs/HD-DVDs
Duration : 2 h 1 min
Bit rate : 18.6 kb/s
Count of elements : 2522
Stream size : 16.2 MiB (0%)
Title : Chinese-PGS
Language : Chinese
Default : No
Forced : No

Text #29
ID : 47
Format : PGS
Muxing mode : zlib
Codec ID : S_HDMV/PGS
Codec ID/Info : Picture based subtitle format used on BDs/HD-DVDs
Duration : 2 h 1 min
Bit rate : 21.0 kb/s
Count of elements : 2460
Stream size : 18.3 MiB (0%)
Title : Polish-PGS
Language : Polish
Default : No
Forced : No

Text #30
ID : 48
Format : PGS
Muxing mode : zlib
Codec ID : S_HDMV/PGS
Codec ID/Info : Picture based subtitle format used on BDs/HD-DVDs
Duration : 1 h 20 min
Bit rate : 295 b/s
Count of elements : 10
Stream size : 174 KiB (0%)
Title : Polish-FORCED-PGS
Language : Polish
Default : No
Forced : No

Text #31
ID : 49
Format : PGS
Muxing mode : zlib
Codec ID : S_HDMV/PGS
Codec ID/Info : Picture based subtitle format used on BDs/HD-DVDs
Duration : 2 h 1 min
Bit rate : 22.7 kb/s
Count of elements : 2510
Stream size : 19.7 MiB (0%)
Title : Romanian-PGS
Language : Romanian
Default : No
Forced : No

Text #32
ID : 50
Format : PGS
Muxing mode : zlib
Codec ID : S_HDMV/PGS
Codec ID/Info : Picture based subtitle format used on BDs/HD-DVDs
Duration : 2 h 1 min
Bit rate : 19.1 kb/s
Count of elements : 2522
Stream size : 16.6 MiB (0%)
Title : Thai-PGS
Language : Thai
Default : No
Forced : No

Text #33
ID : 51
Format : PGS
Muxing mode : zlib
Codec ID : S_HDMV/PGS
Codec ID/Info : Picture based subtitle format used on BDs/HD-DVDs
Duration : 1 h 20 min
Bit rate : 80 b/s
Count of elements : 4
Stream size : 47.3 KiB (0%)
Title : Thai-FORCED-PGS
Language : Thai
Default : No
Forced : No

Menu
00:00:00.000 : en:Chapter 01
00:03:28.708 : en:Chapter 02
00:07:51.679 : en:Chapter 03
00:10:07.648 : en:Chapter 04
00:13:06.702 : en:Chapter 05
00:15:06.488 : en:Chapter 06
00:18:04.541 : en:Chapter 07
00:22:58.585 : en:Chapter 08
00:25:35.325 : en:Chapter 09
00:31:40.899 : en:Chapter 10
00:33:29.215 : en:Chapter 11
00:36:32.607 : en:Chapter 12
00:38:30.808 : en:Chapter 13
00:42:05.481 : en:Chapter 14
00:45:57.963 : en:Chapter 15
00:48:31.199 : en:Chapter 16
00:52:57.382 : en:Chapter 17
00:55:14.227 : en:Chapter 18
01:00:39.594 : en:Chapter 19
01:02:56.564 : en:Chapter 20
01:05:16.621 : en:Chapter 21
01:10:50.496 : en:Chapter 22
01:13:37.204 : en:Chapter 23
01:16:34.965 : en:Chapter 24
01:18:51.935 : en:Chapter 25
01:22:48.088 : en:Chapter 26
01:24:55.340 : en:Chapter 27
01:28:25.216 : en:Chapter 28
01:33:18.551 : en:Chapter 29
01:36:08.554 : en:Chapter 30
01:41:54.358 : en:Chapter 31
01:45:23.442 : en:Chapter 32
01:48:16.490 : en:Chapter 33
01:51:43.613 : en:Chapter 34
01:54:43.668 : en:Chapter 35
01:56:51.504 : en:Chapter 36
movie BDRip Video
ID : 1
Format : HEVC
Format/Info : High Efficiency Video Coding
Format profile : Main 10@L5.1@High
HDR format : SMPTE ST 2086, HDR10 compatible
Codec ID : V_MPEGH/ISO/HEVC
Duration : 2 h 1 min
Bit rate : 9 705 kb/s
Width : 3 840 pixels
Height : 1 608 pixels
Display aspect ratio : 2.40:1
Frame rate mode : Constant
Frame rate : 23.976 (24000/1001) FPS
Color space : YUV
Chroma subsampling : 4:2:0 (Type 2)
Bit depth : 10 bits
Bits/(Pixel*Frame) : 0.066
Stream size : 8.27 GiB (62%)
Writing library : x265 3.1+4-4f6dde51a5db:[Windows][GCC 6.3.0][64 bit] 10bit
Encoding settings : cpuid=1176575 / frame-threads=5 / numa-pools=36 / wpp / no-pmode / no-pme / no-psnr / no-ssim / log-level=2 / input-csp=1 / input-res=3840x1608 / interlace=0 / total-frames=175440 / level-idc=51 / high-tier=1 / uhd-bd=0 / ref=4 / no-allow-non-conformance / repeat-headers / annexb / aud / hrd / info / hash=0 / no-temporal-layers / no-open-gop / min-keyint=1 / keyint=24 / gop-lookahead=0 / bframes=4 / b-adapt=2 / b-pyramid / bframe-bias=0 / rc-lookahead=25 / lookahead-slices=4 / scenecut=40 / radl=0 / no-splice / no-intra-refresh / ctu=64 / min-cu-size=8 / rect / no-amp / max-tu-size=32 / tu-inter-depth=1 / tu-intra-depth=1 / limit-tu=0 / rdoq-level=2 / dynamic-rd=0.00 / no-ssim-rd / signhide / no-tskip / nr-intra=0 / nr-inter=0 / no-constrained-intra / no-strong-intra-smoothing / max-merge=3 / limit-refs=3 / limit-modes / me=3 / subme=3 / merange=57 / temporal-mvp / weightp / no-weightb / no-analyze-src-pics / deblock=-3:-3 / no-sao / no-sao-non-deblock / rd=4 / no-early-skip / rskip / no-fast-intra / no-tskip-fast / no-cu-lossless / no-b-intra / no-splitrd-skip / rdpenalty=0 / psy-rd=2.00 / psy-rdoq=1.00 / no-rd-refine / no-lossless / cbqpoffs=0 / crqpoffs=0 / rc=crf / crf=17.0 / qcomp=0.60 / qpstep=4 / stats-write=0 / stats-read=0 / vbv-maxrate=160000 / vbv-bufsize=160000 / vbv-init=0.9 / crf-max=0.0 / crf-min=0.0 / ipratio=1.40 / pbratio=1.30 / aq-mode=2 / aq-strength=1.00 / cutree / zone-count=0 / no-strict-cbr / qg-size=32 / no-rc-grain / qpmax=69 / qpmin=0 / no-const-vbv / sar=1 / overscan=0 / videoformat=5 / range=0 / colorprim=9 / transfer=16 / colormatrix=9 / chromaloc=1 / chromaloc-top=2 / chromaloc-bottom=2 / display-window=0 / master-display=G(13250,34500)B(7500,3000)R(34000,16000)WP(15635,16450)L(10000000,1)cll=737,130 / min-luma=0 / max-luma=1023 / log2-max-poc-lsb=8 / vui-timing-info / vui-hrd-info / slices=1 / no-opt-qp-pps / no-opt-ref-list-length-pps / no-multi-pass-opt-rps / scenecut-bias=0.05 / no-opt-cu-delta-qp / no-aq-motion / hdr / hdr-opt / no-dhdr10-opt / no-idr-recovery-sei / analysis-reuse-level=5 / scale-factor=0 / refine-intra=0 / refine-inter=0 / refine-mv=0 / refine-ctu-distortion=0 / no-limit-sao / ctu-info=0 / no-lowpass-dct / refine-analysis-type=0 / copy-pic=1 / max-ausize-factor=1.0 / no-dynamic-refine / no-single-sei / no-hevc-aq / no-svt / no-field / qp-adaptation-range=1.00
Default : Yes
Forced : No
Color range : Limited
Color primaries : BT.2020
Transfer characteristics : PQ
Matrix coefficients : BT.2020 non-constant
Mastering display color primaries : Display P3
Mastering display luminance : min: 0.0001 cd/m2, max: 1000 cd/m2
Maximum Content Light Level : 737 cd/m2
Maximum Frame-Average Light Level : 130 cd/m2

Audio #1
ID : 2
Format : MLP FBA 16-ch
Format/Info : Meridian Lossless Packing FBA with 16-channel presentation
Commercial name : Dolby TrueHD with Dolby Atmos
Codec ID : A_TRUEHD
Duration : 2 h 1 min
Bit rate mode : Variable
Bit rate : 5 013 kb/s
Channel(s) : 8 channels
Channel layout : L R C LFE Ls Rs Lb Rb
Sampling rate : 48.0 kHz
Frame rate : 1 200.000 FPS (40 SPF)
Compression mode : Lossless
Stream size : 4.30 GiB (32%)
Language : English
Default : Yes
Forced : No
Number of dynamic objects : 13
Bed channel count : 1 channel
Bed channel configuration : LFE

Audio #2
ID : 3
Format : AC-3
Format/Info : Audio Coding 3
Commercial name : Dolby Digital
Codec ID : A_AC3
Duration : 2 h 1 min
Bit rate mode : Constant
Bit rate : 640 kb/s
Channel(s) : 6 channels
Channel layout : L R C LFE Ls Rs
Sampling rate : 48.0 kHz
Frame rate : 31.250 FPS (1536 SPF)
Bit depth : 16 bits
Compression mode : Lossy
Stream size : 558 MiB (4%)
Language : English
Service kind : Complete Main
Default : No
Forced : No

Text #1
ID : 4
Format : PGS
Muxing mode : zlib
Codec ID : S_HDMV/PGS
Codec ID/Info : Picture based subtitle format used on BDs/HD-DVDs
Duration : 1 h 58 min
Bit rate : 30.6 kb/s
Count of elements : 3180
Stream size : 26.0 MiB (0%)
Title : English SDH
Language : English
Default : No
Forced : No

Text #2
ID : 5
Format : PGS
Muxing mode : zlib
Codec ID : S_HDMV/PGS
Codec ID/Info : Picture based subtitle format used on BDs/HD-DVDs
Duration : 2 h 1 min
Bit rate : 23.5 kb/s
Count of elements : 2476
Stream size : 20.4 MiB (0%)
Title : Spannish 1
Language : Spanish
Default : No
Forced : No

Text #3
ID : 6
Format : PGS
Muxing mode : zlib
Codec ID : S_HDMV/PGS
Codec ID/Info : Picture based subtitle format used on BDs/HD-DVDs
Duration : 2 h 1 min
Bit rate : 21.3 kb/s
Count of elements : 2608
Stream size : 18.5 MiB (0%)
Title : French
Language : French
Default : No
Forced : No

Text #4
ID : 7
Format : PGS
Muxing mode : zlib
Codec ID : S_HDMV/PGS
Codec ID/Info : Picture based subtitle format used on BDs/HD-DVDs
Duration : 2 h 1 min
Bit rate : 23.2 kb/s
Count of elements : 2500
Stream size : 20.2 MiB (0%)
Title : Spanish 2
Language : Spanish
Default : No
Forced : No

Text #5
ID : 8
Format : PGS
Muxing mode : zlib
Codec ID : S_HDMV/PGS
Codec ID/Info : Picture based subtitle format used on BDs/HD-DVDs
Duration : 2 h 1 min
Bit rate : 23.8 kb/s
Count of elements : 1906
Stream size : 20.6 MiB (0%)
Title : Danish
Language : Danish
Default : No
Forced : No

Text #6
ID : 9
Format : PGS
Muxing mode : zlib
Codec ID : S_HDMV/PGS
Codec ID/Info : Picture based subtitle format used on BDs/HD-DVDs
Duration : 2 h 1 min
Bit rate : 21.9 kb/s
Count of elements : 1956
Stream size : 19.0 MiB (0%)
Title : Dutch
Language : Dutch
Default : No
Forced : No

Text #7
ID : 10
Format : PGS
Muxing mode : zlib
Codec ID : S_HDMV/PGS
Codec ID/Info : Picture based subtitle format used on BDs/HD-DVDs
Duration : 2 h 1 min
Bit rate : 22.2 kb/s
Count of elements : 2510
Stream size : 19.3 MiB (0%)
Title : Finnish
Language : Finnish
Default : No
Forced : No

Text #8
ID : 11
Format : PGS
Muxing mode : zlib
Codec ID : S_HDMV/PGS
Codec ID/Info : Picture based subtitle format used on BDs/HD-DVDs
Duration : 2 h 1 min
Bit rate : 24.7 kb/s
Count of elements : 2488
Stream size : 21.5 MiB (0%)
Title : German
Language : German
Default : No
Forced : No

Text #9
ID : 12
Format : PGS
Muxing mode : zlib
Codec ID : S_HDMV/PGS
Codec ID/Info : Picture based subtitle format used on BDs/HD-DVDs
Duration : 2 h 1 min
Bit rate : 23.1 kb/s
Count of elements : 2522
Stream size : 20.0 MiB (0%)
Title : Italian
Language : Italian
Default : No
Forced : No

Text #10
ID : 13
Format : PGS
Muxing mode : zlib
Codec ID : S_HDMV/PGS
Codec ID/Info : Picture based subtitle format used on BDs/HD-DVDs
Duration : 2 h 1 min
Bit rate : 15.3 kb/s
Count of elements : 2520
Stream size : 13.3 MiB (0%)
Title : Japanese 1
Language : Japanese
Default : No
Forced : No

Text #11
ID : 14
Format : PGS
Muxing mode : zlib
Codec ID : S_HDMV/PGS
Codec ID/Info : Picture based subtitle format used on BDs/HD-DVDs
Duration : 1 h 58 min
Bit rate : 85 b/s
Count of elements : 16
Stream size : 74.0 KiB (0%)
Title : Japanese 2
Language : Japanese
Default : No
Forced : No

Text #12
ID : 15
Format : PGS
Muxing mode : zlib
Codec ID : S_HDMV/PGS
Codec ID/Info : Picture based subtitle format used on BDs/HD-DVDs
Duration : 1 h 57 min
Bit rate : 24.5 kb/s
Count of elements : 2518
Stream size : 20.6 MiB (0%)
Title : Norwegian
Language : Norwegian
Default : No
Forced : No

Text #13
ID : 16
Format : PGS
Muxing mode : zlib
Codec ID : S_HDMV/PGS
Codec ID/Info : Picture based subtitle format used on BDs/HD-DVDs
Duration : 2 h 1 min
Bit rate : 22.8 kb/s
Count of elements : 2112
Stream size : 19.8 MiB (0%)
Title : Russian
Language : Russian
Default : No
Forced : No

Text #14
ID : 17
Format : PGS
Muxing mode : zlib
Codec ID : S_HDMV/PGS
Codec ID/Info : Picture based subtitle format used on BDs/HD-DVDs
Duration : 2 h 1 min
Bit rate : 23.0 kb/s
Count of elements : 2522
Stream size : 20.0 MiB (0%)
Title : Swedish
Language : Swedish
Default : No
Forced : No

Text #15
ID : 18
Format : PGS
Muxing mode : zlib
Codec ID : S_HDMV/PGS
Codec ID/Info : Picture based subtitle format used on BDs/HD-DVDs
Duration : 2 h 1 min
Bit rate : 18.2 kb/s
Count of elements : 2524
Stream size : 15.8 MiB (0%)
Title : Chinese 1
Language : Chinese
Default : No
Forced : No

Text #16
ID : 19
Format : PGS
Muxing mode : zlib
Codec ID : S_HDMV/PGS
Codec ID/Info : Picture based subtitle format used on BDs/HD-DVDs
Duration : 2 h 1 min
Bit rate : 20.8 kb/s
Count of elements : 2518
Stream size : 18.0 MiB (0%)
Title : Czech
Language : Czech
Default : No
Forced : No

Text #17
ID : 20
Format : PGS
Muxing mode : zlib
Codec ID : S_HDMV/PGS
Codec ID/Info : Picture based subtitle format used on BDs/HD-DVDs
Duration : 2 h 1 min
Bit rate : 26.3 kb/s
Count of elements : 2332
Stream size : 22.8 MiB (0%)
Title : Greek
Language : Greek
Default : No
Forced : No

Text #18
ID : 21
Format : PGS
Muxing mode : zlib
Codec ID : S_HDMV/PGS
Codec ID/Info : Picture based subtitle format used on BDs/HD-DVDs
Duration : 2 h 1 min
Bit rate : 22.0 kb/s
Count of elements : 2558
Stream size : 19.0 MiB (0%)
Title : Hindi
Language : Hindi
Default : No
Forced : No

Text #19
ID : 22
Format : PGS
Muxing mode : zlib
Codec ID : S_HDMV/PGS
Codec ID/Info : Picture based subtitle format used on BDs/HD-DVDs
Duration : 2 h 1 min
Bit rate : 22.9 kb/s
Count of elements : 2512
Stream size : 19.9 MiB (0%)
Title : Hungarian
Language : Hungarian
Default : No
Forced : No

Text #20
ID : 23
Format : PGS
Muxing mode : zlib
Codec ID : S_HDMV/PGS
Codec ID/Info : Picture based subtitle format used on BDs/HD-DVDs
Duration : 2 h 1 min
Bit rate : 15.4 kb/s
Count of elements : 2492
Stream size : 13.4 MiB (0%)
Title : Korean
Language : Korean
Default : No
Forced : No

Text #21
ID : 24
Format : PGS
Muxing mode : zlib
Codec ID : S_HDMV/PGS
Codec ID/Info : Picture based subtitle format used on BDs/HD-DVDs
Duration : 2 h 1 min
Bit rate : 18.6 kb/s
Count of elements : 2522
Stream size : 16.2 MiB (0%)
Title : Chinese 2
Language : Chinese
Default : No
Forced : No

Text #22
ID : 25
Format : PGS
Muxing mode : zlib
Codec ID : S_HDMV/PGS
Codec ID/Info : Picture based subtitle format used on BDs/HD-DVDs
Duration : 2 h 1 min
Bit rate : 21.0 kb/s
Count of elements : 2460
Stream size : 18.3 MiB (0%)
Title : Polish
Language : Polish
Default : No
Forced : No

Text #23
ID : 26
Format : PGS
Muxing mode : zlib
Codec ID : S_HDMV/PGS
Codec ID/Info : Picture based subtitle format used on BDs/HD-DVDs
Duration : 2 h 1 min
Bit rate : 22.7 kb/s
Count of elements : 2510
Stream size : 19.7 MiB (0%)
Title : Romanian
Language : Romanian
Default : No
Forced : No

Text #24
ID : 27
Format : PGS
Muxing mode : zlib
Codec ID : S_HDMV/PGS
Codec ID/Info : Picture based subtitle format used on BDs/HD-DVDs
Duration : 2 h 1 min
Bit rate : 19.1 kb/s
Count of elements : 2522
Stream size : 16.6 MiB (0%)
Title : Thai
Language : Thai
Default : No
Forced : No

Download

download 4k hdr movies download 4k hdr movies

Watch a movie trailer - Alita Battle Angel 4K 2019 Ultra HD 2160p
Comments and Feedback
Add your comment:
Your name:
Your E-Mail:
Code:
reload, if the code cannot be seen
Enter code: