Select movie Search movie Close search My Account

Godzilla King of the Monsters 4K 2019 Ultra HD 2160p

Godzilla King of the Monsters 4K 2019 Ultra HD 2160p
BDRemux / BDRip
Country: USA | Japan
Time: 2h 12min
IMDB: 6.3
Director: Michael Dougherty
Actors: Kyle Chandler, Vera Farmiga, Millie Bobby Brown, Ken Watanabe, Ziyi Zhang, Bradley Whitford, Sally Hawkins, Charles Dance, Thomas Middleditch, Aisha Hinds, O'Shea Jackson Jr., David Strathairn, Anthony Ramos, Elizabeth Faith Ludlow, Jonathan Howard.

Story Movie

Godzilla King of the Monsters 4K 2019 Ultra HD 2160p
The story tells of the heroic efforts of the Monarch cryptozoological agency to contain giant monsters. This time, Rodan and the ultimate kaiju, the three-headed monster King Hydor, oppose the mighty Godzilla. When these ancient superpredators, eventually turned into half-forgotten myths, rise again in order to meet in a battle, humanity has to step aside and try not to die. Godzilla King of the Monsters 2019 4k trailer download.

Review 4K Movie

The story is quite funny, but typical for this genre: the restless people of planet Earth did not live quietly, and he decided to “release the Kraken”, not expecting the Kraken to come out all at once and start to tear each other's mouth (burn wings, bite their neck, tear off their heads) . Eccentrics will run into. And there the fairy tale ends.

Films about Godzilla King of the Monsters 4K in Japan began to be filmed since Terry 1954 - and almost 30 films were shot. But in the west, this franchise began sluggishly - with rare shorts and cartoons. As they say, nothing portended an immersion in Japanese folklore until Roland Emmerich filmed in 1998 the story of how young and stupid Matthew Broderick with a bunch of friends saves New York from destruction by a giant reptile.

At the box office, Emmerich’s work paid off three of his budgets, but, according to rumors, the copyright holders - the Japanese, were terribly disliked, so the sequel did not work out. But they apparently departed over time - and in 2014 we were presented with the updated “pro-Western” “Godzilla King of the Monsters 4K” from Garrett Edwards, who received a good cash register and good criticism. But what’s strange is that no matter who you ask now, what kind of associations they have when they ask for a movie about Godzilla King of the Monsters UHD, everyone remembers exactly the picture of Emmerich, not Edwards. All the same, the Japanese do not understand us! Just kidding.

Which of the "Godzill" in style is closer to "King of monsters"? And immediately to both. On the one hand, there is a lyrical beginning, a full-length drama and the creators ’desire to“ humanize ”that which should not be human - this is just the first“ Godzilla King of the Monsters UHD ”. On the other hand, the destruction, which has no number, and the effectiveness of the brawls at the “party” of huge monsters clearly send us to Godzilla King of the Monsters 2160p number two, when special effects reached a qualitatively new level ... However, special effects are, of course, good, but, for example, dragon "Faces" could be better - proved by the Game of Thrones.

Speaking of her. I adore Charles Dance - this is the best Tywin Lannister you can imagine. Incredibly textured, charismatic and impressive actor, but in “The Monster King” he has a miserable supporting role - and whom! Ideological eco-activist. In it, he - next to partners, when he does not shoot and does not make tough decisions (oh, how does that suit him!), Looks just like a chocolate muffin among dried loaves. Not that the other actors are bad. Not at all: Vera Farmiga, Ken Watanabe, Zhang Ziyi, Sally Hawkins, textured Aisha Hinds - each of them is a godsend for any director. But here one gets the full impression that their director Michael Dougherty scored all of them on the principle of “why not? - I can afford!". They all have nothing special to play here, although, for example, Farmiga tried very hard - she squeezed everything she could from her scenario arch. It’s not clear why Zhang Ziyi was called — the significance of her character is zero. For beauty? She is lovely. But all this is somehow ... wasteful or something ...

Of course, I understand: the main thing in such films is visual, special effects, bang and wow. That's why he is a blockbuster about giant monsters. But who said that one cannot successfully connect one with the other? Proved by Peter Jackson, whose “King Kong” is very effective, but balanced and in every sense dramatic. It is curious, by the way, that both of these films are united by one actor - Kyle Chandler, who is one of the main ones in The King of Monsters, but is far less bright than in his episodic role in King Kong.

In general, I liked Godzilla 2 4K . The main thing when viewing is to turn off the logic and all knowledge of the laws of physics and biology. Otherwise, trouble)) I managed to concentrate on admiring Dans and on the emotions for a couple of cute monsters. But I love stories from the category of "the enemy of my enemy is my friend," even if this enemy is scary as hell - not in vain, for example, the best in the Alien franchise (except, of course, the second film from Cameron), I consider the broken-down critics of the “Alien vs. Predator” of 2004 ... It’s so humanly, probably, subconsciously wanting “friendship” with the great ones: they scare us, delight and fascinate us, but if we love, take us into allies, or at least endure, we have something to be proud of. The hint of continuing in the finale is more than obvious.

Mediainfo

movie BDRemux Video #1
ID : 1
Format : HEVC
Format/Info : High Efficiency Video Coding
Format profile : Main 10@L5.1@High
HDR format : SMPTE ST 2094 App 4, Version 1, HDR10+ Profile B compatible
Codec ID : V_MPEGH/ISO/HEVC
Duration : 2 h 11 min
Bit rate : 56.4 Mb/s
Width : 3 840 pixels
Height : 2 160 pixels
Display aspect ratio : 16:9
Frame rate mode : Constant
Frame rate : 23.976 (24000/1001) FPS
Color space : YUV
Chroma subsampling : 4:2:0 (Type 2)
Bit depth : 10 bits
Bits/(Pixel*Frame) : 0.284
Stream size : 51.9 GiB (82%)
Title : Godzilla.King.of.the.Monsters.2019.2160p.BluRay.REMUX.HEVC.DTS-HD.MA.TrueHD.7.1.Atmos
Language : English
Default : Yes
Forced : No
Color range : Limited
Color primaries : BT.2020
Transfer characteristics : PQ
Matrix coefficients : BT.2020 non-constant
Mastering display color primaries : Display P3
Mastering display luminance : min: 0.0050 cd/m2, max: 4000 cd/m2
Maximum Content Light Level : 1998 cd/m2
Maximum Frame-Average Light Level : 414 cd/m2

Video #2
ID : 2
Format : HEVC
Format/Info : High Efficiency Video Coding
Format profile : Main 10@L5.1@High
HDR format : SMPTE ST 2086, HDR10 compatible
Codec ID : V_MPEGH/ISO/HEVC
Duration : 2 h 11 min
Bit rate : 2 093 kb/s
Width : 1 920 pixels
Height : 1 080 pixels
Display aspect ratio : 16:9
Frame rate mode : Constant
Frame rate : 23.976 (24000/1001) FPS
Color space : YUV
Chroma subsampling : 4:2:0 (Type 2)
Bit depth : 10 bits
Bits/(Pixel*Frame) : 0.042
Stream size : 1.93 GiB (3%)
Title : Godzilla.King.of.the.Monsters.2019.2160p.BluRay.REMUX.HEVC.DTS-HD.MA.TrueHD.7.1.Atmos
Default : No
Forced : No
Color range : Limited
Color primaries : BT.2020
Transfer characteristics : PQ
Matrix coefficients : BT.2020 non-constant
Mastering display color primaries : Display P3
Mastering display luminance : min: 0.0050 cd/m2, max: 4000 cd/m2

Audio #1
ID : 3
Format : MLP FBA 16-ch
Format/Info : Meridian Lossless Packing FBA with 16-channel presentation
Commercial name : Dolby TrueHD with Dolby Atmos
Codec ID : A_TRUEHD
Duration : 2 h 11 min
Bit rate mode : Variable
Bit rate : 3 797 kb/s
Maximum bit rate : 6 537 kb/s
Channel(s) : 8 channels
Channel layout : L R C LFE Ls Rs Lb Rb
Sampling rate : 48.0 kHz
Frame rate : 1 200.000 FPS (40 SPF)
Compression mode : Lossless
Stream size : 3.49 GiB (6%)
Title : Godzilla.King.of.the.Monsters.2019.2160p.BluRay.REMUX.HEVC.DTS-HD.MA.TrueHD.7.1.Atmos
Language : English
Default : Yes
Forced : No
Number of dynamic objects : 15
Bed channel count : 1 channel
Bed channel configuration : LFE

Audio #2
ID : 4
Format : DTS XLL
Format/Info : Digital Theater Systems
Commercial name : DTS-HD Master Audio
Codec ID : A_DTS
Duration : 2 h 11 min
Bit rate mode : Variable
Bit rate : 3 901 kb/s
Channel(s) : 8 channels
Channel layout : C L R LFE Lb Rb Lss Rss
Sampling rate : 48.0 kHz
Frame rate : 93.750 FPS (512 SPF)
Bit depth : 24 bits
Compression mode : Lossless
Stream size : 3.59 GiB (6%)
Title : Godzilla.King.of.the.Monsters.2019.2160p.BluRay.REMUX.HEVC.DTS-HD.MA.TrueHD.7.1.Atmos
Language : English
Default : No
Forced : No

Audio #3
ID : 5
Format : AC-3
Format/Info : Audio Coding 3
Commercial name : Dolby Digital
Codec ID : A_AC3
Duration : 2 h 11 min
Bit rate mode : Constant
Bit rate : 448 kb/s
Channel(s) : 6 channels
Channel layout : L R C LFE Ls Rs
Sampling rate : 48.0 kHz
Frame rate : 31.250 FPS (1536 SPF)
Bit depth : 16 bits
Compression mode : Lossy
Stream size : 422 MiB (1%)
Title : Godzilla.King.of.the.Monsters.2019.2160p.BluRay.REMUX.HEVC.DTS-HD.MA.TrueHD.7.1.Atmos
Language : English
Service kind : Complete Main
Default : No
Forced : No

Audio #4
ID : 6
Format : AC-3
Format/Info : Audio Coding 3
Commercial name : Dolby Digital
Codec ID : A_AC3
Duration : 2 h 11 min
Bit rate mode : Constant
Bit rate : 448 kb/s
Channel(s) : 6 channels
Channel layout : L R C LFE Ls Rs
Sampling rate : 48.0 kHz
Frame rate : 31.250 FPS (1536 SPF)
Bit depth : 16 bits
Compression mode : Lossy
Stream size : 422 MiB (1%)
Title : Godzilla.King.of.the.Monsters.2019.2160p.BluRay.REMUX.HEVC.DTS-HD.MA.TrueHD.7.1.Atmos
Language : English
Service kind : Complete Main
Default : No
Forced : No

Audio #5
ID : 7
Format : AC-3
Format/Info : Audio Coding 3
Commercial name : Dolby Digital
Codec ID : A_AC3
Duration : 2 h 11 min
Bit rate mode : Constant
Bit rate : 448 kb/s
Channel(s) : 6 channels
Channel layout : L R C LFE Ls Rs
Sampling rate : 48.0 kHz
Frame rate : 31.250 FPS (1536 SPF)
Bit depth : 16 bits
Compression mode : Lossy
Stream size : 422 MiB (1%)
Title : Godzilla.King.of.the.Monsters.2019.2160p.BluRay.REMUX.HEVC.DTS-HD.MA.TrueHD.7.1.Atmos
Language : English
Service kind : Complete Main
Default : No
Forced : No

Audio #6
ID : 8
Format : AC-3
Format/Info : Audio Coding 3
Commercial name : Dolby Digital
Codec ID : A_AC3
Duration : 2 h 11 min
Bit rate mode : Constant
Bit rate : 448 kb/s
Channel(s) : 6 channels
Channel layout : L R C LFE Ls Rs
Sampling rate : 48.0 kHz
Frame rate : 31.250 FPS (1536 SPF)
Bit depth : 16 bits
Compression mode : Lossy
Stream size : 422 MiB (1%)
Title : Godzilla.King.of.the.Monsters.2019.2160p.BluRay.REMUX.HEVC.DTS-HD.MA.TrueHD.7.1.Atmos
Language : French
Service kind : Complete Main
Default : No
Forced : No

Audio #7
ID : 9
Format : AC-3
Format/Info : Audio Coding 3
Commercial name : Dolby Digital
Codec ID : A_AC3
Duration : 2 h 11 min
Bit rate mode : Constant
Bit rate : 448 kb/s
Channel(s) : 6 channels
Channel layout : L R C LFE Ls Rs
Sampling rate : 48.0 kHz
Frame rate : 31.250 FPS (1536 SPF)
Bit depth : 16 bits
Compression mode : Lossy
Stream size : 422 MiB (1%)
Title : Godzilla.King.of.the.Monsters.2019.2160p.BluRay.REMUX.HEVC.DTS-HD.MA.TrueHD.7.1.Atmos
Language : Spanish
Service kind : Complete Main
Default : No
Forced : No

Audio #8
ID : 10
Format : AC-3
Format/Info : Audio Coding 3
Commercial name : Dolby Digital
Codec ID : A_AC3
Duration : 2 h 11 min
Bit rate mode : Constant
Bit rate : 192 kb/s
Channel(s) : 2 channels
Channel layout : L R
Sampling rate : 48.0 kHz
Frame rate : 31.250 FPS (1536 SPF)
Bit depth : 16 bits
Compression mode : Lossy
Stream size : 181 MiB (0%)
Title : Godzilla.King.of.the.Monsters.2019.2160p.BluRay.REMUX.HEVC.DTS-HD.MA.TrueHD.7.1.Atmos
Language : English
Service kind : Complete Main
Default : No
Forced : No

Text #1
ID : 11
Format : UTF-8
Codec ID : S_TEXT/UTF8
Codec ID/Info : UTF-8 Plain Text
Duration : 2 h 10 min
Bit rate : 44 b/s
Count of elements : 1310
Stream size : 42.6 KiB (0%)
Title : English-SRT
Language : English
Default : Yes
Forced : No

Text #2
ID : 12
Format : PGS
Muxing mode : zlib
Codec ID : S_HDMV/PGS
Codec ID/Info : Picture based subtitle format used on BDs/HD-DVDs
Duration : 2 h 11 min
Bit rate : 33.0 kb/s
Count of elements : 3322
Stream size : 31.0 MiB (0%)
Title : English-PGS
Language : English
Default : No
Forced : No

Text #3
ID : 13
Format : PGS
Muxing mode : zlib
Codec ID : S_HDMV/PGS
Codec ID/Info : Picture based subtitle format used on BDs/HD-DVDs
Duration : 2 h 10 min
Bit rate : 23.9 kb/s
Count of elements : 2552
Stream size : 22.3 MiB (0%)
Title : French-PGS
Language : French
Default : No
Forced : No

Text #4
ID : 14
Format : PGS
Muxing mode : zlib
Codec ID : S_HDMV/PGS
Codec ID/Info : Picture based subtitle format used on BDs/HD-DVDs
Duration : 1 h 59 min
Bit rate : 851 b/s
Count of elements : 56
Stream size : 748 KiB (0%)
Title : French-PGS
Language : French
Default : No
Forced : No

Text #5
ID : 15
Format : PGS
Muxing mode : zlib
Codec ID : S_HDMV/PGS
Codec ID/Info : Picture based subtitle format used on BDs/HD-DVDs
Duration : 2 h 10 min
Bit rate : 25.4 kb/s
Count of elements : 2492
Stream size : 23.7 MiB (0%)
Title : Chinese-PGS
Language : Chinese
Default : No
Forced : No

Text #6
ID : 16
Format : PGS
Muxing mode : zlib
Codec ID : S_HDMV/PGS
Codec ID/Info : Picture based subtitle format used on BDs/HD-DVDs
Duration : 2 h 10 min
Bit rate : 23.5 kb/s
Count of elements : 2816
Stream size : 22.0 MiB (0%)
Title : Chinese-PGS
Language : Chinese
Default : No
Forced : No

Text #7
ID : 17
Format : PGS
Muxing mode : zlib
Codec ID : S_HDMV/PGS
Codec ID/Info : Picture based subtitle format used on BDs/HD-DVDs
Duration : 2 h 10 min
Bit rate : 15.5 kb/s
Count of elements : 2718
Stream size : 14.5 MiB (0%)
Title : Korean-PGS
Language : Korean
Default : No
Forced : No

Text #8
ID : 18
Format : PGS
Muxing mode : zlib
Codec ID : S_HDMV/PGS
Codec ID/Info : Picture based subtitle format used on BDs/HD-DVDs
Duration : 2 h 10 min
Bit rate : 28.0 kb/s
Count of elements : 2784
Stream size : 26.2 MiB (0%)
Title : Spanish-PGS
Language : Spanish
Default : No
Forced : No

Text #9
ID : 19
Format : PGS
Muxing mode : zlib
Codec ID : S_HDMV/PGS
Codec ID/Info : Picture based subtitle format used on BDs/HD-DVDs
Duration : 2 h 0 min
Bit rate : 1 642 b/s
Count of elements : 102
Stream size : 1.42 MiB (0%)
Title : Spanish-PGS
Language : Spanish
Default : No
Forced : No

Text #10
ID : 20
Format : PGS
Muxing mode : zlib
Codec ID : S_HDMV/PGS
Codec ID/Info : Picture based subtitle format used on BDs/HD-DVDs
Duration : 2 h 10 min
Bit rate : 15.5 kb/s
Count of elements : 2746
Stream size : 14.5 MiB (0%)
Title : Arabic-PGS
Language : Arabic
Default : No
Forced : No

Text #11
ID : 21
Format : PGS
Muxing mode : zlib
Codec ID : S_HDMV/PGS
Codec ID/Info : Picture based subtitle format used on BDs/HD-DVDs
Duration : 2 h 5 min
Bit rate : 557 b/s
Count of elements : 36
Stream size : 512 KiB (0%)
Title : French-FORCED-PGS
Language : French
Default : No
Forced : No

Menu
00:00:00.000 : en:Chapter 01
00:10:53.694 : en:Chapter 02
00:18:06.585 : en:Chapter 03
00:30:27.325 : en:Chapter 04
00:45:18.632 : en:Chapter 05
00:54:10.830 : en:Chapter 06
01:05:41.646 : en:Chapter 07
01:09:31.292 : en:Chapter 08
01:19:31.308 : en:Chapter 09
01:30:06.067 : en:Chapter 10
01:38:36.785 : en:Chapter 11
01:49:58.508 : en:Chapter 12
01:59:28.536 : en:Chapter 13
movie BDRip Video
ID : 1
Format : HEVC
Format/Info : High Efficiency Video Coding
Format profile : Main 10@L5.1@High
HDR format : SMPTE ST 2086, HDR10 compatible
Codec ID : V_MPEGH/ISO/HEVC
Duration : 2 h 11 min
Bit rate : 15.7 Mb/s
Width : 3 840 pixels
Height : 1 600 pixels
Display aspect ratio : 2.40:1
Frame rate mode : Constant
Frame rate : 23.976 (24000/1001) FPS
Color space : YUV
Chroma subsampling : 4:2:0 (Type 2)
Bit depth : 10 bits
Bits/(Pixel*Frame) : 0.106
Stream size : 14.4 GiB (77%)
Writing library : x265 3.1+11-de920e0a3183:[Windows][GCC 6.3.0][64 bit] 10bit
Encoding settings : cpuid=1176575 / frame-threads=5 / numa-pools=36 / wpp / no-pmode / no-pme / no-psnr / no-ssim / log-level=2 / input-csp=1 / input-res=3840x1600 / interlace=0 / total-frames=189485 / level-idc=51 / high-tier=1 / uhd-bd=0 / ref=4 / no-allow-non-conformance / repeat-headers / annexb / aud / hrd / info / hash=0 / no-temporal-layers / no-open-gop / min-keyint=1 / keyint=24 / gop-lookahead=0 / bframes=4 / b-adapt=2 / b-pyramid / bframe-bias=0 / rc-lookahead=25 / lookahead-slices=4 / scenecut=40 / radl=0 / no-splice / no-intra-refresh / ctu=64 / min-cu-size=8 / rect / no-amp / max-tu-size=32 / tu-inter-depth=1 / tu-intra-depth=1 / limit-tu=0 / rdoq-level=2 / dynamic-rd=0.00 / no-ssim-rd / signhide / no-tskip / nr-intra=0 / nr-inter=0 / no-constrained-intra / no-strong-intra-smoothing / max-merge=3 / limit-refs=3 / limit-modes / me=3 / subme=3 / merange=57 / temporal-mvp / no-hme / weightp / no-weightb / no-analyze-src-pics / deblock=-3:-3 / no-sao / no-sao-non-deblock / rd=4 / no-early-skip / rskip / no-fast-intra / no-tskip-fast / no-cu-lossless / no-b-intra / no-splitrd-skip / rdpenalty=0 / psy-rd=2.00 / psy-rdoq=1.00 / no-rd-refine / no-lossless / cbqpoffs=0 / crqpoffs=0 / rc=crf / crf=17.0 / qcomp=0.60 / qpstep=4 / stats-write=0 / stats-read=0 / vbv-maxrate=160000 / vbv-bufsize=160000 / vbv-init=0.9 / crf-max=0.0 / crf-min=0.0 / ipratio=1.40 / pbratio=1.30 / aq-mode=2 / aq-strength=1.00 / cutree / zone-count=0 / no-strict-cbr / qg-size=32 / no-rc-grain / qpmax=69 / qpmin=0 / no-const-vbv / sar=1 / overscan=0 / videoformat=5 / range=0 / colorprim=9 / transfer=16 / colormatrix=9 / chromaloc=1 / chromaloc-top=2 / chromaloc-bottom=2 / display-window=0 / master-display=G(13250,34500)B(7500,3000)R(34000,16000)WP(15635,16450)L(40000000,50)cll=1998,414 / min-luma=0 / max-luma=1023 / log2-max-poc-lsb=8 / vui-timing-info / vui-hrd-info / slices=1 / no-opt-qp-pps / no-opt-ref-list-length-pps / no-multi-pass-opt-rps / scenecut-bias=0.05 / no-opt-cu-delta-qp / no-aq-motion / hdr / hdr-opt / no-dhdr10-opt / no-idr-recovery-sei / analysis-reuse-level=5 / scale-factor=0 / refine-intra=0 / refine-inter=0 / refine-mv=0 / refine-ctu-distortion=0 / no-limit-sao / ctu-info=0 / no-lowpass-dct / refine-analysis-type=0 / copy-pic=1 / max-ausize-factor=1.0 / no-dynamic-refine / no-single-sei / no-hevc-aq / no-svt / no-field / qp-adaptation-range=1.00
Default : Yes
Forced : No
Color range : Limited
Color primaries : BT.2020
Transfer characteristics : PQ
Matrix coefficients : BT.2020 non-constant
Mastering display color primaries : Display P3
Mastering display luminance : min: 0.0050 cd/m2, max: 4000 cd/m2
Maximum Content Light Level : 1998 cd/m2
Maximum Frame-Average Light Level : 414 cd/m2

Audio #1
ID : 2
Format : MLP FBA 16-ch
Format/Info : Meridian Lossless Packing FBA with 16-channel presentation
Commercial name : Dolby TrueHD with Dolby Atmos
Codec ID : A_TRUEHD
Duration : 2 h 11 min
Bit rate mode : Variable
Bit rate : 3 797 kb/s
Maximum bit rate : 6 537 kb/s
Channel(s) : 8 channels
Channel layout : L R C LFE Ls Rs Lb Rb
Sampling rate : 48.0 kHz
Frame rate : 1 200.000 FPS (40 SPF)
Compression mode : Lossless
Stream size : 3.49 GiB (19%)
Language : English
Default : Yes
Forced : No
Number of dynamic objects : 15
Bed channel count : 1 channel
Bed channel configuration : LFE

Audio #2
ID : 3
Format : AC-3
Format/Info : Audio Coding 3
Commercial name : Dolby Digital
Codec ID : A_AC3
Duration : 2 h 11 min
Bit rate mode : Constant
Bit rate : 448 kb/s
Channel(s) : 6 channels
Channel layout : L R C LFE Ls Rs
Sampling rate : 48.0 kHz
Frame rate : 31.250 FPS (1536 SPF)
Bit depth : 16 bits
Compression mode : Lossy
Stream size : 422 MiB (2%)
Language : English
Service kind : Complete Main
Default : No
Forced : No

Audio #3
ID : 4
Format : AC-3
Format/Info : Audio Coding 3
Commercial name : Dolby Digital
Codec ID : A_AC3
Duration : 2 h 11 min
Bit rate mode : Constant
Bit rate : 192 kb/s
Channel(s) : 2 channels
Channel layout : L R
Sampling rate : 48.0 kHz
Frame rate : 31.250 FPS (1536 SPF)
Bit depth : 16 bits
Compression mode : Lossy
Stream size : 181 MiB (1%)
Language : English
Service kind : Complete Main
Default : No
Forced : No

Text #1
ID : 5
Format : PGS
Muxing mode : zlib
Codec ID : S_HDMV/PGS
Codec ID/Info : Picture based subtitle format used on BDs/HD-DVDs
Duration : 2 h 11 min
Bit rate : 33.0 kb/s
Count of elements : 3322
Stream size : 31.0 MiB (0%)
Title : English SDH
Language : English
Default : No
Forced : No

Text #2
ID : 6
Format : PGS
Muxing mode : zlib
Codec ID : S_HDMV/PGS
Codec ID/Info : Picture based subtitle format used on BDs/HD-DVDs
Duration : 2 h 10 min
Bit rate : 23.9 kb/s
Count of elements : 2552
Stream size : 22.3 MiB (0%)
Title : French 1
Language : French
Default : No
Forced : No

Text #3
ID : 7
Format : PGS
Muxing mode : zlib
Codec ID : S_HDMV/PGS
Codec ID/Info : Picture based subtitle format used on BDs/HD-DVDs
Duration : 2 h 10 min
Bit rate : 25.4 kb/s
Count of elements : 2492
Stream size : 23.7 MiB (0%)
Title : Chinese 1
Language : Chinese
Default : No
Forced : No

Text #4
ID : 8
Format : PGS
Muxing mode : zlib
Codec ID : S_HDMV/PGS
Codec ID/Info : Picture based subtitle format used on BDs/HD-DVDs
Duration : 2 h 10 min
Bit rate : 23.5 kb/s
Count of elements : 2816
Stream size : 22.0 MiB (0%)
Title : Chinese 2
Language : Chinese
Default : No
Forced : No

Text #5
ID : 9
Format : PGS
Muxing mode : zlib
Codec ID : S_HDMV/PGS
Codec ID/Info : Picture based subtitle format used on BDs/HD-DVDs
Duration : 2 h 10 min
Bit rate : 15.5 kb/s
Count of elements : 2718
Stream size : 14.5 MiB (0%)
Title : Korean
Language : Korean
Default : No
Forced : No

Text #6
ID : 10
Format : PGS
Muxing mode : zlib
Codec ID : S_HDMV/PGS
Codec ID/Info : Picture based subtitle format used on BDs/HD-DVDs
Duration : 2 h 10 min
Bit rate : 28.0 kb/s
Count of elements : 2784
Stream size : 26.2 MiB (0%)
Title : Spanish
Language : Spanish
Default : No
Forced : No

Text #7
ID : 11
Format : PGS
Muxing mode : zlib
Codec ID : S_HDMV/PGS
Codec ID/Info : Picture based subtitle format used on BDs/HD-DVDs
Duration : 2 h 10 min
Bit rate : 15.5 kb/s
Count of elements : 2746
Stream size : 14.5 MiB (0%)
Title : Arabic
Language : Arabic
Default : No
Forced : No

Text #8
ID : 12
Format : PGS
Muxing mode : zlib
Codec ID : S_HDMV/PGS
Codec ID/Info : Picture based subtitle format used on BDs/HD-DVDs
Duration : 2 h 5 min
Bit rate : 557 b/s
Count of elements : 36
Stream size : 512 KiB (0%)
Title : French 2
Language : French
Default : No
Forced : No

Download

download 4k hdr movies download 4k hdr movies

Watch a movie trailer - Godzilla King of the Monsters 4K 2019 Ultra HD 2160p
Comments and Feedback
  1. - 0 +
    Raymundo  пишет:
    Yesterday, 09:02
    It’s perfect time to make some plans for the future and it is time to be happy. I’ve read this post and if I could I desire to suggest you some interesting things or suggestions. Perhaps you could write next articles referring to this article. I wish to read even more things about it! Saved as a favorite, I like your site! Way cool! Some extremely valid points! I appreciate you penning this article and also the rest of the site is also really good. http://marketing.com
Add your comment:
Your name:
Your E-Mail:
Code:
reload, if the code cannot be seen
Enter code: