Select movie Search movie Close search My Account

Justice League Dark 4K 2017 Ultra HD 2160p

Justice League Dark 4K 2017 Ultra HD 2160p
BDRemux / BDRip
Country: USA
Time: 1h 15min
IMDB: 7.1
Director: Jay Oliva
Actors: ason O'Mara, Camilla Luddington, Rosario Dawson, Matt Ryan, Jerry O'Connell, Jeremy Davies, Alfred Molina, Enrico Colantoni, Nicholas Turturro, Fred Tatasciore, Roger Cross, Green Lantern, Jeffrey Vincent Parise, JB Blanc, Ray Chase, Brian T. Delaney

Story Movie

Justice League Dark 4K 2017 Ultra HD 2160p

Justice League Dark 4K - A cartoon meets us with glitches in various people in different parts of the USA, all their hallucinogenic adventures end in failure, many victims and so on. Justice League is not sickly so annoying, and they suspect this is magic (that's horror). Our favorite psycho in costume - Batman, begins his own investigation. Justice League Dark 4K uhd content download He finds John Constantine, Sattan and another bunch of various magical heroes of varying degrees of fame. The beginning is already intriguing, isn't it?

Review 4K Movie

Dark Universe / Justice League Dark 4k - the most unusual and at the same time straightforward animated project on the other side of the hits Batman: The Attack on Arkham and Batman: A Killing Joke.

The first plan involved in the local plot: John Constantine (Matt Ryan), Zatanna (Camilla Laddington), demon Etrigan (Ray Chase), Swamp Thing (Roger R. Cross), Deadman (Nicholas Turturro) and Batman himself (Jason O'Mara ). Superman (Jerry O’Connell), Wonder Woman (Rosario Dawson) and the rest are present in minor roles here ...

If you have seen films like: Avengers, X-Men: Apocalypse or the same suicide squad, you can easily predict the concept of the cartoon. The fact is that the command, heroic kinokomiksov, can be traced the same formula, driven by colorful characters, with characteristic jokes or situations that better reveal the characters.

The story, the first half is very cool imbued with a mysterious atmosphere, where the detective part looks great and felt. Mysticism, demons, witchcraft and magical artifacts soar in the air. Toward the middle, the pace accelerates and turns into a spectacular riot and massacre to destroy otherworldly forces.

Matt Ryan, Camilla Luddington, Rosario Dawson and Jerry O'Connell, had experience in dubbing video games: Ryan - Edward Kenway (Assassin's Creed IV: Black Flag), Luddington - Lara Croft (Tomb Raider 2013) - Lily Drol (Syndicate 2012), O'Connell - Shazam (Infinite Crisis).

The declared rating of R, rather, for a tick - there is absolutely nothing interesting in it. Even Batman: The attack on Arkham looked in some places tougher and more on the topic, although he had a rating confusion, like R and PG-13 at the same time.

Justice League Dark uhd content download, a clear example of how you can recreate magical duels and illusory special effects in an impending full-blown film. Here it is done simply at the highest level. Pleases and competent team interaction, in which Batman, the most not the main character, attention is paid more to Constantine and Zatanna. Humor is also not bad. The locations are dark and authentic. The scenario as a whole is logical, with no new approach, in a different form, it is not easy to imagine. Drawing in DC style, nothing fundamentally new. Music (by composer Robert J. Kral) playing against the backdrop of gorgeous, it is worth listening to separately. The action, well, is diverse, but it stands out, only due to the magician characters.

Mediainfo

movie BDRemux Video
ID : 1
Format : HEVC
Format/Info : High Efficiency Video Coding
Commercial name : HDR10
Format profile : Main 10@L5.1@High
Codec ID : V_MPEGH/ISO/HEVC
Duration : 1 h 15 min
Bit rate : 59.9 Mb/s
Width : 3 840 pixels
Height : 2 160 pixels
Display aspect ratio : 16:9
Frame rate mode : Constant
Frame rate : 23.976 (24000/1001) FPS
Color space : YUV
Chroma subsampling : 4:2:0 (Type 2)
Bit depth : 10 bits
Bits/(Pixel*Frame) : 0.301
Stream size : 31.8 GiB (94%)
Title : Justice.League.Dark.2017.2160p.BluRay.REMUX.HEVC.DTS-HD.MA.5.1
Writing library : ATEME Titan File 3.8.16 (4.8.16.0)
Default : Yes
Forced : No
Color range : Limited
Color primaries : BT.2020
Transfer characteristics : PQ
Matrix coefficients : BT.2020 non-constant
Mastering display color primaries : Display P3
Mastering display luminance : min: 0.0050 cd/m2, max: 4000 cd/m2
Maximum Content Light Level : 1150 cd/m2
Maximum Frame-Average Light Level : 478 cd/m2

Audio #1
ID : 2
Format : DTS XLL
Format/Info : Digital Theater Systems
Commercial name : DTS-HD Master Audio
Codec ID : A_DTS
Duration : 1 h 15 min
Bit rate mode : Variable
Bit rate : 2 617 kb/s
Channel(s) : 6 channels
Channel layout : C L R Ls Rs LFE
Sampling rate : 48.0 kHz
Frame rate : 93.750 FPS (512 SPF)
Bit depth : 24 bits
Compression mode : Lossless
Stream size : 1.39 GiB (4%)
Title : Justice.League.Dark.2017.2160p.BluRay.REMUX.HEVC.DTS-HD.MA.5.1
Language : English
Default : Yes
Forced : No

Audio #2
ID : 3
Format : AC-3
Format/Info : Audio Coding 3
Commercial name : Dolby Digital
Codec ID : A_AC3
Duration : 1 h 15 min
Bit rate mode : Constant
Bit rate : 640 kb/s
Channel(s) : 6 channels
Channel layout : L R C LFE Ls Rs
Sampling rate : 48.0 kHz
Frame rate : 31.250 FPS (1536 SPF)
Bit depth : 16 bits
Compression mode : Lossy
Stream size : 347 MiB (1%)
Title : Justice.League.Dark.2017.2160p.BluRay.REMUX.HEVC.DTS-HD.MA.5.1
Language : French
Service kind : Complete Main
Default : No
Forced : No

Audio #3
ID : 4
Format : AC-3
Format/Info : Audio Coding 3
Commercial name : Dolby Digital
Codec ID : A_AC3
Duration : 1 h 15 min
Bit rate mode : Constant
Bit rate : 640 kb/s
Channel(s) : 6 channels
Channel layout : L R C LFE Ls Rs
Sampling rate : 48.0 kHz
Frame rate : 31.250 FPS (1536 SPF)
Bit depth : 16 bits
Compression mode : Lossy
Stream size : 347 MiB (1%)
Title : Justice.League.Dark.2017.2160p.BluRay.REMUX.HEVC.DTS-HD.MA.5.1
Language : Spanish
Service kind : Complete Main
Default : No
Forced : No

Text #1
ID : 5
Format : PGS
Muxing mode : zlib
Codec ID : S_HDMV/PGS
Codec ID/Info : Picture based subtitle format used on BDs/HD-DVDs
Duration : 1 h 15 min
Bit rate : 32.0 kb/s
Count of elements : 1844
Stream size : 17.3 MiB (0%)
Title : English-PGS
Language : English
Default : Yes
Forced : No

Text #2
ID : 6
Format : PGS
Muxing mode : zlib
Codec ID : S_HDMV/PGS
Codec ID/Info : Picture based subtitle format used on BDs/HD-DVDs
Duration : 1 h 15 min
Bit rate : 26.1 kb/s
Count of elements : 1460
Stream size : 14.1 MiB (0%)
Title : French-PGS
Language : French
Default : No
Forced : No

Text #3
ID : 7
Format : PGS
Muxing mode : zlib
Codec ID : S_HDMV/PGS
Codec ID/Info : Picture based subtitle format used on BDs/HD-DVDs
Duration : 1 h 15 min
Bit rate : 26.1 kb/s
Count of elements : 1460
Stream size : 14.1 MiB (0%)
Title : Spanish-PGS
Language : Spanish
Default : No
Forced : No

Menu
00:00:00.000 : :Chapter 1
00:12:59.069 : :Chapter 2
00:22:23.925 : :Chapter 3
00:33:16.953 : :Chapter 4
00:42:14.448 : :Chapter 5
00:54:19.965 : :Chapter 6
01:04:17.770 : :Chapter 7
01:12:34.141 : :Chapter 8
movie BDRip Video
ID : 1
Format : HEVC
Format/Info : High Efficiency Video Coding
Commercial name : HDR10
Format profile : Main 10@L5.1@High
Codec ID : V_MPEGH/ISO/HEVC
Duration : 1 h 15 min
Bit rate : 4 406 kb/s
Width : 3 840 pixels
Height : 2 160 pixels
Display aspect ratio : 16:9
Frame rate mode : Constant
Frame rate : 23.976 (24000/1001) FPS
Color space : YUV
Chroma subsampling : 4:2:0 (Type 2)
Bit depth : 10 bits
Bits/(Pixel*Frame) : 0.022
Stream size : 2.33 GiB (62%)
Writing library : x265 2.8+10-703eade86b53:[Windows][MSVC 1914][64 bit] 10bit
Encoding settings : cpuid=1111039 / frame-threads=6 / numa-pools=36 / wpp / no-pmode / no-pme / no-psnr / no-ssim / log-level=2 / input-csp=1 / input-res=3840x2160 / interlace=0 / total-frames=109104 / level-idc=51 / high-tier=1 / uhd-bd=1 / ref=4 / no-allow-non-conformance / repeat-headers / annexb / aud / hrd / info / hash=0 / no-temporal-layers / no-open-gop / min-keyint=1 / keyint=24 / gop-lookahead=0 / bframes=4 / b-adapt=2 / b-pyramid / bframe-bias=0 / rc-lookahead=25 / lookahead-slices=4 / scenecut=40 / radl=0 / no-intra-refresh / ctu=64 / min-cu-size=8 / rect / no-amp / max-tu-size=32 / tu-inter-depth=1 / tu-intra-depth=1 / limit-tu=0 / rdoq-level=2 / dynamic-rd=0.00 / no-ssim-rd / signhide / no-tskip / nr-intra=0 / nr-inter=0 / no-constrained-intra / no-strong-intra-smoothing / max-merge=3 / limit-refs=3 / limit-modes / me=3 / subme=3 / merange=57 / temporal-mvp / weightp / no-weightb / no-analyze-src-pics / deblock=-3:-3 / no-sao / no-sao-non-deblock / rd=4 / no-early-skip / rskip / no-fast-intra / no-tskip-fast / no-cu-lossless / no-b-intra / no-splitrd-skip / rdpenalty=0 / psy-rd=2.00 / psy-rdoq=1.00 / no-rd-refine / no-lossless / cbqpoffs=0 / crqpoffs=0 / rc=crf / crf=17.0 / qcomp=0.60 / qpstep=4 / stats-write=0 / stats-read=0 / vbv-maxrate=160000 / vbv-bufsize=160000 / vbv-init=0.9 / crf-max=0.0 / crf-min=0.0 / ipratio=1.40 / pbratio=1.30 / aq-mode=1 / aq-strength=1.00 / cutree / zone-count=0 / no-strict-cbr / qg-size=32 / no-rc-grain / qpmax=69 / qpmin=0 / no-const-vbv / sar=1 / overscan=0 / videoformat=5 / range=0 / colorprim=9 / transfer=16 / colormatrix=9 / chromaloc=1 / chromaloc-top=2 / chromaloc-bottom=2 / display-window=0 / master-display=G(13250,34500)B(7500,3000)R(34000,16000)WP(15635,16450)L(40000000,50) / max-cll=1150,478 / min-luma=0 / max-luma=1023 / log2-max-poc-lsb=8 / vui-timing-info / vui-hrd-info / slices=1 / no-opt-qp-pps / no-opt-ref-list-length-pps / no-multi-pass-opt-rps / scenecut-bias=0.05 / no-opt-cu-delta-qp / no-aq-motion / hdr / hdr-opt / no-dhdr10-opt / no-idr-recovery-sei / analysis-reuse-level=5 / scale-factor=0 / refine-intra=0 / refine-inter=0 / refine-mv=0 / no-limit-sao / ctu-info=0 / no-lowpass-dct / refine-mv-type=0 / copy-pic=1 / max-ausize-factor=1.0 / no-dynamic-refine / no-single-sei
Default : Yes
Forced : No
Color range : Limited
Color primaries : BT.2020
Transfer characteristics : PQ
Matrix coefficients : BT.2020 non-constant
Mastering display color primaries : Display P3
Mastering display luminance : min: 0.0050 cd/m2, max: 4000 cd/m2
Maximum Content Light Level : 1150 cd/m2
Maximum Frame-Average Light Level : 478 cd/m2

Audio
ID : 2
Format : DTS XLL
Format/Info : Digital Theater Systems
Commercial name : DTS-HD Master Audio
Codec ID : A_DTS
Duration : 1 h 15 min
Bit rate mode : Variable
Bit rate : 2 617 kb/s
Channel(s) : 6 channels
Channel layout : C L R Ls Rs LFE
Sampling rate : 48.0 kHz
Frame rate : 93.750 FPS (512 SPF)
Bit depth : 24 bits
Compression mode : Lossless
Stream size : 1.39 GiB (37%)
Language : English
Default : Yes
Forced : No

Text #1
ID : 3
Format : PGS
Muxing mode : zlib
Codec ID : S_HDMV/PGS
Codec ID/Info : Picture based subtitle format used on BDs/HD-DVDs
Duration : 1 h 15 min
Bit rate : 32.0 kb/s
Count of elements : 1844
Stream size : 17.3 MiB (0%)
Language : English
Default : No
Forced : No

Text #2
ID : 4
Format : PGS
Muxing mode : zlib
Codec ID : S_HDMV/PGS
Codec ID/Info : Picture based subtitle format used on BDs/HD-DVDs
Duration : 1 h 15 min
Bit rate : 26.1 kb/s
Count of elements : 1460
Stream size : 14.1 MiB (0%)
Language : French
Default : No
Forced : No

Text #3
ID : 5
Format : PGS
Muxing mode : zlib
Codec ID : S_HDMV/PGS
Codec ID/Info : Picture based subtitle format used on BDs/HD-DVDs
Duration : 1 h 15 min
Bit rate : 26.1 kb/s
Count of elements : 1460
Stream size : 14.1 MiB (0%)
Language : Spanish
Default : No
Forced : No

Menu
00:00:00.000 : en:00:00:00.000
00:12:59.070 : en:00:12:59.070
00:22:23.926 : en:00:22:23.926
00:33:16.953 : en:00:33:16.953
00:42:14.449 : en:00:42:14.449
00:54:19.965 : en:00:54:19.965
01:04:17.771 : en:01:04:17.771
01:12:34.141 : en:01:12:34.141

Download

download 4k hdr movies download 4k hdr movies

Watch a movie trailer - Justice League Dark 4K 2017 Ultra HD 2160p
Comments and Feedback
  1. - 0 +
    Pauline  пишет:
    6 December 2018 17:45
    Thank you for any other informative blog. The place else may just I get that type of information written in such a perfect way? I've a venture that I'm simply now working on, and I've been on the glance out for such info. viagra connect
  2. - 0 +
    Chas  пишет:
    6 December 2018 18:02
    I do not even know how I ended up here, but I thought this post was great. I don't know who you are but definitely you are going to a famous blogger if you aren't already ;) Cheers! viagra pills
  3. - 0 +
    Cora  пишет:
    7 December 2018 14:07
    wonderful points altogether, you simply gained a new reader. What could you recommend in regards to your publish that you made a few days ago? Any certain? buy viagra online
Add your comment:
Your name:
Your E-Mail:
Code:
reload, if the code cannot be seen
Enter code: