Select movie Search movie Close search My Account

The Dark Knight Rises 4K 2012 Ultra HD 2160p

The Dark Knight Rises 4K 2012 Ultra HD 2160p
BDRemux / BDRip
Country: USA, UK
Time: 2h 44min
IMDB: 8.4
Director: Christopher Nolan
Actors: Christian Bale, Gary Oldman, Tom Hardy, Joseph Gordon-Levitt, Anne Hathaway, Marion Cotillard, Morgan Freeman, Michael Caine, Matthew Modine, Alon Aboutboul, Ben Mendelsohn, Burn Gorman, Daniel Sunjata, Aidan Gillen, Sam Kennard

Story Movie

The Dark Knight Rises 4K 2012 Ultra HD 2160p
The Dark Knight Rises 4k films UHD begin to unfold after eight years from the moment. when Batman disappeared and disappeared. And in the city new ominous encounters begin to unfold. There is a division of power, serious crimes are committed and it would seem that no one can cope with this. Everyone needs the return of a super hero. But he will want and will he be able to accept a new challenge?

Review 4K Movie

Chris Nolan is a man who is worthy of respect. And not only for the revival of the series about Batman in 2005, for the excellent continuation in 2007 and the masterpiece of 2012, about which a bit later. Between the first and second parts of the saga he removed the magnificent "Prestige", and between the second and the third was "The Beginning", a masterpiece, and even with my favorite DiCaprio.

But from Nolon's person, let's move on to the person of the Dark Knight, namely to the third part of The Dark Knight Rises 4k films.

First, I was very pleased that the film was not filmed for profit (at least, I want to believe it), but for the sake of the spirit of Batman. This is evidenced by the lack of 3D effects in the film. And from this it follows only that Nolan was confident in the commercial success of his film and without modern technology, which raises the ticket price by 1.5 to 3 times. And it happened. The film paid off its budget for the first week of hire, almost three times. And it seems to me that it will easily pass through the bar in a billion box office.

Secondly, it's a good movie. It is difficult to describe this concept in relation to the film industry, but it is so. There is everything: a simple and interesting universe of the city of Gotham, charismatic superhero, the main villain with an amazing story and an interesting denouement. In short, there is something to see.

Thirdly, I can not find cons. I'm trying to figure out why I took one point out of ten, but I can not. Just in my universe, the superhero film can not be on the top ten. He is either very good, like The Dark Knight Rises UHD, as both parts of Iron Man, or most usually the superhero film (Thor, Captain America, etc.).

Fourthly, one more part to be. There will not be a spoiler, just go see it. It's worth it, believe me.

Mediainfo

movie BDRemux Video
ID : 1
Format : HEVC
Format/Info : High Efficiency Video Coding
Format profile : Main 10@L5.1@High
Codec ID : V_MPEGH/ISO/HEVC
Duration : 2 h 44 min
Bit rate : 55.8 Mb/s
Width : 3 840 pixels
Height : 2 160 pixels
Display aspect ratio : 16:9
Frame rate mode : Constant
Frame rate : 23.976 (24000/1001) FPS
Color space : YUV
Chroma subsampling : 4:2:0 (Type 2)
Bit depth : 10 bits
Bits/(Pixel*Frame) : 0.281
Stream size : 64.1 GiB (78%)
Title : The.Dark.Knight.Rises.2012.2160p.BluRay.REMUX.HEVC.DTS-HD.MA.5.1
Default : Yes
Forced : No
Color range : Limited
Color primaries : BT.2020
Transfer characteristics : PQ
Matrix coefficients : BT.2020 non-constant
Mastering display color primaries : Display P3
Mastering display luminance : min: 0.0050 cd/m2, max: 4000 cd/m2
Maximum Content Light Level : 500 cd/m2
Maximum Frame-Average Light Level : 200 cd/m2

Audio #1
ID : 2
Format : DTS
Format/Info : Digital Theater Systems
Format profile : MA / Core
Codec ID : A_DTS
Duration : 2 h 44 min
Bit rate mode : Variable / Constant
Bit rate : 4 037 kb/s / 1 509 kb/s
Channel(s) : 6 channels
Channel positions : Front: L C R, Side: L R, LFE
Sampling rate : 48.0 kHz
Frame rate : 93.750 FPS (512 SPF)
Bit depth : 24 bits
Compression mode : Lossless / Lossy
Stream size : 4.64 GiB (6%)
Title : The.Dark.Knight.Rises.2012.2160p.BluRay.REMUX.HEVC.DTS-HD.MA.5.1
Language : English
Default : Yes
Forced : No

Audio #2
ID : 3
Format : AC-3
Format/Info : Audio Coding 3
Codec ID : A_AC3
Duration : 2 h 44 min
Bit rate mode : Constant
Bit rate : 448 kb/s
Channel(s) : 6 channels
Channel positions : Front: L C R, Side: L R, LFE
Sampling rate : 48.0 kHz
Frame rate : 31.250 FPS (1536 SPF)
Bit depth : 16 bits
Compression mode : Lossy
Stream size : 527 MiB (1%)
Title : The.Dark.Knight.Rises.2012.2160p.BluRay.REMUX.HEVC.DTS-HD.MA.5.1
Language : English
Service kind : Complete Main
Default : No
Forced : No

Audio #3
ID : 4
Format : AC-3
Format/Info : Audio Coding 3
Codec ID : A_AC3
Duration : 2 h 44 min
Bit rate mode : Constant
Bit rate : 448 kb/s
Channel(s) : 6 channels
Channel positions : Front: L C R, Side: L R, LFE
Sampling rate : 48.0 kHz
Frame rate : 31.250 FPS (1536 SPF)
Bit depth : 16 bits
Compression mode : Lossy
Stream size : 527 MiB (1%)
Title : The.Dark.Knight.Rises.2012.2160p.BluRay.REMUX.HEVC.DTS-HD.MA.5.1
Language : French
Service kind : Complete Main
Default : No
Forced : No

Audio #4
ID : 5
Format : DTS
Format/Info : Digital Theater Systems
Format profile : MA / Core
Codec ID : A_DTS
Duration : 2 h 44 min
Bit rate mode : Variable / Constant
Bit rate : 2 345 kb/s / 1 509 kb/s
Channel(s) : 6 channels
Channel positions : Front: L C R, Side: L R, LFE
Sampling rate : 48.0 kHz
Frame rate : 93.750 FPS (512 SPF)
Bit depth : 16 bits
Compression mode : Lossless / Lossy
Stream size : 2.70 GiB (3%)
Title : The.Dark.Knight.Rises.2012.2160p.BluRay.REMUX.HEVC.DTS-HD.MA.5.1
Language : French
Default : No
Forced : No

Audio #5
ID : 6
Format : DTS
Format/Info : Digital Theater Systems
Format profile : MA / Core
Codec ID : A_DTS
Duration : 2 h 44 min
Bit rate mode : Variable / Constant
Bit rate : 2 334 kb/s / 1 509 kb/s
Channel(s) : 6 channels
Channel positions : Front: L C R, Side: L R, LFE
Sampling rate : 48.0 kHz
Frame rate : 93.750 FPS (512 SPF)
Bit depth : 16 bits
Compression mode : Lossless / Lossy
Stream size : 2.68 GiB (3%)
Title : The.Dark.Knight.Rises.2012.2160p.BluRay.REMUX.HEVC.DTS-HD.MA.5.1
Language : German
Default : No
Forced : No

Audio #6
ID : 7
Format : AC-3
Format/Info : Audio Coding 3
Codec ID : A_AC3
Duration : 2 h 44 min
Bit rate mode : Constant
Bit rate : 448 kb/s
Channel(s) : 6 channels
Channel positions : Front: L C R, Side: L R, LFE
Sampling rate : 48.0 kHz
Frame rate : 31.250 FPS (1536 SPF)
Bit depth : 16 bits
Compression mode : Lossy
Stream size : 527 MiB (1%)
Title : The.Dark.Knight.Rises.2012.2160p.BluRay.REMUX.HEVC.DTS-HD.MA.5.1
Language : Italian
Service kind : Complete Main
Default : No
Forced : No

Audio #7
ID : 8
Format : AC-3
Format/Info : Audio Coding 3
Codec ID : A_AC3
Duration : 2 h 44 min
Bit rate mode : Constant
Bit rate : 448 kb/s
Channel(s) : 6 channels
Channel positions : Front: L C R, Side: L R, LFE
Sampling rate : 48.0 kHz
Frame rate : 31.250 FPS (1536 SPF)
Bit depth : 16 bits
Compression mode : Lossy
Stream size : 527 MiB (1%)
Title : The.Dark.Knight.Rises.2012.2160p.BluRay.REMUX.HEVC.DTS-HD.MA.5.1
Language : Spanish
Service kind : Complete Main
Default : No
Forced : No

Audio #8
ID : 9
Format : AC-3
Format/Info : Audio Coding 3
Codec ID : A_AC3
Duration : 2 h 44 min
Bit rate mode : Constant
Bit rate : 448 kb/s
Channel(s) : 6 channels
Channel positions : Front: L C R, Side: L R, LFE
Sampling rate : 48.0 kHz
Frame rate : 31.250 FPS (1536 SPF)
Bit depth : 16 bits
Compression mode : Lossy
Stream size : 527 MiB (1%)
Title : The.Dark.Knight.Rises.2012.2160p.BluRay.REMUX.HEVC.DTS-HD.MA.5.1
Language : Chinese
Service kind : Complete Main
Default : No
Forced : No

Audio #9
ID : 10
Format : AC-3
Format/Info : Audio Coding 3
Codec ID : A_AC3
Duration : 2 h 44 min
Bit rate mode : Constant
Bit rate : 448 kb/s
Channel(s) : 6 channels
Channel positions : Front: L C R, Side: L R, LFE
Sampling rate : 48.0 kHz
Frame rate : 31.250 FPS (1536 SPF)
Bit depth : 16 bits
Compression mode : Lossy
Stream size : 527 MiB (1%)
Title : The.Dark.Knight.Rises.2012.2160p.BluRay.REMUX.HEVC.DTS-HD.MA.5.1
Language : Spanish
Service kind : Complete Main
Default : No
Forced : No

Audio #10
ID : 11
Format : AC-3
Format/Info : Audio Coding 3
Codec ID : A_AC3
Duration : 2 h 44 min
Bit rate mode : Constant
Bit rate : 448 kb/s
Channel(s) : 6 channels
Channel positions : Front: L C R, Side: L R, LFE
Sampling rate : 48.0 kHz
Frame rate : 31.250 FPS (1536 SPF)
Bit depth : 16 bits
Compression mode : Lossy
Stream size : 527 MiB (1%)
Title : The.Dark.Knight.Rises.2012.2160p.BluRay.REMUX.HEVC.DTS-HD.MA.5.1
Language : Portuguese
Service kind : Complete Main
Default : No
Forced : No

Audio #11
ID : 12
Format : AC-3
Format/Info : Audio Coding 3
Codec ID : A_AC3
Duration : 2 h 44 min
Bit rate mode : Constant
Bit rate : 448 kb/s
Channel(s) : 6 channels
Channel positions : Front: L C R, Side: L R, LFE
Sampling rate : 48.0 kHz
Frame rate : 31.250 FPS (1536 SPF)
Bit depth : 16 bits
Compression mode : Lossy
Stream size : 527 MiB (1%)
Title : The.Dark.Knight.Rises.2012.2160p.BluRay.REMUX.HEVC.DTS-HD.MA.5.1
Language : Czech
Service kind : Complete Main
Default : No
Forced : No

Audio #12
ID : 13
Format : AC-3
Format/Info : Audio Coding 3
Codec ID : A_AC3
Duration : 2 h 44 min
Bit rate mode : Constant
Bit rate : 448 kb/s
Channel(s) : 6 channels
Channel positions : Front: L C R, Side: L R, LFE
Sampling rate : 48.0 kHz
Frame rate : 31.250 FPS (1536 SPF)
Bit depth : 16 bits
Compression mode : Lossy
Stream size : 527 MiB (1%)
Title : The.Dark.Knight.Rises.2012.2160p.BluRay.REMUX.HEVC.DTS-HD.MA.5.1
Language : Hungarian
Service kind : Complete Main
Default : No
Forced : No

Audio #13
ID : 14
Format : AC-3
Format/Info : Audio Coding 3
Codec ID : A_AC3
Duration : 2 h 44 min
Bit rate mode : Constant
Bit rate : 448 kb/s
Channel(s) : 6 channels
Channel positions : Front: L C R, Side: L R, LFE
Sampling rate : 48.0 kHz
Frame rate : 31.250 FPS (1536 SPF)
Bit depth : 16 bits
Compression mode : Lossy
Stream size : 527 MiB (1%)
Title : The.Dark.Knight.Rises.2012.2160p.BluRay.REMUX.HEVC.DTS-HD.MA.5.1
Language : Polish
Service kind : Complete Main
Default : No
Forced : No

Audio #14
ID : 15
Format : AC-3
Format/Info : Audio Coding 3
Codec ID : A_AC3
Duration : 2 h 44 min
Bit rate mode : Constant
Bit rate : 448 kb/s
Channel(s) : 6 channels
Channel positions : Front: L C R, Side: L R, LFE
Sampling rate : 48.0 kHz
Frame rate : 31.250 FPS (1536 SPF)
Bit depth : 16 bits
Compression mode : Lossy
Stream size : 527 MiB (1%)
Title : The.Dark.Knight.Rises.2012.2160p.BluRay.REMUX.HEVC.DTS-HD.MA.5.1
Language : Russian
Service kind : Complete Main
Default : No
Forced : No

Audio #15
ID : 16
Format : AC-3
Format/Info : Audio Coding 3
Codec ID : A_AC3
Duration : 2 h 44 min
Bit rate mode : Constant
Bit rate : 448 kb/s
Channel(s) : 6 channels
Channel positions : Front: L C R, Side: L R, LFE
Sampling rate : 48.0 kHz
Frame rate : 31.250 FPS (1536 SPF)
Bit depth : 16 bits
Compression mode : Lossy
Stream size : 527 MiB (1%)
Title : The.Dark.Knight.Rises.2012.2160p.BluRay.REMUX.HEVC.DTS-HD.MA.5.1
Language : Thai
Service kind : Complete Main
Default : No
Forced : No

Audio #16
ID : 17
Format : AC-3
Format/Info : Audio Coding 3
Codec ID : A_AC3
Duration : 2 h 44 min
Bit rate mode : Constant
Bit rate : 448 kb/s
Channel(s) : 6 channels
Channel positions : Front: L C R, Side: L R, LFE
Sampling rate : 48.0 kHz
Frame rate : 31.250 FPS (1536 SPF)
Bit depth : 16 bits
Compression mode : Lossy
Stream size : 527 MiB (1%)
Title : The.Dark.Knight.Rises.2012.2160p.BluRay.REMUX.HEVC.DTS-HD.MA.5.1
Language : Turkish
Service kind : Complete Main
Default : No
Forced : No

Audio #17
ID : 18
Format : AC-3
Format/Info : Audio Coding 3
Codec ID : A_AC3
Duration : 2 h 44 min
Bit rate mode : Constant
Bit rate : 448 kb/s
Channel(s) : 6 channels
Channel positions : Front: L C R, Side: L R, LFE
Sampling rate : 48.0 kHz
Frame rate : 31.250 FPS (1536 SPF)
Bit depth : 16 bits
Compression mode : Lossy
Stream size : 527 MiB (1%)
Title : The.Dark.Knight.Rises.2012.2160p.BluRay.REMUX.HEVC.DTS-HD.MA.5.1
Language : Japanese
Service kind : Complete Main
Default : No
Forced : No

Text #1
ID : 19
Format : PGS
Muxing mode : zlib
Codec ID : S_HDMV/PGS
Codec ID/Info : Picture based subtitle format used on BDs/HD-DVDs
Duration : 2 h 43 min
Bit rate : 34.2 kb/s
Count of elements : 3826
Stream size : 40.0 MiB (0%)
Title : English-PGS
Language : English
Default : Yes
Forced : No

Text #2
ID : 20
Format : PGS
Muxing mode : zlib
Codec ID : S_HDMV/PGS
Codec ID/Info : Picture based subtitle format used on BDs/HD-DVDs
Duration : 2 h 43 min
Bit rate : 27.4 kb/s
Count of elements : 4005
Stream size : 32.0 MiB (0%)
Title : French-PGS
Language : French
Default : No
Forced : No

Text #3
ID : 21
Format : PGS
Muxing mode : zlib
Codec ID : S_HDMV/PGS
Codec ID/Info : Picture based subtitle format used on BDs/HD-DVDs
Duration : 2 h 43 min
Bit rate : 40.2 kb/s
Count of elements : 3928
Stream size : 47.0 MiB (0%)
Title : German-PGS
Language : German
Default : No
Forced : No

Text #4
ID : 22
Format : PGS
Muxing mode : zlib
Codec ID : S_HDMV/PGS
Codec ID/Info : Picture based subtitle format used on BDs/HD-DVDs
Duration : 2 h 43 min
Bit rate : 34.8 kb/s
Count of elements : 3860
Stream size : 40.7 MiB (0%)
Title : Italian-PGS
Language : Italian
Default : No
Forced : No

Text #5
ID : 23
Format : PGS
Muxing mode : zlib
Codec ID : S_HDMV/PGS
Codec ID/Info : Picture based subtitle format used on BDs/HD-DVDs
Duration : 2 h 43 min
Bit rate : 31.0 kb/s
Count of elements : 3647
Stream size : 36.2 MiB (0%)
Title : Spanish-PGS
Language : Spanish
Default : No
Forced : No

Text #6
ID : 24
Format : PGS
Muxing mode : zlib
Codec ID : S_HDMV/PGS
Codec ID/Info : Picture based subtitle format used on BDs/HD-DVDs
Duration : 2 h 43 min
Bit rate : 28.6 kb/s
Count of elements : 3280
Stream size : 33.4 MiB (0%)
Title : Dutch-PGS
Language : Dutch
Default : No
Forced : No

Text #7
ID : 25
Format : PGS
Muxing mode : zlib
Codec ID : S_HDMV/PGS
Codec ID/Info : Picture based subtitle format used on BDs/HD-DVDs
Duration : 2 h 43 min
Bit rate : 25.7 kb/s
Count of elements : 3631
Stream size : 30.0 MiB (0%)
Title : Chinese-PGS
Language : Chinese
Default : No
Forced : No

Text #8
ID : 26
Format : PGS
Muxing mode : zlib
Codec ID : S_HDMV/PGS
Codec ID/Info : Picture based subtitle format used on BDs/HD-DVDs
Duration : 2 h 43 min
Bit rate : 26.0 kb/s
Count of elements : 3778
Stream size : 30.4 MiB (0%)
Title : Chinese-PGS
Language : Chinese
Default : No
Forced : No

Text #9
ID : 27
Format : PGS
Muxing mode : zlib
Codec ID : S_HDMV/PGS
Codec ID/Info : Picture based subtitle format used on BDs/HD-DVDs
Duration : 2 h 43 min
Bit rate : 25.7 kb/s
Count of elements : 3605
Stream size : 30.0 MiB (0%)
Title : Chinese-PGS
Language : Chinese
Default : No
Forced : No

Text #10
ID : 28
Format : PGS
Muxing mode : zlib
Codec ID : S_HDMV/PGS
Codec ID/Info : Picture based subtitle format used on BDs/HD-DVDs
Duration : 2 h 43 min
Bit rate : 21.0 kb/s
Count of elements : 3555
Stream size : 24.5 MiB (0%)
Title : Korean-PGS
Language : Korean
Default : No
Forced : No

Text #11
ID : 29
Format : PGS
Muxing mode : zlib
Codec ID : S_HDMV/PGS
Codec ID/Info : Picture based subtitle format used on BDs/HD-DVDs
Duration : 2 h 43 min
Bit rate : 29.8 kb/s
Count of elements : 3764
Stream size : 34.8 MiB (0%)
Title : Spanish-PGS
Language : Spanish
Default : No
Forced : No

Text #12
ID : 30
Format : PGS
Muxing mode : zlib
Codec ID : S_HDMV/PGS
Codec ID/Info : Picture based subtitle format used on BDs/HD-DVDs
Duration : 2 h 43 min
Bit rate : 30.8 kb/s
Count of elements : 3615
Stream size : 36.0 MiB (0%)
Title : Portuguese-PGS
Language : Portuguese
Default : No
Forced : No

Text #13
ID : 31
Format : PGS
Muxing mode : zlib
Codec ID : S_HDMV/PGS
Codec ID/Info : Picture based subtitle format used on BDs/HD-DVDs
Duration : 2 h 43 min
Bit rate : 16.0 kb/s
Count of elements : 3895
Stream size : 18.7 MiB (0%)
Title : Arabic-PGS
Language : Arabic
Default : No
Forced : No

Text #14
ID : 32
Format : PGS
Muxing mode : zlib
Codec ID : S_HDMV/PGS
Codec ID/Info : Picture based subtitle format used on BDs/HD-DVDs
Duration : 2 h 43 min
Bit rate : 26.3 kb/s
Count of elements : 2658
Stream size : 30.7 MiB (0%)
Title : Croatian-PGS
Language : Croatian
Default : No
Forced : No

Text #15
ID : 33
Format : PGS
Muxing mode : zlib
Codec ID : S_HDMV/PGS
Codec ID/Info : Picture based subtitle format used on BDs/HD-DVDs
Duration : 2 h 43 min
Bit rate : 29.3 kb/s
Count of elements : 3311
Stream size : 34.3 MiB (0%)
Title : Czech-PGS
Language : Czech
Default : No
Forced : No

Text #16
ID : 34
Format : PGS
Muxing mode : zlib
Codec ID : S_HDMV/PGS
Codec ID/Info : Picture based subtitle format used on BDs/HD-DVDs
Duration : 2 h 43 min
Bit rate : 28.2 kb/s
Count of elements : 2988
Stream size : 33.0 MiB (0%)
Title : Danish-PGS
Language : Danish
Default : No
Forced : No

Text #17
ID : 35
Format : PGS
Muxing mode : zlib
Codec ID : S_HDMV/PGS
Codec ID/Info : Picture based subtitle format used on BDs/HD-DVDs
Duration : 2 h 43 min
Bit rate : 27.4 kb/s
Count of elements : 3109
Stream size : 32.1 MiB (0%)
Title : Finnish-PGS
Language : Finnish
Default : No
Forced : No

Text #18
ID : 36
Format : PGS
Muxing mode : zlib
Codec ID : S_HDMV/PGS
Codec ID/Info : Picture based subtitle format used on BDs/HD-DVDs
Duration : 2 h 43 min
Bit rate : 29.1 kb/s
Count of elements : 3545
Stream size : 34.1 MiB (0%)
Title : Greek-PGS
Language : Greek
Default : No
Forced : No

Text #19
ID : 37
Format : PGS
Muxing mode : zlib
Codec ID : S_HDMV/PGS
Codec ID/Info : Picture based subtitle format used on BDs/HD-DVDs
Duration : 2 h 43 min
Bit rate : 24.2 kb/s
Count of elements : 3683
Stream size : 28.2 MiB (0%)
Title : Hebrew-PGS
Language : Hebrew
Default : No
Forced : No

Text #20
ID : 38
Format : PGS
Muxing mode : zlib
Codec ID : S_HDMV/PGS
Codec ID/Info : Picture based subtitle format used on BDs/HD-DVDs
Duration : 2 h 43 min
Bit rate : 27.6 kb/s
Count of elements : 3209
Stream size : 32.2 MiB (0%)
Title : Hungarian-PGS
Language : Hungarian
Default : No
Forced : No

Text #21
ID : 39
Format : PGS
Muxing mode : zlib
Codec ID : S_HDMV/PGS
Codec ID/Info : Picture based subtitle format used on BDs/HD-DVDs
Duration : 2 h 43 min
Bit rate : 28.0 kb/s
Count of elements : 2966
Stream size : 32.7 MiB (0%)
Title : Norwegian-PGS
Language : Norwegian
Default : No
Forced : No

Text #22
ID : 40
Format : PGS
Muxing mode : zlib
Codec ID : S_HDMV/PGS
Codec ID/Info : Picture based subtitle format used on BDs/HD-DVDs
Duration : 2 h 43 min
Bit rate : 26.8 kb/s
Count of elements : 3525
Stream size : 31.3 MiB (0%)
Title : Polish-PGS
Language : Polish
Default : No
Forced : No

Text #23
ID : 41
Format : PGS
Muxing mode : zlib
Codec ID : S_HDMV/PGS
Codec ID/Info : Picture based subtitle format used on BDs/HD-DVDs
Duration : 2 h 43 min
Bit rate : 31.6 kb/s
Count of elements : 3690
Stream size : 37.0 MiB (0%)
Title : Portuguese-PGS
Language : Portuguese
Default : No
Forced : No

Text #24
ID : 42
Format : PGS
Muxing mode : zlib
Codec ID : S_HDMV/PGS
Codec ID/Info : Picture based subtitle format used on BDs/HD-DVDs
Duration : 2 h 43 min
Bit rate : 30.1 kb/s
Count of elements : 3381
Stream size : 35.2 MiB (0%)
Title : Romanian-PGS
Language : Romanian
Default : No
Forced : No

Text #25
ID : 43
Format : PGS
Muxing mode : zlib
Codec ID : S_HDMV/PGS
Codec ID/Info : Picture based subtitle format used on BDs/HD-DVDs
Duration : 2 h 43 min
Bit rate : 22.7 kb/s
Count of elements : 3694
Stream size : 26.5 MiB (0%)
Title : Russian-PGS
Language : Russian
Default : No
Forced : No

Text #26
ID : 44
Format : PGS
Muxing mode : zlib
Codec ID : S_HDMV/PGS
Codec ID/Info : Picture based subtitle format used on BDs/HD-DVDs
Duration : 2 h 43 min
Bit rate : 28.6 kb/s
Count of elements : 2987
Stream size : 33.4 MiB (0%)
Title : Swedish-PGS
Language : Swedish
Default : No
Forced : No

Text #27
ID : 45
Format : PGS
Muxing mode : zlib
Codec ID : S_HDMV/PGS
Codec ID/Info : Picture based subtitle format used on BDs/HD-DVDs
Duration : 2 h 43 min
Bit rate : 27.2 kb/s
Count of elements : 3603
Stream size : 31.8 MiB (0%)
Title : Thai-PGS
Language : Thai
Default : No
Forced : No

Text #28
ID : 46
Format : PGS
Muxing mode : zlib
Codec ID : S_HDMV/PGS
Codec ID/Info : Picture based subtitle format used on BDs/HD-DVDs
Duration : 2 h 43 min
Bit rate : 30.1 kb/s
Count of elements : 3740
Stream size : 35.2 MiB (0%)
Title : Turkish-PGS
Language : Turkish
Default : No
Forced : No

Text #29
ID : 47
Format : PGS
Muxing mode : zlib
Codec ID : S_HDMV/PGS
Codec ID/Info : Picture based subtitle format used on BDs/HD-DVDs
Duration : 1 h 46 min
Bit rate : 290 b/s
Count of elements : 20
Stream size : 227 KiB (0%)
Title : German-FORCED-PGS
Language : German
Default : No
Forced : No

Text #30
ID : 48
Format : PGS
Muxing mode : zlib
Codec ID : S_HDMV/PGS
Codec ID/Info : Picture based subtitle format used on BDs/HD-DVDs
Duration : 2 h 34 min
Bit rate : 24.4 kb/s
Count of elements : 3688
Stream size : 26.9 MiB (0%)
Title : Japanese-PGS
Language : Japanese
Default : No
Forced : No

Text #31
ID : 49
Format : PGS
Muxing mode : zlib
Codec ID : S_HDMV/PGS
Codec ID/Info : Picture based subtitle format used on BDs/HD-DVDs
Duration : 1 h 46 min
Bit rate : 119 b/s
Count of elements : 27
Stream size : 93.7 KiB (0%)
Title : Japanese-FORCED-PGS
Language : Japanese
Default : No
Forced : No

Menu
00:00:00.000 : en:Chapter 1
00:09:02.792 : en:Chapter 2
00:19:08.480 : en:Chapter 3
00:30:15.814 : en:Chapter 4
00:41:08.757 : en:Chapter 5
00:51:09.483 : en:Chapter 6
01:00:29.626 : en:Chapter 7
01:10:03.991 : en:Chapter 8
01:20:13.433 : en:Chapter 9
01:31:00.538 : en:Chapter 10
01:39:24.249 : en:Chapter 11
01:48:58.448 : en:Chapter 12
02:00:21.547 : en:Chapter 13
02:10:47.631 : en:Chapter 14
02:19:12.594 : en:Chapter 15
02:30:14.588 : en:Chapter 16
02:36:50.526 : en:Chapter 17
movie BDRip Video
ID : 1
Format : HEVC
Format/Info : High Efficiency Video Coding
Format profile : Main 10@L5.1@High
Codec ID : V_MPEGH/ISO/HEVC
Duration : 2 h 44 min
Width : 3 840 pixels
Height : 2 160 pixels
Display aspect ratio : 16:9
Frame rate mode : Constant
Frame rate : 23.976 (24000/1001) FPS
Color space : YUV
Chroma subsampling : 4:2:0 (Type 2)
Bit depth : 10 bits
Writing library : x265 2.6+27-2f3c4158cf35:[Windows][GCC 6.3.0][64 bit] 10bit
Encoding settings : cpuid=1050111 / frame-threads=4 / numa-pools=15,15 / wpp / no-pmode / no-pme / no-psnr / no-ssim / log-level=2 / input-csp=1 / input-res=3840x2160 / interlace=0 / total-frames=236698 / level-idc=51 / high-tier=1 / uhd-bd=1 / ref=4 / no-allow-non-conformance / repeat-headers / annexb / aud / hrd / info / hash=0 / no-temporal-layers / no-open-gop / min-keyint=1 / keyint=24 / gop-lookahead=0 / bframes=4 / b-adapt=2 / b-pyramid / bframe-bias=0 / rc-lookahead=25 / lookahead-slices=4 / scenecut=40 / radl=0 / no-intra-refresh / ctu=64 / min-cu-size=8 / rect / no-amp / max-tu-size=32 / tu-inter-depth=1 / tu-intra-depth=1 / limit-tu=0 / rdoq-level=2 / dynamic-rd=0.00 / no-ssim-rd / signhide / no-tskip / nr-intra=0 / nr-inter=0 / no-constrained-intra / no-strong-intra-smoothing / max-merge=3 / limit-refs=3 / limit-modes / me=3 / subme=3 / merange=57 / temporal-mvp / weightp / no-weightb / no-analyze-src-pics / deblock=-3:-3 / no-sao / no-sao-non-deblock / rd=4 / no-early-skip / rskip / no-fast-intra / no-tskip-fast / no-cu-lossless / no-b-intra / no-splitrd-skip / rdpenalty=0 / psy-rd=2.00 / psy-rdoq=1.00 / no-rd-refine / no-lossless / cbqpoffs=0 / crqpoffs=0 / rc=crf / crf=17.0 / qcomp=0.60 / qpstep=4 / stats-write=0 / stats-read=0 / vbv-maxrate=160000 / vbv-bufsize=160000 / vbv-init=0.9 / crf-max=0.0 / crf-min=0.0 / ipratio=1.40 / pbratio=1.30 / aq-mode=1 / aq-strength=1.00 / cutree / zone-count=0 / no-strict-cbr / qg-size=32 / no-rc-grain / qpmax=69 / qpmin=0 / no-const-vbv / sar=1 / overscan=0 / videoformat=5 / range=0 / colorprim=9 / transfer=16 / colormatrix=9 / chromaloc=1 / chromaloc-top=2 / chromaloc-bottom=2 / display-window=0 / master-display=G(13250,34500)B(7500,3000)R(34000,16000)WP(15635,16450)L(40000000,50) / max-cll=500,200 / min-luma=0 / max-luma=1023 / log2-max-poc-lsb=8 / vui-timing-info / vui-hrd-info / slices=1 / no-opt-qp-pps / no-opt-ref-list-length-pps / no-multi-pass-opt-rps / scenecut-bias=0.05 / no-opt-cu-delta-qp / no-aq-motion / hdr / hdr-opt / no-dhdr10-opt / analysis-save=(null) / analysis-load=(null) / analysis-reuse-level=5 / scale-factor=0 / refine-intra=0 / refine-inter=0 / refine-mv=0 / no-limit-sao / ctu-info=0 / no-lowpass-dct / refine-mv-type=0 / copy-pic=1
Default : Yes
Forced : No
Color range : Limited
Color primaries : BT.2020
Transfer characteristics : PQ
Matrix coefficients : BT.2020 non-constant
Mastering display color primaries : Display P3
Mastering display luminance : min: 0.0050 cd/m2, max: 4000 cd/m2
Maximum Content Light Level : 500 cd/m2
Maximum Frame-Average Light Level : 200 cd/m2

Audio
ID : 2
Format : DTS
Format/Info : Digital Theater Systems
Format profile : MA / Core
Codec ID : A_DTS
Duration : 2 h 44 min
Bit rate mode : Variable / Constant
Bit rate : Unknown / 1 509 kb/s
Channel(s) : 6 channels
Channel positions : Front: L C R, Side: L R, LFE
Sampling rate : 48.0 kHz
Frame rate : 93.750 FPS (512 SPF)
Bit depth : 24 bits
Compression mode : Lossless / Lossy
Language : English
Default : Yes
Forced : No

Text
ID : 3
Format : PGS
Muxing mode : zlib
Codec ID : S_HDMV/PGS
Codec ID/Info : Picture based subtitle format used on BDs/HD-DVDs
Title : English SDH
Language : English
Default : No
Forced : No

Menu
00:00:00.000 : en:00:00:00.000
00:09:02.792 : en:00:09:02.792
00:19:08.481 : en:00:19:08.481
00:30:15.814 : en:00:30:15.814
00:41:08.758 : en:00:41:08.758
00:51:09.483 : en:00:51:09.483
01:00:29.626 : en:01:00:29.626
01:10:03.991 : en:01:10:03.991
01:20:13.434 : en:01:20:13.434
01:31:00.538 : en:01:31:00.538
01:39:24.250 : en:01:39:24.250
01:48:58.449 : en:01:48:58.449
02:00:21.548 : en:02:00:21.548
02:10:47.631 : en:02:10:47.631
02:19:12.594 : en:02:19:12.594
02:30:14.589 : en:02:30:14.589
02:36:50.526 : en:02:36:50.526

Download

download 4k hdr movies download 4k hdr movies

Watch a movie trailer - The Dark Knight Rises 4K 2012 Ultra HD 2160p
Comments and Feedback
Add your comment:
Your name:
Your E-Mail:
Code:
reload, if the code cannot be seen
Enter code: