Select movie Search movie Close search My Account

Johnny English Strikes Again 4K 2018 Ultra HD 2160p

Johnny English Strikes Again 4K 2018 Ultra HD 2160p
BDRemux / BDRip
Country: UK | France | USA
Time: 1h 29min
IMDB: 6.2
Director: David Kerr
Actors: Kevin Eldon, Emma Thompson, Adam James, Rowan Atkinson, Noah Spiers, Kendra Mei, Alfie Kennedy, Jasmine Brightmore, George Turner, Rua Robertson, Adam Greaves-Neal, Nifemi Bankole, Gus Brown, Pippa Bennett-Warner, Michael Gambon.

Story Movie

Johnny English Strikes Again 4K 2018 Ultra HD 2160p

Johnny English Strikes Again uhd content download - So, a villain hacks into the security system of the British government and reveals the identity of all the secret agents. The Prime Minister 4k is in a panic and the only uncompromised intelligence officer is imposed on her - Johnny Inglish Ultra HD. An analogue spy in the digital world feels like a dinosaur, but he and his polite assistant must go on a mission full of surprises: from the femme fatale performed by Olga Kurylenko to the sinister reference to Mark Zuckerberg on the villain's pedestal.

Review 4K Movie

Rowan Atkinson 63. Grandpa has been released for a long time and should be glad of any opportunity to earn extra money. Johnny English Strikes Again uhd content download? Why not! I most likely looked at the previous parts of this parody orgy, but honestly I don’t remember a damn thing, but I didn’t have a special desire to revise. But what I saw today hurt me. No seriously. This is very bad. Well, right here is the darkness. Jokes with crooked rubber physiognomy, the predictability of each scene, endless self-replays, repetition of repetitions and just banality. The fact that the film was shot in 2018 gives only a mention of Twitter and instogram, otherwise it is a collection of miniatures from the TV series “Mr. Bean”, which successfully went to the UK in the 90s. By the middle of watching, I suddenly began to laugh at what was happening on the screen, but it was a nervous laugh. I felt terribly uncomfortable and even ashamed of the actors who appeared in this picture. Okay, Atkinson, but Kurelenko is a pity. From Bond girl to partner Johnny Inglish - a rapid fall into the abyss of acting oblivion.

Even in spite of the existing trend for the revival of idols in the 80s-90s, when films with Bruce Willis, Stalonnay and Schwarzenegger are somehow or other, but they collect cash, Rowan Atkinson’s return to the big screens was a catastrophic failure. The film does not deserve to be viewed not only in the cinema, but also at home under ironing. Even if nothing else was at hand, it is better to spend your free time on something more positive and informative. But if someone tells you that modern Russian comedies are a shame and a “bottom”, you can safely bring Johnny English Strikes Again uhd content download Ultra HD as a counter-argument, because an old woman can also have a blunder.

Mediainfo

movie BDRemux Video
ID : 1
Format : HEVC
Format/Info : High Efficiency Video Coding
Commercial name : HDR10
Format profile : Main 10@L5.1@High
Codec ID : V_MPEGH/ISO/HEVC
Duration : 1 h 28 min
Bit rate : 49.1 Mb/s
Width : 3 840 pixels
Height : 2 160 pixels
Display aspect ratio : 16:9
Frame rate mode : Constant
Frame rate : 23.976 (24000/1001) FPS
Color space : YUV
Chroma subsampling : 4:2:0 (Type 2)
Bit depth : 10 bits
Bits/(Pixel*Frame) : 0.247
Stream size : 30.4 GiB (80%)
Title : Johnny.English.Strikes.Again.2018.2160p.BluRay.REMUX.HEVC.DTS-X.7.1
Writing library : ATEME Titan File 3.8.16 (4.8.16.0)
Default : Yes
Forced : No
Color range : Limited
Color primaries : BT.2020
Transfer characteristics : PQ
Matrix coefficients : BT.2020 non-constant
Mastering display color primaries : Display P3
Mastering display luminance : min: 0.0050 cd/m2, max: 1000 cd/m2
Maximum Content Light Level : 1000 cd/m2
Maximum Frame-Average Light Level : 155 cd/m2

Audio #1
ID : 2
Format : DTS XLL X
Format/Info : Digital Theater Systems
Commercial name : DTS-HD Master Audio
Codec ID : A_DTS
Duration : 1 h 28 min
Bit rate mode : Variable
Bit rate : 5 910 kb/s
Channel(s) : 8 channels
Channel(s)_Original : Object Based
Channel layout : Object Based
Sampling rate : 48.0 kHz
Frame rate : 93.750 FPS (512 SPF)
Bit depth : 24 bits
Stream size : 3.65 GiB (10%)
Title : Johnny.English.Strikes.Again.2018.2160p.BluRay.REMUX.HEVC.DTS-X.7.1
Language : English
Default : Yes
Forced : No

Audio #2
ID : 3
Format : DTS XLL X
Format/Info : Digital Theater Systems
Commercial name : DTS-HD Master Audio
Codec ID : A_DTS
Duration : 1 h 28 min
Bit rate mode : Variable
Bit rate : 3 683 kb/s
Channel(s) : 8 channels
Channel(s)_Original : Object Based
Channel layout : Object Based
Sampling rate : 48.0 kHz
Frame rate : 93.750 FPS (512 SPF)
Bit depth : 24 bits
Stream size : 2.28 GiB (6%)
Title : Johnny.English.Strikes.Again.2018.2160p.BluRay.REMUX.HEVC.DTS-X.7.1
Language : German
Default : No
Forced : No

Audio #3
ID : 4
Format : DTS
Format/Info : Digital Theater Systems
Codec ID : A_DTS
Duration : 1 h 28 min
Bit rate mode : Constant
Bit rate : 768 kb/s
Channel(s) : 6 channels
Channel layout : C L R Ls Rs LFE
Sampling rate : 48.0 kHz
Frame rate : 93.750 FPS (512 SPF)
Bit depth : 24 bits
Compression mode : Lossy
Stream size : 486 MiB (1%)
Title : Johnny.English.Strikes.Again.2018.2160p.BluRay.REMUX.HEVC.DTS-X.7.1
Language : Czech
Default : No
Forced : No

Audio #4
ID : 5
Format : DTS
Format/Info : Digital Theater Systems
Codec ID : A_DTS
Duration : 1 h 28 min
Bit rate mode : Constant
Bit rate : 768 kb/s
Channel(s) : 6 channels
Channel layout : C L R Ls Rs LFE
Sampling rate : 48.0 kHz
Frame rate : 93.750 FPS (512 SPF)
Bit depth : 24 bits
Compression mode : Lossy
Stream size : 486 MiB (1%)
Title : Johnny.English.Strikes.Again.2018.2160p.BluRay.REMUX.HEVC.DTS-X.7.1
Language : Hungarian
Default : No
Forced : No

Audio #5
ID : 6
Format : DTS
Format/Info : Digital Theater Systems
Codec ID : A_DTS
Duration : 1 h 28 min
Bit rate mode : Constant
Bit rate : 768 kb/s
Channel(s) : 6 channels
Channel layout : C L R Ls Rs LFE
Sampling rate : 48.0 kHz
Frame rate : 93.750 FPS (512 SPF)
Bit depth : 24 bits
Compression mode : Lossy
Stream size : 486 MiB (1%)
Title : Johnny.English.Strikes.Again.2018.2160p.BluRay.REMUX.HEVC.DTS-X.7.1
Language : Polish
Default : No
Forced : No

Audio #6
ID : 7
Format : AC-3
Format/Info : Audio Coding 3
Commercial name : Dolby Digital
Codec ID : A_AC3
Duration : 1 h 28 min
Bit rate mode : Constant
Bit rate : 192 kb/s
Channel(s) : 2 channels
Channel layout : L R
Sampling rate : 48.0 kHz
Frame rate : 31.250 FPS (1536 SPF)
Bit depth : 16 bits
Compression mode : Lossy
Stream size : 122 MiB (0%)
Title : Johnny.English.Strikes.Again.2018.2160p.BluRay.REMUX.HEVC.DTS-X.7.1
Language : English
Service kind : Complete Main
Default : No
Forced : No

Text #1
ID : 8
Format : UTF-8
Codec ID : S_TEXT/UTF8
Codec ID/Info : UTF-8 Plain Text
Duration : 1 h 22 min
Bit rate : 57 b/s
Count of elements : 1020
Stream size : 34.4 KiB (0%)
Title : English-SRT
Language : English
Default : Yes
Forced : No

Text #2
ID : 9
Format : UTF-8
Codec ID : S_TEXT/UTF8
Codec ID/Info : UTF-8 Plain Text
Duration : 1 h 22 min
Bit rate : 66 b/s
Count of elements : 1301
Stream size : 40.5 KiB (0%)
Title : English-SDH-SRT
Language : English
Default : No
Forced : No

Text #3
ID : 10
Format : PGS
Muxing mode : zlib
Codec ID : S_HDMV/PGS
Codec ID/Info : Picture based subtitle format used on BDs/HD-DVDs
Duration : 1 h 22 min
Bit rate : 44.8 kb/s
Count of elements : 2602
Stream size : 26.5 MiB (0%)
Title : English-PGS
Language : English
Default : No
Forced : No

Text #4
ID : 11
Format : PGS
Muxing mode : zlib
Codec ID : S_HDMV/PGS
Codec ID/Info : Picture based subtitle format used on BDs/HD-DVDs
Duration : 1 h 27 min
Bit rate : 32.1 kb/s
Count of elements : 1898
Stream size : 20.0 MiB (0%)
Title : German-PGS
Language : German
Default : No
Forced : No

Text #5
ID : 12
Format : PGS
Muxing mode : zlib
Codec ID : S_HDMV/PGS
Codec ID/Info : Picture based subtitle format used on BDs/HD-DVDs
Duration : 1 h 27 min
Bit rate : 27.9 kb/s
Count of elements : 1736
Stream size : 17.5 MiB (0%)
Title : Czech-PGS
Language : Czech
Default : No
Forced : No

Text #6
ID : 13
Format : PGS
Muxing mode : zlib
Codec ID : S_HDMV/PGS
Codec ID/Info : Picture based subtitle format used on BDs/HD-DVDs
Duration : 1 h 27 min
Bit rate : 29.5 kb/s
Count of elements : 1784
Stream size : 18.4 MiB (0%)
Title : Hungarian-PGS
Language : Hungarian
Default : No
Forced : No

Text #7
ID : 14
Format : PGS
Muxing mode : zlib
Codec ID : S_HDMV/PGS
Codec ID/Info : Picture based subtitle format used on BDs/HD-DVDs
Duration : 1 h 27 min
Bit rate : 28.2 kb/s
Count of elements : 1804
Stream size : 17.6 MiB (0%)
Title : Polish-PGS
Language : Polish
Default : No
Forced : No

Text #8
ID : 15
Format : PGS
Muxing mode : zlib
Codec ID : S_HDMV/PGS
Codec ID/Info : Picture based subtitle format used on BDs/HD-DVDs
Duration : 1 h 27 min
Bit rate : 23.0 kb/s
Count of elements : 2074
Stream size : 14.4 MiB (0%)
Title : Chinese-PGS
Language : Chinese
Default : No
Forced : No

Text #9
ID : 16
Format : PGS
Muxing mode : zlib
Codec ID : S_HDMV/PGS
Codec ID/Info : Picture based subtitle format used on BDs/HD-DVDs
Duration : 1 h 27 min
Bit rate : 24.0 kb/s
Count of elements : 2074
Stream size : 15.0 MiB (0%)
Title : Chinese-PGS
Language : Chinese
Default : No
Forced : No

Text #10
ID : 17
Format : PGS
Muxing mode : zlib
Codec ID : S_HDMV/PGS
Codec ID/Info : Picture based subtitle format used on BDs/HD-DVDs
Duration : 1 h 27 min
Bit rate : 20.5 kb/s
Count of elements : 1988
Stream size : 12.8 MiB (0%)
Title : Korean-PGS
Language : Korean
Default : No
Forced : No

Text #11
ID : 18
Format : PGS
Muxing mode : zlib
Codec ID : S_HDMV/PGS
Codec ID/Info : Picture based subtitle format used on BDs/HD-DVDs
Duration : 1 h 23 min
Bit rate : 66.6 kb/s
Count of elements : 3258
Stream size : 39.9 MiB (0%)
Title : English-COMMENTARY-PGS
Language : English
Default : No
Forced : No

Text #12
ID : 19
Format : PGS
Muxing mode : zlib
Codec ID : S_HDMV/PGS
Codec ID/Info : Picture based subtitle format used on BDs/HD-DVDs
Duration : 1 h 28 min
Bit rate : 61.6 kb/s
Count of elements : 3274
Stream size : 38.8 MiB (0%)
Title : German-COMMENTARY-PGS
Language : German
Default : No
Forced : No

Text #13
ID : 20
Format : PGS
Muxing mode : zlib
Codec ID : S_HDMV/PGS
Codec ID/Info : Picture based subtitle format used on BDs/HD-DVDs
Duration : 1 h 27 min
Bit rate : 482 b/s
Count of elements : 32
Stream size : 309 KiB (0%)
Title : German-FORCED-PGS
Language : German
Default : No
Forced : No

Text #14
ID : 21
Format : PGS
Muxing mode : zlib
Codec ID : S_HDMV/PGS
Codec ID/Info : Picture based subtitle format used on BDs/HD-DVDs
Duration : 1 h 14 min
Bit rate : 556 b/s
Count of elements : 38
Stream size : 304 KiB (0%)
Title : Hungarian-FORCED-PGS
Language : Hungarian
Default : No
Forced : No

Text #15
ID : 22
Format : PGS
Muxing mode : zlib
Codec ID : S_HDMV/PGS
Codec ID/Info : Picture based subtitle format used on BDs/HD-DVDs
Duration : 1 h 27 min
Bit rate : 436 b/s
Count of elements : 40
Stream size : 279 KiB (0%)
Title : Polish-FORCED-PGS
Language : Polish
Default : No
Forced : No

Menu
00:00:00.000 : :Chapter 1
00:05:06.681 : :Chapter 2
00:09:05.378 : :Chapter 3
00:13:14.794 : :Chapter 4
00:19:22.369 : :Chapter 5
00:21:31.832 : :Chapter 6
00:26:41.975 : :Chapter 7
00:32:31.240 : :Chapter 8
00:34:48.086 : :Chapter 9
00:39:49.428 : :Chapter 10
00:45:49.121 : :Chapter 11
00:51:22.204 : :Chapter 12
00:54:31.851 : :Chapter 13
00:58:58.201 : :Chapter 14
01:02:58.441 : :Chapter 15
01:08:21.597 : :Chapter 16
01:11:40.963 : :Chapter 17
01:15:03.415 : :Chapter 18
01:20:54.808 : :Chapter 19
01:23:52.527 : :Chapter 20
movie BDRip Video
ID : 1
Format : HEVC
Format/Info : High Efficiency Video Coding
Commercial name : HDR10
Format profile : Main 10@L5.1@High
Codec ID : V_MPEGH/ISO/HEVC
Duration : 1 h 28 min
Width : 3 840 pixels
Height : 1 606 pixels
Display aspect ratio : 2.40:1
Frame rate mode : Constant
Frame rate : 23.976 (24000/1001) FPS
Color space : YUV
Chroma subsampling : 4:2:0 (Type 2)
Bit depth : 10 bits
Writing library : x265 3.0+1-ed72af837053:[Linux][GCC 8.2.0][64 bit] 10bit
Encoding settings : cpuid=1176575 / frame-threads=5 / wpp / no-pmode / no-pme / no-psnr / no-ssim / log-level=2 / input-csp=1 / input-res=3840x1606 / interlace=0 / total-frames=0 / level-idc=51 / high-tier=1 / uhd-bd=0 / ref=4 / no-allow-non-conformance / repeat-headers / annexb / no-aud / no-hrd / info / hash=0 / no-temporal-layers / open-gop / min-keyint=23 / keyint=250 / gop-lookahead=0 / bframes=11 / b-adapt=2 / b-pyramid / bframe-bias=0 / rc-lookahead=25 / lookahead-slices=4 / scenecut=40 / radl=0 / no-splice / no-intra-refresh / ctu=64 / min-cu-size=8 / rect / no-amp / max-tu-size=32 / tu-inter-depth=1 / tu-intra-depth=1 / limit-tu=0 / rdoq-level=2 / dynamic-rd=0.00 / no-ssim-rd / signhide / no-tskip / nr-intra=0 / nr-inter=0 / no-constrained-intra / strong-intra-smoothing / max-merge=3 / limit-refs=3 / limit-modes / me=2 / subme=6 / merange=57 / temporal-mvp / weightp / no-weightb / no-analyze-src-pics / deblock=-3:-3 / no-sao / no-sao-non-deblock / rd=4 / no-early-skip / no-rskip / no-fast-intra / no-tskip-fast / no-cu-lossless / no-b-intra / no-splitrd-skip / rdpenalty=0 / psy-rd=4.00 / psy-rdoq=10.00 / no-rd-refine / no-lossless / cbqpoffs=0 / crqpoffs=0 / rc=crf / crf=17.0 / qcomp=0.60 / qpstep=1 / stats-write=0 / stats-read=0 / vbv-maxrate=160000 / vbv-bufsize=160000 / vbv-init=0.9 / crf-max=0.0 / crf-min=0.0 / ipratio=1.25 / pbratio=1.20 / aq-mode=3 / aq-strength=0.85 / no-cutree / zone-count=0 / no-strict-cbr / qg-size=32 / rc-grain / qpmax=69 / qpmin=0 / const-vbv / sar=1 / overscan=0 / videoformat=5 / range=0 / colorprim=9 / transfer=16 / colormatrix=9 / chromaloc=1 / chromaloc-top=2 / chromaloc-bottom=2 / display-window=0 / master-display=G(13250,34500)B(7500,3000)R(34000,16000)WP(15635,16450)L(10000000,50) / max-cll=1000,155 / min-luma=0 / max-luma=1023 / log2-max-poc-lsb=8 / vui-timing-info / vui-hrd-info / slices=1 / no-opt-qp-pps / no-opt-ref-list-length-pps / no-multi-pass-opt-rps / scenecut-bias=0.05 / no-opt-cu-delta-qp / no-aq-motion / hdr / hdr-opt / no-dhdr10-opt / no-idr-recovery-sei / analysis-reuse-level=5 / scale-factor=0 / refine-intra=0 / refine-inter=0 / refine-mv=0 / refine-ctu-distortion=0 / no-limit-sao / ctu-info=0 / no-lowpass-dct / refine-analysis-type=0 / copy-pic=1 / max-ausize-factor=1.0 / no-dynamic-refine / no-single-sei / no-hevc-aq / qp-adaptation-range=1.00
Default : Yes
Forced : No
Color range : Limited
Color primaries : BT.2020
Transfer characteristics : PQ
Matrix coefficients : BT.2020 non-constant
Mastering display color primaries : Display P3
Mastering display luminance : min: 0.0050 cd/m2, max: 1000 cd/m2
Maximum Content Light Level : 1000 cd/m2
Maximum Frame-Average Light Level : 155 cd/m2

Audio #1
ID : 2
Format : DTS XLL X
Format/Info : Digital Theater Systems
Commercial name : DTS-HD Master Audio
Codec ID : A_DTS
Duration : 1 h 28 min
Bit rate mode : Variable
Channel(s) : 8 channels
Channel(s)_Original : Object Based
Channel layout : Object Based
Sampling rate : 48.0 kHz
Frame rate : 93.750 FPS (512 SPF)
Bit depth : 24 bits
Language : English
Default : Yes
Forced : No

Audio #2
ID : 3
Format : AC-3
Format/Info : Audio Coding 3
Commercial name : Dolby Digital
Codec ID : A_AC3
Duration : 1 h 28 min
Bit rate mode : Constant
Bit rate : 192 kb/s
Channel(s) : 2 channels
Channel layout : L R
Sampling rate : 48.0 kHz
Frame rate : 31.250 FPS (1536 SPF)
Bit depth : 16 bits
Compression mode : Lossy
Stream size : 122 MiB (1%)
Title : Commentary with Director David Kerr
Language : English
Service kind : Complete Main
Default : No
Forced : No

Text #1
ID : 16
Format : UTF-8
Codec ID : S_TEXT/UTF8
Codec ID/Info : UTF-8 Plain Text
Title : English
Language : English
Default : No
Forced : No

Text #2
ID : 17
Format : UTF-8
Codec ID : S_TEXT/UTF8
Codec ID/Info : UTF-8 Plain Text
Title : English (SDH)
Language : English
Default : No
Forced : No

Text #3
ID : 18
Format : PGS
Codec ID : S_HDMV/PGS
Codec ID/Info : Picture based subtitle format used on BDs/HD-DVDs
Title : English (SDH)
Language : English
Default : No
Forced : No

Text #4
ID : 19
Format : PGS
Codec ID : S_HDMV/PGS
Codec ID/Info : Picture based subtitle format used on BDs/HD-DVDs
Title : Chinese
Language : Chinese
Default : No
Forced : No

Text #5
ID : 20
Format : PGS
Codec ID : S_HDMV/PGS
Codec ID/Info : Picture based subtitle format used on BDs/HD-DVDs
Title : Chinese
Language : Chinese
Default : No
Forced : No

Text #6
ID : 21
Format : PGS
Codec ID : S_HDMV/PGS
Codec ID/Info : Picture based subtitle format used on BDs/HD-DVDs
Title : Czech
Language : Czech
Default : No
Forced : No

Text #7
ID : 22
Format : PGS
Codec ID : S_HDMV/PGS
Codec ID/Info : Picture based subtitle format used on BDs/HD-DVDs
Title : German
Language : German
Default : No
Forced : No

Text #8
ID : 23
Format : PGS
Codec ID : S_HDMV/PGS
Codec ID/Info : Picture based subtitle format used on BDs/HD-DVDs
Title : Hungarian
Language : Hungarian
Default : No
Forced : No

Text #9
ID : 24
Format : PGS
Codec ID : S_HDMV/PGS
Codec ID/Info : Picture based subtitle format used on BDs/HD-DVDs
Title : Korean
Language : Korean
Default : No
Forced : No

Text #10
ID : 25
Format : PGS
Codec ID : S_HDMV/PGS
Codec ID/Info : Picture based subtitle format used on BDs/HD-DVDs
Title : Polish
Language : Polish
Default : No
Forced : No

Text #11
ID : 26
Format : PGS
Codec ID : S_HDMV/PGS
Codec ID/Info : Picture based subtitle format used on BDs/HD-DVDs
Title : Commentary with Director David Kerr
Language : English
Default : No
Forced : No

Text #12
ID : 27
Format : PGS
Codec ID : S_HDMV/PGS
Codec ID/Info : Picture based subtitle format used on BDs/HD-DVDs
Title : Commentary with Director David Kerr
Language : German
Default : No
Forced : No

Menu
00:00:00.000 : en:00:00:00.000
00:05:06.681 : en:00:05:06.681
00:09:05.378 : en:00:09:05.378
00:13:14.794 : en:00:13:14.794
00:19:22.370 : en:00:19:22.370
00:21:31.832 : en:00:21:31.832
00:26:41.975 : en:00:26:41.975
00:32:31.241 : en:00:32:31.241
00:34:48.086 : en:00:34:48.086
00:39:49.429 : en:00:39:49.429
00:45:49.121 : en:00:45:49.121
00:51:22.204 : en:00:51:22.204
00:54:31.852 : en:00:54:31.852
00:58:58.201 : en:00:58:58.201
01:02:58.441 : en:01:02:58.441
01:08:21.597 : en:01:08:21.597
01:11:40.963 : en:01:11:40.963
01:15:03.416 : en:01:15:03.416
01:20:54.808 : en:01:20:54.808
01:23:52.527 : en:01:23:52.527

Download

download 4k hdr movies download 4k hdr movies

Watch a movie trailer - Johnny English Strikes Again 4K 2018 Ultra HD 2160p
Comments and Feedback
Add your comment:
Your name:
Your E-Mail:
Code:
reload, if the code cannot be seen
Enter code: