Select movie Search movie Close search My Account

Angel Has Fallen 4K 2019 Ultra HD 2160p

Angel Has Fallen 4K 2019 Ultra HD 2160p
BDRemux / BDRip
Country: USA
Time: 2h 1min
IMDB: 6.5
Director: Ric Roman Waugh
Actors: Gerard Butler, Frederick Schmidt, Danny Huston, Rocci Williams, Piper Perabo, Harry Ditson, Linda John-Pierre, Ori Pfeffer, Morgan Freeman, Jasmine Hyde, Ian Porter, Laurel Lefkow, Michael Landes, Mark Arnold, Kerry Shale.

Story Movie

Angel Has Fallen 4K 2019 Ultra HD 2160p

The US President was assassinated, the main defendant is the faithful guardian angel of the head of state and secret service agent Mike Banning. Hiding from the FBI, he must find those who framed him and save the country and its leader from a deadly threat. Angel Has Fallen UHD List of 4k bluray.

Review 4K Movie

The Fall of the Angel 4K is the third time Gerard Butler has the opportunity to reincarnate as Mike Banning's secret service agent. Each time, Banning rescues the US president from an international conspiracy with an expressionless face, and, apparently, decides to continue the tradition. The president himself “turned black”, so to speak (instead of the handsome Aaron Eckhart from Olympus and London, the on-screen Americans elected the wise Morgan Freeman as president), and it is easy to see the idea - an encouraging sight for Americans already real, in which Barack Obama is still president . One way or another, Banning returns again to save Freeman, and kick the adversary, only this time the not-so-cunning action movie is trying to play on relevance: from drones and Russian spies to fake news and the inhabitants of the Oval Office.

The main premise driving the action is that Benning was set up. Now he is the main suspect in the assassination attempt on the president. The former secret agent has to hide in the vastness of the USA, including in the shelter of his father, a crazy Vietnam veteran.

The Fall of the Angel UHD feels as if it were assembled from a cliche of battle scenes. In many ways, “Fall” resembles the series “24 Hours,” and often tries to repeat the adventures of the brave Kiefer Sutherland, but, again, due to certain political circumstances, “Fall of the Angel” went a little too far in terms of absurdity. The lack of real confidence in action and the rejection of the laws of Newtonian physics are not surprises, but rather add to the entertainment. However, while modern Fast and the Furious films do the same with a smile, The Fall of the Angel UltraHD is deadly serious. Changing the tone of the film to make it more frivolous would be beneficial, but here we have a serious political drama (right), so even the scene after the credits cannot dilute the dull action movie.

Perhaps, recognizing that explosions and shots, cool music and chase scenes are not enough, the writers added a number of indecisive social comments. Indeed, if the film is about the presidency, why not put in a few words? The Fall of the Angel 2160p is trying to say something about the difficulties that soldiers face in adapting to a peaceful life and the indifferent nature of the war machine (not to mention the notorious “evil Russians” - a trend in Hollywood cinema that is gaining popularity again), as well as anti- Trump's politics, however, it seems, all together it more likely turns the action movie into a small unintentional comedy. In other words, the Fall series “jumped over the shark”: the first film was stupid but tense; the second - a big creative leap down; well, and the third is what will happen if all the actors are removed solely for salary.

Gerard Butler, despite his frankly illogical choice of projects, has recently shown that he is a good actor. “Fall of the Angel” is another passing film for him; in the script, his hero is represented by the monosyllabic granite hero of an action movie. All his exploits are so routine that they smack of humiliation. From time to time, Butler squints slyly, especially in scenes where he is portrayed as an unjustly pursued renegade, but in general, The Fall refers more to bad recordings in the actor’s filmography. Jada Pinkett Smith is needed in the film solely to give seriousness, Morgan Freeman spends half the time in a coma, and it is not difficult to find out the villains in the caste.

The third entry in the Falls series is grim and drawn out and basically repeats all the plot points of the two previous films. In the trikvel, the degree of absurdity is slightly increased and, as if gaining its self-awareness, the series finally rolled into Butler, mowing hordes of faceless armed guys. Of course, as in most films about a brave agent, "too old for all this shit," behind the atrocities are cardboard villains, even victory over which does not destroy all the bloated American pathos: God save America!

Mediainfo

movie BDRemux Video #1
ID : 1
Format : HEVC
Format/Info : High Efficiency Video Coding
Format profile : Main 10@L5.1@High
HDR format : SMPTE ST 2086, HDR10 compatible
Codec ID : V_MPEGH/ISO/HEVC
Duration : 2 h 1 min
Bit rate : 66.8 Mb/s
Width : 3 840 pixels
Height : 2 160 pixels
Display aspect ratio : 16:9
Frame rate mode : Constant
Frame rate : 23.976 (24000/1001) FPS
Color space : YUV
Chroma subsampling : 4:2:0 (Type 2)
Bit depth : 10 bits
Bits/(Pixel*Frame) : 0.336
Stream size : 56.5 GiB (80%)
Title : Angel.Has.Fallen.2019.2160p.BluRay.REMUX.AVC.DTS-HD.MA.TrueHD.7.1.Atmos
Language : English
Default : Yes
Forced : No
Color range : Limited
Color primaries : BT.2020
Transfer characteristics : PQ
Matrix coefficients : BT.2020 non-constant
Mastering display color primaries : Display P3
Mastering display luminance : min: 0.0010 cd/m2, max: 1000 cd/m2
Maximum Content Light Level : 1000 cd/m2
Maximum Frame-Average Light Level : 634 cd/m2

Video #2
ID : 2
Format : HEVC
Format/Info : High Efficiency Video Coding
Format profile : Main 10@L5.1@High
HDR format : SMPTE ST 2086, HDR10 compatible
Codec ID : V_MPEGH/ISO/HEVC
Duration : 2 h 1 min
Bit rate : 7 853 kb/s
Width : 1 920 pixels
Height : 1 080 pixels
Display aspect ratio : 16:9
Frame rate mode : Constant
Frame rate : 23.976 (24000/1001) FPS
Color space : YUV
Chroma subsampling : 4:2:0 (Type 2)
Bit depth : 10 bits
Bits/(Pixel*Frame) : 0.158
Stream size : 6.64 GiB (9%)
Title : Angel.Has.Fallen.2019.2160p.BluRay.REMUX.AVC.DTS-HD.MA.TrueHD.7.1.Atmos
Language : English
Default : No
Forced : No
Color range : Limited
Color primaries : BT.2020
Transfer characteristics : PQ
Matrix coefficients : BT.2020 non-constant
Mastering display color primaries : Display P3
Mastering display luminance : min: 0.0010 cd/m2, max: 1000 cd/m2

Audio #1
ID : 3
Format : MLP FBA 16-ch
Format/Info : Meridian Lossless Packing FBA with 16-channel presentation
Commercial name : Dolby TrueHD with Dolby Atmos
Codec ID : A_TRUEHD
Duration : 2 h 1 min
Bit rate mode : Variable
Bit rate : 3 046 kb/s
Maximum bit rate : 5 010 kb/s
Channel(s) : 8 channels
Channel layout : L R C LFE Ls Rs Lb Rb
Sampling rate : 48.0 kHz
Frame rate : 1 200.000 FPS (40 SPF)
Compression mode : Lossless
Stream size : 2.58 GiB (4%)
Title : Angel.Has.Fallen.2019.2160p.BluRay.REMUX.AVC.DTS-HD.MA.TrueHD.7.1.Atmos
Language : English
Default : Yes
Forced : No
Number of dynamic objects : 11
Bed channel count : 1 channel
Bed channel configuration : LFE

Audio #2
ID : 4
Format : DTS XLL
Format/Info : Digital Theater Systems
Commercial name : DTS-HD Master Audio
Codec ID : A_DTS
Duration : 2 h 1 min
Bit rate mode : Variable
Bit rate : 3 653 kb/s
Channel(s) : 8 channels
Channel layout : C L R LFE Lb Rb Lss Rss
Sampling rate : 48.0 kHz
Frame rate : 93.750 FPS (512 SPF)
Bit depth : 24 bits
Compression mode : Lossless
Stream size : 3.09 GiB (4%)
Title : Angel.Has.Fallen.2019.2160p.BluRay.REMUX.AVC.DTS-HD.MA.TrueHD.7.1.Atmos
Language : English
Default : No
Forced : No

Audio #3
ID : 5
Format : AC-3
Format/Info : Audio Coding 3
Commercial name : Dolby Digital
Codec ID : A_AC3
Duration : 2 h 1 min
Bit rate mode : Constant
Bit rate : 448 kb/s
Channel(s) : 6 channels
Channel layout : L R C LFE Ls Rs
Sampling rate : 48.0 kHz
Frame rate : 31.250 FPS (1536 SPF)
Bit depth : 16 bits
Compression mode : Lossy
Stream size : 388 MiB (1%)
Title : Angel.Has.Fallen.2019.2160p.BluRay.REMUX.AVC.DTS-HD.MA.TrueHD.7.1.Atmos
Language : English
Service kind : Complete Main
Default : No
Forced : No

Audio #4
ID : 6
Format : AC-3
Format/Info : Audio Coding 3
Commercial name : Dolby Digital
Codec ID : A_AC3
Duration : 2 h 1 min
Bit rate mode : Constant
Bit rate : 192 kb/s
Channel(s) : 2 channels
Channel layout : L R
Sampling rate : 48.0 kHz
Frame rate : 31.250 FPS (1536 SPF)
Bit depth : 16 bits
Compression mode : Lossy
Stream size : 166 MiB (0%)
Title : Angel.Has.Fallen.2019.2160p.BluRay.REMUX.AVC.DTS-HD.MA.TrueHD.7.1.Atmos
Language : English
Service kind : Complete Main
Default : No
Forced : No

Audio #5
ID : 7
Format : AC-3
Format/Info : Audio Coding 3
Commercial name : Dolby Digital
Codec ID : A_AC3
Duration : 2 h 1 min
Bit rate mode : Constant
Bit rate : 448 kb/s
Channel(s) : 6 channels
Channel layout : L R C LFE Ls Rs
Sampling rate : 48.0 kHz
Frame rate : 31.250 FPS (1536 SPF)
Bit depth : 16 bits
Compression mode : Lossy
Stream size : 388 MiB (1%)
Title : Angel.Has.Fallen.2019.2160p.BluRay.REMUX.AVC.DTS-HD.MA.TrueHD.7.1.Atmos
Language : Spanish
Service kind : Complete Main
Default : No
Forced : No

Audio #6
ID : 8
Format : AC-3
Format/Info : Audio Coding 3
Commercial name : Dolby Digital
Codec ID : A_AC3
Duration : 2 h 1 min
Bit rate mode : Constant
Bit rate : 448 kb/s
Channel(s) : 6 channels
Channel layout : L R C LFE Ls Rs
Sampling rate : 48.0 kHz
Frame rate : 31.250 FPS (1536 SPF)
Bit depth : 16 bits
Compression mode : Lossy
Stream size : 388 MiB (1%)
Title : Angel.Has.Fallen.2019.2160p.BluRay.REMUX.AVC.DTS-HD.MA.TrueHD.7.1.Atmos
Language : English
Service kind : Complete Main
Default : No
Forced : No

Audio #7
ID : 9
Format : AC-3
Format/Info : Audio Coding 3
Commercial name : Dolby Digital
Codec ID : A_AC3
Duration : 2 h 1 min
Bit rate mode : Constant
Bit rate : 640 kb/s
Channel(s) : 6 channels
Channel layout : L R C LFE Ls Rs
Sampling rate : 48.0 kHz
Frame rate : 31.250 FPS (1536 SPF)
Bit depth : 16 bits
Compression mode : Lossy
Stream size : 554 MiB (1%)
Title : Angel.Has.Fallen.2019.2160p.BluRay.REMUX.AVC.DTS-HD.MA.TrueHD.7.1.Atmos
Language : French
Service kind : Complete Main
Default : No
Forced : No

Text #1
ID : 10
Format : UTF-8
Codec ID : S_TEXT/UTF8
Codec ID/Info : UTF-8 Plain Text
Duration : 1 h 51 min
Bit rate : 58 b/s
Count of elements : 1452
Stream size : 47.5 KiB (0%)
Title : English-SRT
Language : English
Default : Yes
Forced : No

Text #2
ID : 11
Format : PGS
Muxing mode : zlib
Codec ID : S_HDMV/PGS
Codec ID/Info : Picture based subtitle format used on BDs/HD-DVDs
Duration : 1 h 52 min
Bit rate : 44.7 kb/s
Count of elements : 3092
Stream size : 36.1 MiB (0%)
Title : English-PGS
Language : English
Default : No
Forced : No

Text #3
ID : 12
Format : PGS
Muxing mode : zlib
Codec ID : S_HDMV/PGS
Codec ID/Info : Picture based subtitle format used on BDs/HD-DVDs
Duration : 1 h 50 min
Bit rate : 47.4 kb/s
Count of elements : 3064
Stream size : 37.7 MiB (0%)
Title : French-PGS
Language : French
Default : No
Forced : No

Text #4
ID : 13
Format : PGS
Muxing mode : zlib
Codec ID : S_HDMV/PGS
Codec ID/Info : Picture based subtitle format used on BDs/HD-DVDs
Duration : 1 h 51 min
Bit rate : 34.1 kb/s
Count of elements : 2716
Stream size : 27.2 MiB (0%)
Title : Spanish-PGS
Language : Spanish
Default : No
Forced : No

Text #5
ID : 14
Format : PGS
Muxing mode : zlib
Codec ID : S_HDMV/PGS
Codec ID/Info : Picture based subtitle format used on BDs/HD-DVDs
Duration : 1 h 30 min
Bit rate : 280 b/s
Count of elements : 22
Stream size : 186 KiB (0%)
Title : Spanish-FORCED-PGS
Language : Spanish
Default : No
Forced : No

Menu
00:00:00.000 : en:Chapter 01
00:06:48.616 : en:Chapter 02
00:15:07.948 : en:Chapter 03
00:23:13.767 : en:Chapter 04
00:28:35.380 : en:Chapter 05
00:39:39.627 : en:Chapter 06
00:45:33.439 : en:Chapter 07
00:50:56.053 : en:Chapter 08
00:59:23.017 : en:Chapter 09
01:06:50.715 : en:Chapter 10
01:16:25.581 : en:Chapter 11
01:24:10.879 : en:Chapter 12
01:30:14.409 : en:Chapter 13
01:37:42.064 : en:Chapter 14
01:44:54.454 : en:Chapter 15
01:51:08.119 : en:Chapter 16
movie BDRip Video
ID : 1
Format : HEVC
Format/Info : High Efficiency Video Coding
Format profile : Main 10@L5.1@High
HDR format : SMPTE ST 2086, HDR10 compatible
Codec ID : V_MPEGH/ISO/HEVC
Duration : 2 h 1 min
Bit rate : 18.0 Mb/s
Width : 3 840 pixels
Height : 1 606 pixels
Display aspect ratio : 2.40:1
Frame rate mode : Constant
Frame rate : 23.976 (24000/1001) FPS
Color space : YUV
Chroma subsampling : 4:2:0 (Type 2)
Bit depth : 10 bits
Bits/(Pixel*Frame) : 0.122
Stream size : 15.2 GiB (83%)
Title : Angel.Has.Fallen.2019.2160p.UHD.BluRay.x265-AAAUHD
Writing library : x265 3.2+8-7fc1f6ef2b96:[Windows][GCC 9.2.1][64 bit] 10bit
Encoding settings : cpuid=1111039 / frame-threads=4 / numa-pools=24 / wpp / no-pmode / no-pme / no-psnr / no-ssim / log-level=2 / input-csp=1 / input-res=3840x1606 / interlace=0 / total-frames=174146 / level-idc=51 / high-tier=1 / uhd-bd=0 / ref=4 / no-allow-non-conformance / repeat-headers / annexb / aud / hrd / info / hash=0 / no-temporal-layers / no-open-gop / min-keyint=1 / keyint=24 / gop-lookahead=0 / bframes=4 / b-adapt=2 / b-pyramid / bframe-bias=0 / rc-lookahead=25 / lookahead-slices=4 / scenecut=40 / radl=0 / no-splice / no-intra-refresh / ctu=64 / min-cu-size=8 / rect / no-amp / max-tu-size=32 / tu-inter-depth=1 / tu-intra-depth=1 / limit-tu=0 / rdoq-level=2 / dynamic-rd=0.00 / no-ssim-rd / signhide / no-tskip / nr-intra=0 / nr-inter=0 / no-constrained-intra / no-strong-intra-smoothing / max-merge=3 / limit-refs=3 / limit-modes / me=3 / subme=3 / merange=57 / temporal-mvp / no-frame-dup / no-hme / weightp / no-weightb / no-analyze-src-pics / deblock=-3:-3 / no-sao / no-sao-non-deblock / rd=4 / selective-sao=0 / no-early-skip / rskip / no-fast-intra / no-tskip-fast / no-cu-lossless / no-b-intra / no-splitrd-skip / rdpenalty=0 / psy-rd=2.00 / psy-rdoq=1.00 / no-rd-refine / no-lossless / cbqpoffs=0 / crqpoffs=0 / rc=crf / crf=17.0 / qcomp=0.60 / qpstep=4 / stats-write=0 / stats-read=0 / vbv-maxrate=160000 / vbv-bufsize=160000 / vbv-init=0.9 / crf-max=0.0 / crf-min=0.0 / ipratio=1.40 / pbratio=1.30 / aq-mode=2 / aq-strength=1.00 / cutree / zone-count=0 / no-strict-cbr / qg-size=32 / no-rc-grain / qpmax=69 / qpmin=0 / no-const-vbv / sar=1 / overscan=0 / videoformat=5 / range=0 / colorprim=9 / transfer=16 / colormatrix=9 / chromaloc=1 / chromaloc-top=2 / chromaloc-bottom=2 / display-window=0 / master-display=G(13250,34500)B(7500,3000)R(34000,16000)WP(15635,16450)L(10000000,10) / cll=1000,634 / min-luma=0 / max-luma=1023 / log2-max-poc-lsb=8 / vui-timing-info / vui-hrd-info / slices=1 / no-opt-qp-pps / no-opt-ref-list-length-pps / no-multi-pass-opt-rps / scenecut-bias=0.05 / no-opt-cu-delta-qp / no-aq-motion / hdr / hdr-opt / no-dhdr10-opt / no-idr-recovery-sei / analysis-reuse-level=5 / scale-factor=0 / refine-intra=0 / refine-inter=0 / refine-mv=1 / refine-ctu-distortion=0 / no-limit-sao / ctu-info=0 / no-lowpass-dct / refine-analysis-type=0 / copy-pic=1 / max-ausize-factor=1.0 / no-dynamic-refine / no-single-sei / no-hevc-aq / no-svt / no-field / qp-adaptation-range=1.00
Default : Yes
Forced : No
Color range : Limited
Color primaries : BT.2020
Transfer characteristics : PQ
Matrix coefficients : BT.2020 non-constant
Mastering display color primaries : Display P3
Mastering display luminance : min: 0.0010 cd/m2, max: 1000 cd/m2
Maximum Content Light Level : 1000 cd/m2
Maximum Frame-Average Light Level : 634 cd/m2

Audio #1
ID : 2
Format : MLP FBA 16-ch
Format/Info : Meridian Lossless Packing FBA with 16-channel presentation
Commercial name : Dolby TrueHD with Dolby Atmos
Codec ID : A_TRUEHD
Duration : 2 h 1 min
Bit rate mode : Variable
Bit rate : 3 046 kb/s
Maximum bit rate : 5 010 kb/s
Channel(s) : 8 channels
Channel layout : L R C LFE Ls Rs Lb Rb
Sampling rate : 48.0 kHz
Frame rate : 1 200.000 FPS (40 SPF)
Compression mode : Lossless
Stream size : 2.58 GiB (14%)
Title : English Dolby TrueHD with Dolby Atmos (TrueHD)
Language : English
Default : Yes
Forced : No
Number of dynamic objects : 11
Bed channel count : 1 channel
Bed channel configuration : LFE

Audio #2
ID : 3
Format : AC-3
Format/Info : Audio Coding 3
Commercial name : Dolby Digital
Codec ID : A_AC3
Duration : 2 h 1 min
Bit rate mode : Constant
Bit rate : 640 kb/s
Channel(s) : 6 channels
Channel layout : L R C LFE Ls Rs
Sampling rate : 48.0 kHz
Frame rate : 31.250 FPS (1536 SPF)
Bit depth : 16 bits
Compression mode : Lossy
Stream size : 554 MiB (3%)
Title : English Dolby Digital (AC3)
Language : English
Service kind : Complete Main
Default : No
Forced : No

Text #1
ID : 4
Format : UTF-8
Codec ID : S_TEXT/UTF8
Codec ID/Info : UTF-8 Plain Text
Duration : 1 h 52 min
Bit rate : 63 b/s
Count of elements : 1542
Stream size : 52.3 KiB (0%)
Title : English SDH
Language : English
Default : No
Forced : No

Text #2
ID : 5
Format : PGS
Codec ID : S_HDMV/PGS
Codec ID/Info : Picture based subtitle format used on BDs/HD-DVDs
Duration : 1 h 52 min
Bit rate : 44.7 kb/s
Count of elements : 3092
Stream size : 36.1 MiB (0%)
Title : English PGS
Language : English
Default : No
Forced : No

Menu
00:00:00.000 : :Chapter 01
00:06:48.950 : :Chapter 02
00:15:08.157 : :Chapter 03
00:23:13.809 : :Chapter 04
00:28:35.714 : :Chapter 05
00:39:39.627 : :Chapter 06
00:45:33.564 : :Chapter 07
00:50:56.053 : :Chapter 08
00:59:23.393 : :Chapter 09
01:06:50.882 : :Chapter 10
01:16:25.873 : :Chapter 11
01:24:11.046 : :Chapter 12
01:30:14.409 : :Chapter 13
01:37:42.065 : :Chapter 14
01:44:54.538 : :Chapter 15
01:51:08.120 : :Chapter 16

Download

download 4k hdr movies download 4k hdr movies

Watch a movie trailer - Angel Has Fallen 4K 2019 Ultra HD 2160p
Comments and Feedback
  1. - 0 +
    RANJITH mass  пишет:
    29 November 2019 11:23
    RANJITH MASS

  2. - 0 +
    zatone  пишет:
    3 December 2019 18:01
    The movie is broken, can you please repair. only download 39.5 gb
Add your comment:
Your name:
Your E-Mail:
Code:
reload, if the code cannot be seen
Enter code: