Select movie Search movie Close search My Account

Its a Wonderful Life 4K 1946 Ultra HD 2160p

Its a Wonderful Life 4K 1946 Ultra HD 2160p
BDRemux / BDRip
Country: USA
Time: 2h 10min
IMDB: 8.6
Director: Frank Capra
Actors: James Stewart, Donna Reed, Lionel Barrymore, Thomas Mitchell, Henry Travers, Beulah Bondi, Frank Faylen, Ward Bond, Gloria Grahame, H.B. Warner, Frank Albertson, Todd Karns, Samuel S. Hinds, Mary Treen, Virginia Patton.

Story Movie

Its a Wonderful Life 4K 1946 Ultra HD 2160p

George Bailey, the owner of a credit company in the fictional American town of Bedford Falls, an honest, helpful, loving husband and father, is suppressed by the hardships that have fallen on him and is considering suicide. Movie 4k download Its a Wonderful Life UHD.

Obviously, a person who refuses God’s greatest gift — life — needs the help of a guardian angel. And Heaven sends him to the rescue of Clarence, the only free at that time Angel of the Second Class, pleasant, kind, but inexperienced, who has not even deserved wings.

If he does his job well and can dissuade George from mortal sin, he will receive wings. And he had almost no time left ... Clarence finds the only right decision - to show George a world in which he does not exist.

Review 4K Movie

Americans, which everyone has known for a long time, are very fond of making Christmas pictures for the whole family. For them not to release at least one such film at Christmas - a nightmare and the collapse of all of Hollywood. So every winter we have to expect something new and interesting from the Westerners. But each river has its own beginning, and the film “Its a Wonderful Life 4K” can be called the beginning and foundation for further Christmas paintings.

This is a classic, ladies and gentlemen, a classic of American cinema, which is loved just as the Russians love The Irony of Fate. Yes, “Its a Wonderful Life UHD” is a New Year tradition that is strictly followed in America, and every winter a picture of Frank Capra is shown on television to once again feel the Christmas atmosphere. It should be noted that, unlike the film of Eldar Ryazanov, this film was shot back in 1946, after the Second World War. Naturally, no one suspected that the picture would be a real classic, because after the terrible war, many viewers simply wanted something joyful, uplifting, something enchanting and kind. And the creators thought: we’ll shoot a good comedy with an instructive lesson! “Its a Wonderful Life UltraHD” is just such a movie.

Yes, this is a traditional classic, but you should not compare it with the classics of Soviet cinema, with the same “Irony of Fate”, because this is a different culture. The paintings of Kapra and Ryazanov are similar only in that they are loved by people and love to revise, this is the movie that is called immortal and indispensable, it is more than just a classic.

One way or another, the plot of the picture is also very original and unpredictable, which means it is insanely interesting. Of course, the Christmas comedy was not without fiction, which only embellishes the tape. After all, as I said, the film was shot after the Second World War, and the audience just needed a kind and fabulous picture that could raise the mood and inspire hope and faith. We not only watch how the protagonist, George Bailey, tries to cope with the surging problems, but also gets acquainted with a friendly and sweet guardian angel without wings, which sends us to an alternative reality, where Bailey would not be. Of course, this is a very interesting course of events, so the viewing will not leave the audience indifferent, in particular real moviegoers and lovers of the classics.

“Its a Wonderful Life 2160p” is filled with optimism, naivety and a beautiful fairy tale, which creates a very unusual, magical, vibrant, like a garland, atmosphere. Note that the tape is black and white, but this does not prevent it from being rainbow and sunny (although its coloring would not hurt). The main advantage of the picture is the enchanting dialogues, beautiful and habitually pathos, but instructive and memorable. The viewer is provided with a look at the most spectacular and deepest human feelings, which are shown here very subtly and elegantly: love, despair, joy. And together with the heroes we feel these feelings, we recognize, we understand that somehow brings the viewer closer to the characters, to the film itself. You must admit that the “Irony of Fate” is still the same: with each revision we remember more and more the dialogues, the actions of the heroes, the more predictable the picture, the greater its intrigue. And “Its a Wonderful Life 4K” also with each episode makes up a single and bewitching intrigue.

Throughout the viewing, the viewer more and more deeply understands how the road is and how wonderful our life is. Naturally, its component is continuous adversity and obstacles, but should it be any different? After all, without black stripes there would not have been white, without problems and misfortunes a person would not have realized what joy and hope are. If life goes downhill. We must act and not give up, because this is the only right way that will lead to a cherished dream.

Mediainfo

movie BDRemux Video #1
ID : 1
Format : HEVC
Format/Info : High Efficiency Video Coding
Format profile : Main 10@L5.1@High
HDR format : SMPTE ST 2086, HDR10 compatible
Codec ID : V_MPEGH/ISO/HEVC
Duration : 2 h 10 min
Bit rate : 45.0 Mb/s
Width : 3 840 pixels
Height : 2 160 pixels
Display aspect ratio : 16:9
Frame rate mode : Constant
Frame rate : 23.976 (24000/1001) FPS
Color space : YUV
Chroma subsampling : 4:2:0 (Type 2)
Bit depth : 10 bits
Bits/(Pixel*Frame) : 0.226
Stream size : 41.0 GiB (85%)
Title : Its.a.Wonderful.Life.1946.2160p.BluRay.REMUX.HEVC.TrueHD.2.0
Language : English
Default : Yes
Forced : No
Color range : Limited
Color primaries : BT.2020
Transfer characteristics : PQ
Matrix coefficients : BT.2020 non-constant
Mastering display color primaries : BT.2020
Mastering display luminance : min: 0.0001 cd/m2, max: 1000 cd/m2

Video #2
ID : 2
Format : HEVC
Format/Info : High Efficiency Video Coding
Format profile : Main 10@L5.1@High
HDR format : SMPTE ST 2086, HDR10 compatible
Codec ID : V_MPEGH/ISO/HEVC
Duration : 2 h 10 min
Bit rate : 5 067 kb/s
Width : 1 920 pixels
Height : 1 080 pixels
Display aspect ratio : 16:9
Frame rate mode : Constant
Frame rate : 23.976 (24000/1001) FPS
Color space : YUV
Chroma subsampling : 4:2:0 (Type 2)
Bit depth : 10 bits
Bits/(Pixel*Frame) : 0.102
Stream size : 4.62 GiB (10%)
Title : Its.a.Wonderful.Life.1946.2160p.BluRay.REMUX.HEVC.TrueHD.2.0
Language : English
Default : No
Forced : No
Color range : Limited
Color primaries : BT.2020
Transfer characteristics : PQ
Matrix coefficients : BT.2020 non-constant
Mastering display color primaries : BT.2020
Mastering display luminance : min: 0.0001 cd/m2, max: 1000 cd/m2

Audio #1
ID : 3
Format : MLP FBA
Format/Info : Meridian Lossless Packing FBA
Commercial name : Dolby TrueHD
Codec ID : A_TRUEHD
Duration : 2 h 10 min
Bit rate mode : Variable
Bit rate : 677 kb/s
Maximum bit rate : 1 080 kb/s
Channel(s) : 2 channels
Channel layout : L R
Sampling rate : 48.0 kHz
Frame rate : 1 200.000 FPS (40 SPF)
Compression mode : Lossless
Stream size : 632 MiB (1%)
Title : Its.a.Wonderful.Life.1946.2160p.BluRay.REMUX.HEVC.TrueHD.2.0
Language : English
Default : Yes
Forced : No

Audio #2
ID : 4
Format : AC-3
Format/Info : Audio Coding 3
Commercial name : Dolby Digital
Codec ID : A_AC3
Duration : 2 h 10 min
Bit rate mode : Constant
Bit rate : 640 kb/s
Channel(s) : 2 channels
Channel layout : L R
Sampling rate : 48.0 kHz
Frame rate : 31.250 FPS (1536 SPF)
Bit depth : 16 bits
Compression mode : Lossy
Stream size : 598 MiB (1%)
Title : Its.a.Wonderful.Life.1946.2160p.BluRay.REMUX.HEVC.TrueHD.2.0
Language : English
Service kind : Complete Main
Default : No
Forced : No

Audio #3
ID : 5
Format : AC-3
Format/Info : Audio Coding 3
Commercial name : Dolby Digital
Codec ID : A_AC3
Duration : 2 h 10 min
Bit rate mode : Constant
Bit rate : 224 kb/s
Channel(s) : 2 channels
Channel layout : L R
Sampling rate : 48.0 kHz
Frame rate : 31.250 FPS (1536 SPF)
Bit depth : 16 bits
Compression mode : Lossy
Delay relative to video : 667 ms
Stream size : 209 MiB (0%)
Title : Its.a.Wonderful.Life.1946.2160p.BluRay.REMUX.HEVC.TrueHD.2.0
Language : English
Service kind : Complete Main
Default : No
Forced : No

Audio #4
ID : 6
Format : AC-3
Format/Info : Audio Coding 3
Commercial name : Dolby Digital
Codec ID : A_AC3
Duration : 2 h 10 min
Bit rate mode : Constant
Bit rate : 224 kb/s
Channel(s) : 2 channels
Channel layout : L R
Sampling rate : 48.0 kHz
Frame rate : 31.250 FPS (1536 SPF)
Bit depth : 16 bits
Compression mode : Lossy
Delay relative to video : 667 ms
Stream size : 209 MiB (0%)
Title : Its.a.Wonderful.Life.1946.2160p.BluRay.REMUX.HEVC.TrueHD.2.0
Language : German
Service kind : Complete Main
Default : No
Forced : No

Audio #5
ID : 7
Format : AC-3
Format/Info : Audio Coding 3
Commercial name : Dolby Digital
Codec ID : A_AC3
Duration : 2 h 10 min
Bit rate mode : Constant
Bit rate : 224 kb/s
Channel(s) : 2 channels
Channel layout : L R
Sampling rate : 48.0 kHz
Frame rate : 31.250 FPS (1536 SPF)
Bit depth : 16 bits
Compression mode : Lossy
Delay relative to video : 667 ms
Stream size : 209 MiB (0%)
Title : Its.a.Wonderful.Life.1946.2160p.BluRay.REMUX.HEVC.TrueHD.2.0
Language : Spanish
Service kind : Complete Main
Default : No
Forced : No

Audio #6
ID : 8
Format : AC-3
Format/Info : Audio Coding 3
Commercial name : Dolby Digital
Codec ID : A_AC3
Duration : 2 h 10 min
Bit rate mode : Constant
Bit rate : 224 kb/s
Channel(s) : 2 channels
Channel layout : L R
Sampling rate : 48.0 kHz
Frame rate : 31.250 FPS (1536 SPF)
Bit depth : 16 bits
Compression mode : Lossy
Delay relative to video : 667 ms
Stream size : 209 MiB (0%)
Title : Its.a.Wonderful.Life.1946.2160p.BluRay.REMUX.HEVC.TrueHD.2.0
Language : French
Service kind : Complete Main
Default : No
Forced : No

Audio #7
ID : 9
Format : AC-3
Format/Info : Audio Coding 3
Commercial name : Dolby Digital
Codec ID : A_AC3
Duration : 2 h 10 min
Bit rate mode : Constant
Bit rate : 224 kb/s
Channel(s) : 2 channels
Channel layout : L R
Sampling rate : 48.0 kHz
Frame rate : 31.250 FPS (1536 SPF)
Bit depth : 16 bits
Compression mode : Lossy
Delay relative to video : 667 ms
Stream size : 209 MiB (0%)
Title : Its.a.Wonderful.Life.1946.2160p.BluRay.REMUX.HEVC.TrueHD.2.0
Language : Italian
Service kind : Complete Main
Default : No
Forced : No

Audio #8
ID : 10
Format : AC-3
Format/Info : Audio Coding 3
Commercial name : Dolby Digital
Codec ID : A_AC3
Duration : 2 h 10 min
Bit rate mode : Constant
Bit rate : 224 kb/s
Channel(s) : 2 channels
Channel layout : L R
Sampling rate : 48.0 kHz
Frame rate : 31.250 FPS (1536 SPF)
Bit depth : 16 bits
Compression mode : Lossy
Delay relative to video : 667 ms
Stream size : 209 MiB (0%)
Title : Its.a.Wonderful.Life.1946.2160p.BluRay.REMUX.HEVC.TrueHD.2.0
Language : Japanese
Service kind : Complete Main
Default : No
Forced : No

Text #1
ID : 11
Format : UTF-8
Codec ID : S_TEXT/UTF8
Codec ID/Info : UTF-8 Plain Text
Duration : 2 h 8 min
Bit rate : 90 b/s
Count of elements : 2344
Stream size : 85.6 KiB (0%)
Title : English-SRT
Language : English
Default : Yes
Forced : No

Text #2
ID : 12
Format : PGS
Muxing mode : zlib
Codec ID : S_HDMV/PGS
Codec ID/Info : Picture based subtitle format used on BDs/HD-DVDs
Duration : 2 h 8 min
Bit rate : 55.2 kb/s
Count of elements : 4694
Stream size : 50.7 MiB (0%)
Title : English-PGS
Language : English
Default : No
Forced : No

Text #3
ID : 13
Format : PGS
Muxing mode : zlib
Codec ID : S_HDMV/PGS
Codec ID/Info : Picture based subtitle format used on BDs/HD-DVDs
Duration : 2 h 8 min
Bit rate : 59.0 kb/s
Count of elements : 5002
Stream size : 54.2 MiB (0%)
Title : English-SDH-PGS
Language : English
Default : No
Forced : No

Text #4
ID : 14
Format : PGS
Muxing mode : zlib
Codec ID : S_HDMV/PGS
Codec ID/Info : Picture based subtitle format used on BDs/HD-DVDs
Duration : 2 h 9 min
Bit rate : 41.1 kb/s
Count of elements : 4384
Stream size : 38.0 MiB (0%)
Title : Danish-PGS
Language : Danish
Default : No
Forced : No

Text #5
ID : 15
Format : PGS
Muxing mode : zlib
Codec ID : S_HDMV/PGS
Codec ID/Info : Picture based subtitle format used on BDs/HD-DVDs
Duration : 2 h 9 min
Bit rate : 55.2 kb/s
Count of elements : 4764
Stream size : 51.0 MiB (0%)
Title : German-PGS
Language : German
Default : No
Forced : No

Text #6
ID : 16
Format : PGS
Muxing mode : zlib
Codec ID : S_HDMV/PGS
Codec ID/Info : Picture based subtitle format used on BDs/HD-DVDs
Duration : 2 h 8 min
Bit rate : 636 b/s
Count of elements : 56
Stream size : 600 KiB (0%)
Title : German-FORCED-PGS
Language : German
Default : No
Forced : No

Text #7
ID : 17
Format : PGS
Muxing mode : zlib
Codec ID : S_HDMV/PGS
Codec ID/Info : Picture based subtitle format used on BDs/HD-DVDs
Duration : 2 h 10 min
Bit rate : 43.4 kb/s
Count of elements : 4376
Stream size : 40.4 MiB (0%)
Title : Spanish-PGS
Language : Spanish
Default : No
Forced : No

Text #8
ID : 18
Format : PGS
Muxing mode : zlib
Codec ID : S_HDMV/PGS
Codec ID/Info : Picture based subtitle format used on BDs/HD-DVDs
Duration : 2 h 1 min
Bit rate : 506 b/s
Count of elements : 46
Stream size : 452 KiB (0%)
Title : Spanish-FORCED-PGS
Language : Spanish
Default : No
Forced : No

Text #9
ID : 19
Format : PGS
Muxing mode : zlib
Codec ID : S_HDMV/PGS
Codec ID/Info : Picture based subtitle format used on BDs/HD-DVDs
Duration : 2 h 10 min
Bit rate : 46.4 kb/s
Count of elements : 4442
Stream size : 43.2 MiB (0%)
Title : French-PGS
Language : French
Default : No
Forced : No

Text #10
ID : 20
Format : PGS
Muxing mode : zlib
Codec ID : S_HDMV/PGS
Codec ID/Info : Picture based subtitle format used on BDs/HD-DVDs
Duration : 2 h 9 min
Bit rate : 580 b/s
Count of elements : 56
Stream size : 551 KiB (0%)
Title : French-FORCED-PGS
Language : French
Default : No
Forced : No

Text #11
ID : 21
Format : PGS
Muxing mode : zlib
Codec ID : S_HDMV/PGS
Codec ID/Info : Picture based subtitle format used on BDs/HD-DVDs
Duration : 2 h 9 min
Bit rate : 40.8 kb/s
Count of elements : 4380
Stream size : 37.7 MiB (0%)
Title : Italian-PGS
Language : Italian
Default : No
Forced : No

Text #12
ID : 22
Format : PGS
Muxing mode : zlib
Codec ID : S_HDMV/PGS
Codec ID/Info : Picture based subtitle format used on BDs/HD-DVDs
Duration : 2 h 8 min
Bit rate : 499 b/s
Count of elements : 46
Stream size : 471 KiB (0%)
Title : Italian-FORCED-PGS
Language : Italian
Default : No
Forced : No

Text #13
ID : 23
Format : PGS
Muxing mode : zlib
Codec ID : S_HDMV/PGS
Codec ID/Info : Picture based subtitle format used on BDs/HD-DVDs
Duration : 2 h 8 min
Bit rate : 27.8 kb/s
Count of elements : 3708
Stream size : 25.4 MiB (0%)
Title : Japanese-PGS
Language : Japanese
Default : No
Forced : No

Text #14
ID : 24
Format : PGS
Muxing mode : zlib
Codec ID : S_HDMV/PGS
Codec ID/Info : Picture based subtitle format used on BDs/HD-DVDs
Duration : 2 h 9 min
Bit rate : 40.6 kb/s
Count of elements : 3540
Stream size : 37.5 MiB (0%)
Title : Dutch-PGS
Language : Dutch
Default : No
Forced : No

Text #15
ID : 25
Format : PGS
Muxing mode : zlib
Codec ID : S_HDMV/PGS
Codec ID/Info : Picture based subtitle format used on BDs/HD-DVDs
Duration : 2 h 9 min
Bit rate : 40.8 kb/s
Count of elements : 3614
Stream size : 37.7 MiB (0%)
Title : Norwegian-PGS
Language : Norwegian
Default : No
Forced : No

Text #16
ID : 26
Format : PGS
Muxing mode : zlib
Codec ID : S_HDMV/PGS
Codec ID/Info : Picture based subtitle format used on BDs/HD-DVDs
Duration : 2 h 9 min
Bit rate : 44.6 kb/s
Count of elements : 4210
Stream size : 41.3 MiB (0%)
Title : Finnish-PGS
Language : Finnish
Default : No
Forced : No

Text #17
ID : 27
Format : PGS
Muxing mode : zlib
Codec ID : S_HDMV/PGS
Codec ID/Info : Picture based subtitle format used on BDs/HD-DVDs
Duration : 2 h 9 min
Bit rate : 34.5 kb/s
Count of elements : 3576
Stream size : 31.9 MiB (0%)
Title : Swedish-PGS
Language : Swedish
Default : No
Forced : No

Text #18
ID : 28
Format : PGS
Muxing mode : zlib
Codec ID : S_HDMV/PGS
Codec ID/Info : Picture based subtitle format used on BDs/HD-DVDs
Duration : 2 h 7 min
Bit rate : 336 b/s
Count of elements : 40
Stream size : 315 KiB (0%)
Title : Japanese-PGS
Language : Japanese
Default : No
Forced : No

Menu
00:00:00.000 : en:Chapter 01
00:03:43.264 : en:Chapter 02
00:05:25.575 : en:Chapter 03
00:07:46.507 : en:Chapter 04
00:11:39.907 : en:Chapter 05
00:14:17.523 : en:Chapter 06
00:19:03.517 : en:Chapter 07
00:21:14.481 : en:Chapter 08
00:24:03.942 : en:Chapter 09
00:35:16.239 : en:Chapter 10
00:42:31.966 : en:Chapter 11
00:50:16.763 : en:Chapter 12
01:00:12.150 : en:Chapter 13
01:03:50.201 : en:Chapter 14
01:13:55.764 : en:Chapter 15
01:16:51.023 : en:Chapter 16
01:19:07.951 : en:Chapter 17
01:23:00.517 : en:Chapter 18
01:30:24.710 : en:Chapter 19
01:32:20.493 : en:Chapter 20
01:35:34.812 : en:Chapter 21
01:38:39.830 : en:Chapter 22
01:39:45.771 : en:Chapter 23
01:46:44.898 : en:Chapter 24
01:52:47.552 : en:Chapter 25
02:01:24.944 : en:Chapter 26
02:03:36.117 : en:Chapter 27
02:08:10.015 : en:Chapter 28
movie BDRip Video
ID : 1
Format : HEVC
Format/Info : High Efficiency Video Coding
Format profile : Main 10@L5.1@High
HDR format : SMPTE ST 2086, HDR10 compatible
Codec ID : V_MPEGH/ISO/HEVC
Duration : 2 h 10 min
Bit rate : 31.1 Mb/s
Width : 2 962 pixels
Height : 2 160 pixels
Display aspect ratio : 1.371
Frame rate mode : Constant
Frame rate : 23.976 (24000/1001) FPS
Color space : YUV
Chroma subsampling : 4:2:0 (Type 2)
Bit depth : 10 bits
Bits/(Pixel*Frame) : 0.203
Stream size : 28.4 GiB (95%)
Writing library : x265 3.2+8-7fc1f6ef2b96:[Windows][GCC 6.3.0][64 bit] 10bit
Encoding settings : cpuid=1111039 / frame-threads=4 / numa-pools=20 / wpp / no-pmode / no-pme / no-psnr / no-ssim / log-level=2 / input-csp=1 / input-res=2962x2160 / interlace=0 / total-frames=187791 / level-idc=51 / high-tier=1 / uhd-bd=0 / ref=4 / no-allow-non-conformance / repeat-headers / annexb / aud / hrd / info / hash=0 / no-temporal-layers / no-open-gop / min-keyint=1 / keyint=24 / gop-lookahead=0 / bframes=4 / b-adapt=2 / b-pyramid / bframe-bias=0 / rc-lookahead=25 / lookahead-slices=4 / scenecut=40 / radl=0 / no-splice / no-intra-refresh / ctu=64 / min-cu-size=8 / rect / no-amp / max-tu-size=32 / tu-inter-depth=1 / tu-intra-depth=1 / limit-tu=0 / rdoq-level=2 / dynamic-rd=0.00 / no-ssim-rd / signhide / no-tskip / nr-intra=0 / nr-inter=0 / no-constrained-intra / no-strong-intra-smoothing / max-merge=3 / limit-refs=3 / limit-modes / me=3 / subme=3 / merange=57 / temporal-mvp / no-frame-dup / no-hme / weightp / no-weightb / no-analyze-src-pics / deblock=-3:-3 / no-sao / no-sao-non-deblock / rd=4 / selective-sao=0 / no-early-skip / rskip / no-fast-intra / no-tskip-fast / no-cu-lossless / no-b-intra / no-splitrd-skip / rdpenalty=0 / psy-rd=2.00 / psy-rdoq=1.00 / no-rd-refine / no-lossless / cbqpoffs=0 / crqpoffs=0 / rc=crf / crf=19.5 / qcomp=0.60 / qpstep=4 / stats-write=0 / stats-read=0 / vbv-maxrate=160000 / vbv-bufsize=160000 / vbv-init=0.9 / crf-max=0.0 / crf-min=0.0 / ipratio=1.40 / pbratio=1.30 / aq-mode=1 / aq-strength=1.00 / cutree / zone-count=0 / no-strict-cbr / qg-size=32 / no-rc-grain / qpmax=69 / qpmin=0 / no-const-vbv / sar=1 / overscan=0 / videoformat=5 / range=0 / colorprim=9 / transfer=16 / colormatrix=9 / chromaloc=1 / chromaloc-top=2 / chromaloc-bottom=2 / display-window=0 / master-display=G(8500,39850)B(6550,2300)R(35400,14600)WP(15635,16450)L(10000000,1) / cll=0,0 / min-luma=0 / max-luma=1023 / log2-max-poc-lsb=8 / vui-timing-info / vui-hrd-info / slices=1 / no-opt-qp-pps / no-opt-ref-list-length-pps / no-multi-pass-opt-rps / scenecut-bias=0.05 / no-opt-cu-delta-qp / no-aq-motion / hdr / hdr-opt / no-dhdr10-opt / no-idr-recovery-sei / analysis-reuse-level=5 / scale-factor=0 / refine-intra=0 / refine-inter=0 / refine-mv=1 / refine-ctu-distortion=0 / no-limit-sao / ctu-info=0 / no-lowpass-dct / refine-analysis-type=0 / copy-pic=1 / max-ausize-factor=1.0 / no-dynamic-refine / no-single-sei / no-hevc-aq / no-svt / no-field / qp-adaptation-range=1.00
Default : Yes
Forced : No
Color range : Limited
Color primaries : BT.2020
Transfer characteristics : PQ
Matrix coefficients : BT.2020 non-constant
Mastering display color primaries : BT.2020
Mastering display luminance : min: 0.0001 cd/m2, max: 1000 cd/m2

Audio #1
ID : 2
Format : MLP FBA
Format/Info : Meridian Lossless Packing FBA
Commercial name : Dolby TrueHD
Codec ID : A_TRUEHD
Duration : 2 h 10 min
Bit rate mode : Variable
Bit rate : 677 kb/s
Maximum bit rate : 1 080 kb/s
Channel(s) : 2 channels
Channel layout : L R
Sampling rate : 48.0 kHz
Frame rate : 1 200.000 FPS (40 SPF)
Compression mode : Lossless
Stream size : 632 MiB (2%)
Language : English
Default : Yes
Forced : No

Audio #2
ID : 3
Format : AC-3
Format/Info : Audio Coding 3
Commercial name : Dolby Digital
Codec ID : A_AC3
Duration : 2 h 10 min
Bit rate mode : Constant
Bit rate : 640 kb/s
Channel(s) : 2 channels
Channel layout : L R
Sampling rate : 48.0 kHz
Frame rate : 31.250 FPS (1536 SPF)
Bit depth : 16 bits
Compression mode : Lossy
Stream size : 598 MiB (2%)
Language : English
Service kind : Complete Main
Default : No
Forced : No

Text #1
ID : 4
Format : PGS
Muxing mode : zlib
Codec ID : S_HDMV/PGS
Codec ID/Info : Picture based subtitle format used on BDs/HD-DVDs
Duration : 2 h 8 min
Bit rate : 55.2 kb/s
Count of elements : 4694
Stream size : 50.7 MiB (0%)
Language : English
Default : No
Forced : No

Text #2
ID : 5
Format : PGS
Muxing mode : zlib
Codec ID : S_HDMV/PGS
Codec ID/Info : Picture based subtitle format used on BDs/HD-DVDs
Duration : 2 h 8 min
Bit rate : 59.0 kb/s
Count of elements : 5002
Stream size : 54.2 MiB (0%)
Title : SDH
Language : English
Default : No
Forced : No

Text #3
ID : 6
Format : PGS
Muxing mode : zlib
Codec ID : S_HDMV/PGS
Codec ID/Info : Picture based subtitle format used on BDs/HD-DVDs
Duration : 2 h 9 min
Bit rate : 41.1 kb/s
Count of elements : 4384
Stream size : 38.0 MiB (0%)
Language : Danish
Default : No
Forced : No

Text #4
ID : 7
Format : PGS
Muxing mode : zlib
Codec ID : S_HDMV/PGS
Codec ID/Info : Picture based subtitle format used on BDs/HD-DVDs
Duration : 2 h 9 min
Bit rate : 55.2 kb/s
Count of elements : 4764
Stream size : 51.0 MiB (0%)
Language : German
Default : No
Forced : No

Text #5
ID : 8
Format : PGS
Muxing mode : zlib
Codec ID : S_HDMV/PGS
Codec ID/Info : Picture based subtitle format used on BDs/HD-DVDs
Duration : 2 h 10 min
Bit rate : 43.4 kb/s
Count of elements : 4376
Stream size : 40.4 MiB (0%)
Language : Spanish
Default : No
Forced : No

Text #6
ID : 9
Format : PGS
Muxing mode : zlib
Codec ID : S_HDMV/PGS
Codec ID/Info : Picture based subtitle format used on BDs/HD-DVDs
Duration : 2 h 10 min
Bit rate : 46.4 kb/s
Count of elements : 4442
Stream size : 43.2 MiB (0%)
Language : French
Default : No
Forced : No

Text #7
ID : 10
Format : PGS
Muxing mode : zlib
Codec ID : S_HDMV/PGS
Codec ID/Info : Picture based subtitle format used on BDs/HD-DVDs
Duration : 2 h 9 min
Bit rate : 40.8 kb/s
Count of elements : 4380
Stream size : 37.7 MiB (0%)
Language : Italian
Default : No
Forced : No

Text #8
ID : 11
Format : PGS
Muxing mode : zlib
Codec ID : S_HDMV/PGS
Codec ID/Info : Picture based subtitle format used on BDs/HD-DVDs
Duration : 2 h 8 min
Bit rate : 27.8 kb/s
Count of elements : 3708
Stream size : 25.4 MiB (0%)
Language : Japanese
Default : No
Forced : No

Text #9
ID : 12
Format : PGS
Muxing mode : zlib
Codec ID : S_HDMV/PGS
Codec ID/Info : Picture based subtitle format used on BDs/HD-DVDs
Duration : 2 h 9 min
Bit rate : 40.6 kb/s
Count of elements : 3540
Stream size : 37.5 MiB (0%)
Language : Dutch
Default : No
Forced : No

Text #10
ID : 13
Format : PGS
Muxing mode : zlib
Codec ID : S_HDMV/PGS
Codec ID/Info : Picture based subtitle format used on BDs/HD-DVDs
Duration : 2 h 9 min
Bit rate : 40.8 kb/s
Count of elements : 3614
Stream size : 37.7 MiB (0%)
Language : Norwegian
Default : No
Forced : No

Text #11
ID : 14
Format : PGS
Muxing mode : zlib
Codec ID : S_HDMV/PGS
Codec ID/Info : Picture based subtitle format used on BDs/HD-DVDs
Duration : 2 h 9 min
Bit rate : 44.6 kb/s
Count of elements : 4210
Stream size : 41.3 MiB (0%)
Language : Finnish
Default : No
Forced : No

Text #12
ID : 15
Format : PGS
Muxing mode : zlib
Codec ID : S_HDMV/PGS
Codec ID/Info : Picture based subtitle format used on BDs/HD-DVDs
Duration : 2 h 9 min
Bit rate : 34.5 kb/s
Count of elements : 3576
Stream size : 31.9 MiB (0%)
Language : Swedish
Default : No
Forced : No

Text #13
ID : 16
Format : PGS
Muxing mode : zlib
Codec ID : S_HDMV/PGS
Codec ID/Info : Picture based subtitle format used on BDs/HD-DVDs
Duration : 2 h 7 min
Bit rate : 336 b/s
Count of elements : 40
Stream size : 315 KiB (0%)
Language : Japanese
Default : No
Forced : No

Menu
00:00:00.000 : :Chapter 01
00:03:43.306 : :Chapter 02
00:05:25.617 : :Chapter 03
00:07:46.549 : :Chapter 04
00:11:39.991 : :Chapter 05
00:14:17.732 : :Chapter 06
00:19:03.559 : :Chapter 07
00:21:14.732 : :Chapter 08
00:24:03.984 : :Chapter 09
00:35:16.323 : :Chapter 10
00:42:32.008 : :Chapter 11
00:50:16.805 : :Chapter 12
01:00:12.192 : :Chapter 13
01:03:50.243 : :Chapter 14
01:13:55.806 : :Chapter 15
01:16:51.065 : :Chapter 16
01:19:07.993 : :Chapter 17
01:23:00.559 : :Chapter 18
01:30:24.753 : :Chapter 19
01:32:20.618 : :Chapter 20
01:35:34.854 : :Chapter 21
01:38:39.956 : :Chapter 22
01:39:45.813 : :Chapter 23
01:46:45.190 : :Chapter 24
01:52:47.928 : :Chapter 25
02:01:25.069 : :Chapter 26
02:03:36.451 : :Chapter 27
02:08:10.182 : :Chapter 28

Download

download 4k hdr movies download 4k hdr movies

Watch a movie trailer - Its a Wonderful Life 4K 1946 Ultra HD 2160p
Comments and Feedback
Add your comment:
Your name:
Your E-Mail:
Code:
reload, if the code cannot be seen
Enter code: